  0
SECTION
  2
HEADER
  9
$ACADVER
  1
AC1032
  9
$ACADMAINTVER
 90
      174
  9
$DWGCODEPAGE
  3
ANSI_936
  9
$LASTSAVEDBY
  1
MSI
  9
$REQUIREDVERSIONS
160
                 0
  9
$INSBASE
 10
0.0
 20
0.0
 30
0.0
  9
$EXTMIN
 10
-151.4555822917756
 20
-9.232796812524611
 30
0.0
  9
$EXTMAX
 10
280.4812144330353
 20
200.7672031874754
 30
0.0
  9
$LIMMIN
 10
0.0
 20
0.0
  9
$LIMMAX
 10
420.0
 20
297.0
  9
$ORTHOMODE
 70
     0
  9
$REGENMODE
 70
     1
  9
$FILLMODE
 70
     1
  9
$QTEXTMODE
 70
     0
  9
$MIRRTEXT
 70
     0
  9
$LTSCALE
 40
1.0
  9
$ATTMODE
 70
     1
  9
$TEXTSIZE
 40
2.5
  9
$TRACEWID
 40
1.0
  9
$TEXTSTYLE
  7
Standard
  9
$CLAYER
  8
0
  9
$CELTYPE
  6
ByLayer
  9
$CECOLOR
 62
   256
  9
$CELTSCALE
 40
1.0
  9
$DISPSILH
 70
     0
  9
$DIMSCALE
 40
1.0
  9
$DIMASZ
 40
2.5
  9
$DIMEXO
 40
0.625
  9
$DIMDLI
 40
3.75
  9
$DIMRND
 40
0.0
  9
$DIMDLE
 40
0.0
  9
$DIMEXE
 40
1.25
  9
$DIMTP
 40
0.0
  9
$DIMTM
 40
0.0
  9
$DIMTXT
 40
2.5
  9
$DIMCEN
 40
2.5
  9
$DIMTSZ
 40
0.0
  9
$DIMTOL
 70
     0
  9
$DIMLIM
 70
     0
  9
$DIMTIH
 70
     0
  9
$DIMTOH
 70
     0
  9
$DIMSE1
 70
     0
  9
$DIMSE2
 70
     0
  9
$DIMTAD
 70
     1
  9
$DIMZIN
 70
     8
  9
$DIMBLK
  1

  9
$DIMASO
 70
     1
  9
$DIMSHO
 70
     1
  9
$DIMPOST
  1

  9
$DIMAPOST
  1

  9
$DIMALT
 70
     0
  9
$DIMALTD
 70
     3
  9
$DIMALTF
 40
0.03937007874016
  9
$DIMLFAC
 40
1.0
  9
$DIMTOFL
 70
     1
  9
$DIMTVP
 40
0.0
  9
$DIMTIX
 70
     0
  9
$DIMSOXD
 70
     0
  9
$DIMSAH
 70
     0
  9
$DIMBLK1
  1

  9
$DIMBLK2
  1

  9
$DIMSTYLE
  2
ISO-25
  9
$DIMCLRD
 70
     0
  9
$DIMCLRE
 70
     0
  9
$DIMCLRT
 70
     0
  9
$DIMTFAC
 40
1.0
  9
$DIMGAP
 40
0.625
  9
$DIMJUST
 70
     0
  9
$DIMSD1
 70
     0
  9
$DIMSD2
 70
     0
  9
$DIMTOLJ
 70
     0
  9
$DIMTZIN
 70
     8
  9
$DIMALTZ
 70
     0
  9
$DIMALTTZ
 70
     0
  9
$DIMUPT
 70
     0
  9
$DIMDEC
 70
     2
  9
$DIMTDEC
 70
     2
  9
$DIMALTU
 70
     2
  9
$DIMALTTD
 70
     3
  9
$DIMTXSTY
  7
Standard
  9
$DIMAUNIT
 70
     0
  9
$DIMADEC
 70
     0
  9
$DIMALTRND
 40
0.0
  9
$DIMAZIN
 70
     0
  9
$DIMDSEP
 70
    44
  9
$DIMATFIT
 70
     3
  9
$DIMFRAC
 70
     0
  9
$DIMLDRBLK
  1

  9
$DIMLUNIT
 70
     2
  9
$DIMLWD
 70
    -2
  9
$DIMLWE
 70
    -2
  9
$DIMTMOVE
 70
     0
  9
$DIMFXL
 40
1.0
  9
$DIMFXLON
 70
     0
  9
$DIMJOGANG
 40
0.7853981633974483
  9
$DIMTFILL
 70
     0
  9
$DIMTFILLCLR
 70
     0
  9
$DIMARCSYM
 70
     0
  9
$DIMLTYPE
  6

  9
$DIMLTEX1
  6

  9
$DIMLTEX2
  6

  9
$DIMTXTDIRECTION
 70
     0
  9
$LUNITS
 70
     2
  9
$LUPREC
 70
     4
  9
$SKETCHINC
 40
1.0
  9
$FILLETRAD
 40
0.0
  9
$AUNITS
 70
     0
  9
$AUPREC
 70
     0
  9
$MENU
  1
.
  9
$ELEVATION
 40
0.0
  9
$PELEVATION
 40
0.0
  9
$THICKNESS
 40
0.0
  9
$LIMCHECK
 70
     0
  9
$CHAMFERA
 40
0.0
  9
$CHAMFERB
 40
0.0
  9
$CHAMFERC
 40
0.0
  9
$CHAMFERD
 40
0.0
  9
$SKPOLY
 70
     0
  9
$TDCREATE
 40
2460438.559513889
  9
$TDUCREATE
 40
2460438.226180556
  9
$TDUPDATE
 40
2460665.402060185
  9
$TDUUPDATE
 40
2460665.068726852
  9
$TDINDWG
 40
0.1959143519
  9
$TDUSRTIMER
 40
0.1959143519
  9
$USRTIMER
 70
     1
  9
$ANGBASE
 50
0.0
  9
$ANGDIR
 70
     0
  9
$PDMODE
 70
     0
  9
$PDSIZE
 40
0.0
  9
$PLINEWID
 40
0.0
  9
$SPLFRAME
 70
     0
  9
$SPLINETYPE
 70
     6
  9
$SPLINESEGS
 70
     8
  9
$HANDSEED
  5
B8B
  9
$SURFTAB1
 70
     6
  9
$SURFTAB2
 70
     6
  9
$SURFTYPE
 70
     6
  9
$SURFU
 70
     6
  9
$SURFV
 70
     6
  9
$UCSBASE
  2

  9
$UCSNAME
  2

  9
$UCSORG
 10
0.0
 20
0.0
 30
0.0
  9
$UCSXDIR
 10
1.0
 20
0.0
 30
0.0
  9
$UCSYDIR
 10
0.0
 20
1.0
 30
0.0
  9
$UCSORTHOREF
  2

  9
$UCSORTHOVIEW
 70
     0
  9
$UCSORGTOP
 10
0.0
 20
0.0
 30
0.0
  9
$UCSORGBOTTOM
 10
0.0
 20
0.0
 30
0.0
  9
$UCSORGLEFT
 10
0.0
 20
0.0
 30
0.0
  9
$UCSORGRIGHT
 10
0.0
 20
0.0
 30
0.0
  9
$UCSORGFRONT
 10
0.0
 20
0.0
 30
0.0
  9
$UCSORGBACK
 10
0.0
 20
0.0
 30
0.0
  9
$PUCSBASE
  2

  9
$PUCSNAME
  2

  9
$PUCSORG
 10
0.0
 20
0.0
 30
0.0
  9
$PUCSXDIR
 10
1.0
 20
0.0
 30
0.0
  9
$PUCSYDIR
 10
0.0
 20
1.0
 30
0.0
  9
$PUCSORTHOREF
  2

  9
$PUCSORTHOVIEW
 70
     0
  9
$PUCSORGTOP
 10
0.0
 20
0.0
 30
0.0
  9
$PUCSORGBOTTOM
 10
0.0
 20
0.0
 30
0.0
  9
$PUCSORGLEFT
 10
0.0
 20
0.0
 30
0.0
  9
$PUCSORGRIGHT
 10
0.0
 20
0.0
 30
0.0
  9
$PUCSORGFRONT
 10
0.0
 20
0.0
 30
0.0
  9
$PUCSORGBACK
 10
0.0
 20
0.0
 30
0.0
  9
$USERI1
 70
     0
  9
$USERI2
 70
     0
  9
$USERI3
 70
     0
  9
$USERI4
 70
     0
  9
$USERI5
 70
     0
  9
$USERR1
 40
0.0
  9
$USERR2
 40
0.0
  9
$USERR3
 40
0.0
  9
$USERR4
 40
0.0
  9
$USERR5
 40
0.0
  9
$WORLDVIEW
 70
     1
  9
$SHADEDGE
 70
     3
  9
$SHADEDIF
 70
    70
  9
$TILEMODE
 70
     1
  9
$MAXACTVP
 70
    64
  9
$PINSBASE
 10
0.0
 20
0.0
 30
0.0
  9
$PLIMCHECK
 70
     0
  9
$PEXTMIN
 10
0.0
 20
0.0
 30
0.0
  9
$PEXTMAX
 10
0.0
 20
0.0
 30
0.0
  9
$PLIMMIN
 10
0.0
 20
0.0
  9
$PLIMMAX
 10
12.0
 20
9.0
  9
$UNITMODE
 70
     0
  9
$VISRETAIN
 70
     1
  9
$PLINEGEN
 70
     0
  9
$PSLTSCALE
 70
     1
  9
$TREEDEPTH
 70
  3020
  9
$CMLSTYLE
  2
Standard
  9
$CMLJUST
 70
     0
  9
$CMLSCALE
 40
20.0
  9
$PROXYGRAPHICS
 70
     1
  9
$MEASUREMENT
 70
     1
  9
$CELWEIGHT
370
    -1
  9
$ENDCAPS
280
     0
  9
$JOINSTYLE
280
     0
  9
$LWDISPLAY
290
     0
  9
$INSUNITS
 70
     4
  9
$HYPERLINKBASE
  1

  9
$STYLESHEET
  1

  9
$XEDIT
290
     1
  9
$CEPSNTYPE
380
     0
  9
$PSTYLEMODE
290
     1
  9
$FINGERPRINTGUID
  2
{0CFC2FCC-6D4C-3B46-8219-341038C872C5}
  9
$VERSIONGUID
  2
{5CA65C67-39F2-6546-AD44-0622002FE43B}
  9
$EXTNAMES
290
     1
  9
$PSVPSCALE
 40
0.0
  9
$OLESTARTUP
290
     0
  9
$SORTENTS
280
   127
  9
$INDEXCTL
280
     0
  9
$HIDETEXT
280
     1
  9
$XCLIPFRAME
280
     2
  9
$HALOGAP
280
     0
  9
$OBSCOLOR
 70
   257
  9
$OBSLTYPE
280
     0
  9
$INTERSECTIONDISPLAY
280
     0
  9
$INTERSECTIONCOLOR
 70
   257
  9
$DIMASSOC
280
     2
  9
$PROJECTNAME
  1

  9
$CAMERADISPLAY
290
     0
  9
$LENSLENGTH
 40
50.0
  9
$CAMERAHEIGHT
 40
0.0
  9
$STEPSPERSEC
 40
2.0
  9
$STEPSIZE
 40
6.0
  9
$3DDWFPREC
 40
2.0
  9
$PSOLWIDTH
 40
5.0
  9
$PSOLHEIGHT
 40
80.0
  9
$LOFTANG1
 40
1.570796326794896
  9
$LOFTANG2
 40
1.570796326794896
  9
$LOFTMAG1
 40
0.0
  9
$LOFTMAG2
 40
0.0
  9
$LOFTPARAM
 70
     7
  9
$LOFTNORMALS
280
     1
  9
$LATITUDE
 40
37.795
  9
$LONGITUDE
 40
-122.394
  9
$NORTHDIRECTION
 40
0.0
  9
$TIMEZONE
 70
 -8000
  9
$LIGHTGLYPHDISPLAY
280
     1
  9
$TILEMODELIGHTSYNCH
280
     1
  9
$CMATERIAL
347
EC
  9
$SOLIDHIST
280
     0
  9
$SHOWHIST
280
     1
  9
$DWFFRAME
280
     2
  9
$DGNFRAME
280
     0
  9
$REALWORLDSCALE
290
     1
  9
$INTERFERECOLOR
 62
     1
  9
$INTERFEREOBJVS
345
F9
  9
$INTERFEREVPVS
346
F6
  9
$CSHADOW
280
     0
  9
$SHADOWPLANELOCATION
 40
0.0
  0
ENDSEC
  0
SECTION
  2
CLASSES
  0
CLASS
  1
ACDBDICTIONARYWDFLT
  2
AcDbDictionaryWithDefault
  3
ObjectDBX Classes
 90
        0
 91
        1
280
     0
281
     0
  0
CLASS
  1
DICTIONARYVAR
  2
AcDbDictionaryVar
  3
ObjectDBX Classes
 90
        0
 91
       11
280
     0
281
     0
  0
CLASS
  1
TABLESTYLE
  2
AcDbTableStyle
  3
ObjectDBX Classes
 90
     4095
 91
        1
280
     0
281
     0
  0
CLASS
  1
MATERIAL
  2
AcDbMaterial
  3
ObjectDBX Classes
 90
     1153
 91
        3
280
     0
281
     0
  0
CLASS
  1
VISUALSTYLE
  2
AcDbVisualStyle
  3
ObjectDBX Classes
 90
     4095
 91
       24
280
     0
281
     0
  0
CLASS
  1
SCALE
  2
AcDbScale
  3
ObjectDBX Classes
 90
     1153
 91
       17
280
     0
281
     0
  0
CLASS
  1
MLEADERSTYLE
  2
AcDbMLeaderStyle
  3
ACDB_MLEADERSTYLE_CLASS
 90
     4095
 91
        3
280
     0
281
     0
  0
CLASS
  1
CELLSTYLEMAP
  2
AcDbCellStyleMap
  3
ObjectDBX Classes
 90
     1152
 91
        6
280
     0
281
     0
  0
CLASS
  1
EXACXREFPANELOBJECT
  2
ExAcXREFPanelObject
  3
EXAC_ESW
 90
     1025
 91
        0
280
     0
281
     0
  0
CLASS
  1
NPOCOLLECTION
  2
AcDbImpNonPersistentObjectsCollection
  3
ObjectDBX Classes
 90
     1153
 91
        0
280
     0
281
     0
  0
CLASS
  1
LAYER_INDEX
  2
AcDbLayerIndex
  3
ObjectDBX Classes
 90
        0
 91
        0
280
     0
281
     0
  0
CLASS
  1
SPATIAL_INDEX
  2
AcDbSpatialIndex
  3
ObjectDBX Classes
 90
        0
 91
        0
280
     0
281
     0
  0
CLASS
  1
IDBUFFER
  2
AcDbIdBuffer
  3
ObjectDBX Classes
 90
        0
 91
        0
280
     0
281
     0
  0
CLASS
  1
ACDBSECTIONVIEWSTYLE
  2
AcDbSectionViewStyle
  3
ObjectDBX Classes
 90
     1025
 91
        1
280
     0
281
     0
  0
CLASS
  1
ACDBDETAILVIEWSTYLE
  2
AcDbDetailViewStyle
  3
ObjectDBX Classes
 90
     1025
 91
        1
280
     0
281
     0
  0
CLASS
  1
SORTENTSTABLE
  2
AcDbSortentsTable
  3
ObjectDBX Classes
 90
        0
 91
        0
280
     0
281
     0
  0
CLASS
  1
ACDBASSOC2DCONSTRAINTGROUP
  2
AcDbAssoc2dConstraintGroup
  3
ObjectDBX Classes
 90
     1025
 91
        5
280
     0
281
     0
  0
CLASS
  1
ACDBASSOCGEOMDEPENDENCY
  2
AcDbAssocGeomDependency
  3
ObjectDBX Classes
 90
     1025
 91
       39
280
     0
281
     0
  0
CLASS
  1
ACDBASSOCVALUEDEPENDENCY
  2
AcDbAssocValueDependency
  3
ObjectDBX Classes
 90
     1025
 91
       15
280
     0
281
     0
  0
CLASS
  1
ACDBASSOCDEPENDENCY
  2
AcDbAssocDependency
  3
ObjectDBX Classes
 90
     1025
 91
       21
280
     0
281
     0
  0
CLASS
  1
ASSOCDIMDEPENDENCYBODY
  2
AcDbAssocDimDependencyBody
  3
ObjectDBX Classes
 90
     1025
 91
       15
280
     0
281
     0
  0
CLASS
  1
ACDBASSOCVARIABLE
  2
AcDbAssocVariable
  3
ObjectDBX Classes
 90
     1025
 91
       15
280
     0
281
     0
  0
CLASS
  1
ACDBASSOCNETWORK
  2
AcDbAssocNetwork
  3
ObjectDBX Classes
 90
     1025
 91
        8
280
     0
281
     0
  0
CLASS
  1
RAPIDRTRENDERSETTINGS
  2
AcDbRapidRTRenderSettings
  3
ObjectDBX Classes
 90
     1024
 91
        7
280
     0
281
     0
  0
CLASS
  1
ACAD_TABLE
  2
AcDbTable
  3
ObjectDBX Classes
 90
     1025
 91
        2
280
     0
281
     1
  0
CLASS
  1
DIMASSOC
  2
AcDbDimAssoc
  3
"AcDbDimAssoc|Product Desc:     AcDim ARX App For Dimension|Company:          Autodesk, Inc.|WEB Address:      www.autodesk.com"
 90
        0
 91
        2
280
     0
281
     0
  0
CLASS
  1
MULTILEADER
  2
AcDbMLeader
  3
ACDB_MLEADER_CLASS
 90
     1025
 91
        4
280
     0
281
     1
  0
CLASS
  1
ACDBASSOCACTION
  2
AcDbAssocAction
  3
ObjectDBX Classes
 90
     1025
 91
        6
280
     0
281
     0
  0
CLASS
  1
AcDbCenterMarkActionBody
  2
AcDbCenterMarkActionBody
  3
AcDbSmartCenter
 90
     1153
 91
        2
280
     0
281
     0
  0
CLASS
  1
ACDBASSOCEDGEACTIONPARAM
  2
AcDbAssocEdgeActionParam
  3
ObjectDBX Classes
 90
     1025
 91
       14
280
     0
281
     0
  0
CLASS
  1
AcDbCenterLineActionBody
  2
AcDbCenterLineActionBody
  3
AcDbSmartCenter
 90
     1153
 91
        2
280
     0
281
     0
  0
CLASS
  1
ACDBASSOCROTATEDDIMACTIONBODY
  2
AcDbAssocRotatedDimActionBody
  3
ObjectDBX Classes
 90
     1025
 91
        2
280
     0
281
     0
  0
CLASS
  1
ACDBASSOCOSNAPPOINTREFACTIONPARAM
  2
AcDbAssocOsnapPointRefActionParam
  3
ObjectDBX Classes
 90
     1025
 91
        4
280
     0
281
     0
  0
CLASS
  1
TABLECONTENT
  2
AcDbTableContent
  3
ObjectDBX Classes
 90
     1152
 91
       26
280
     0
281
     0
  0
CLASS
  1
TABLEGEOMETRY
  2
AcDbTableGeometry
  3
ObjectDBX Classes
 90
     1152
 91
       26
280
     0
281
     0
  0
ENDSEC
  0
SECTION
  2
TABLES
  0
TABLE
  2
VPORT
  5
8
330
0
100
AcDbSymbolTable
 70
     1
  0
VPORT
  5
EA
330
8
100
AcDbSymbolTableRecord
100
AcDbViewportTableRecord
  2
*Active
 70
     0
 10
0.0
 20
0.0
 11
1.0
 21
1.0
 12
242.6996451623672
 22
4.169856664373384
 13
0.0
 23
0.0
 14
10.0
 24
10.0
 15
10.0
 25
10.0
 16
0.0
 26
0.0
 36
1.0
 17
0.0
 27
0.0
 37
0.0
 40
301.5954245880672
 41
2.253826530612244
 42
50.0
 43
0.0
 44
0.0
 50
0.0
 51
0.0
 71
     0
 72
  1000
 73
     1
 74
     3
 75
     0
 76
     0
 77
     0
 78
     0
281
     0
 65
     1
110
0.0
120
0.0
130
0.0
111
1.0
121
0.0
131
0.0
112
0.0
122
1.0
132
0.0
 79
     0
146
0.0
348
F5
 60
     3
 61
     5
292
     1
282
     1
141
0.0
142
0.0
 63
   250
421
  3355443
1001
ACAD_NAV_VCDISPLAY
1070
     3
  0
ENDTAB
  0
TABLE
  2
LTYPE
  5
5
330
0
100
AcDbSymbolTable
 70
     5
  0
LTYPE
  5
14
330
5
100
AcDbSymbolTableRecord
100
AcDbLinetypeTableRecord
  2
ByBlock
 70
     0
  3

 72
    65
 73
     0
 40
0.0
  0
LTYPE
  5
15
330
5
100
AcDbSymbolTableRecord
100
AcDbLinetypeTableRecord
  2
ByLayer
 70
     0
  3

 72
    65
 73
     0
 40
0.0
  0
LTYPE
  5
16
330
5
100
AcDbSymbolTableRecord
100
AcDbLinetypeTableRecord
  2
Continuous
 70
     0
  3
Solid line
 72
    65
 73
     0
 40
0.0
  0
LTYPE
  5
2B8
330
5
100
AcDbSymbolTableRecord
100
AcDbLinetypeTableRecord
  2
CENTER
 70
     0
  3
Center ____ _ ____ _ ____ _ ____ _ ____ _ ____
 72
    65
 73
     4
 40
10.16
 49
6.349999999999999
 74
     0
 49
-1.27
 74
     0
 49
1.27
 74
     0
 49
-1.27
 74
     0
  0
LTYPE
  5
2B9
330
5
100
AcDbSymbolTableRecord
100
AcDbLinetypeTableRecord
  2
Amconstr
 70
     0
  3
_______________________
 72
    65
 73
     2
 40
9999.0
 49
9999.0
 74
     0
 49
0.0
 74
     0
  0
LTYPE
  5
914
330
5
100
AcDbSymbolTableRecord
100
AcDbLinetypeTableRecord
  2
CENTER2
 70
     0
  3
Center (.5x) ___ _ ___ _ ___ _ ___ _ ___ _ ___
 72
    65
 73
     4
 40
1.125
 49
0.75
 74
     0
 49
-0.125
 74
     0
 49
0.125
 74
     0
 49
-0.125
 74
     0
  0
ENDTAB
  0
TABLE
  2
LAYER
  5
2
102
{ACAD_XDICTIONARY
360
1FF
102
}
330
0
100
AcDbSymbolTable
 70
    10
  0
LAYER
  5
10
102
{ACAD_XDICTIONARY
360
13C
102
}
330
2
100
AcDbSymbolTableRecord
100
AcDbLayerTableRecord
  2
0
 70
     0
 62
     7
  6
Continuous
370
    -3
390
F
347
EE
348
0
  0
LAYER
  5
2BA
102
{ACAD_XDICTIONARY
360
2BB
102
}
330
2
100
AcDbSymbolTableRecord
100
AcDbLayerTableRecord
  2
粗实线层
 70
     0
 62
     7
  6
Continuous
370
    25
390
F
347
EE
348
0
  0
LAYER
  5
2BC
102
{ACAD_XDICTIONARY
360
2BD
102
}
330
2
100
AcDbSymbolTableRecord
100
AcDbLayerTableRecord
  2
细实线层
 70
     0
 62
     7
  6
Continuous
370
    -3
390
F
347
EE
348
0
  0
LAYER
  5
2BE
330
2
100
AcDbSymbolTableRecord
100
AcDbLayerTableRecord
  2
Defpoints
 70
     0
 62
     7
  6
Continuous
290
     0
370
    -3
390
F
347
EE
348
0
  0
LAYER
  5
2BF
102
{ACAD_XDICTIONARY
360
2C0
102
}
330
2
100
AcDbSymbolTableRecord
100
AcDbLayerTableRecord
  2
1轮廓实线层
 70
     0
 62
     7
  6
Continuous
370
    -3
390
F
347
EE
348
0
  0
LAYER
  5
2C1
102
{ACAD_XDICTIONARY
360
2C2
102
}
330
2
100
AcDbSymbolTableRecord
100
AcDbLayerTableRecord
  2
3中心线层
 70
     0
 62
     1
  6
CENTER
370
     9
390
F
347
EE
348
0
  0
LAYER
  5
2C3
102
{ACAD_XDICTIONARY
360
2C4
102
}
330
2
100
AcDbSymbolTableRecord
100
AcDbLayerTableRecord
  2
6文字层
 70
     0
 62
     3
  6
Continuous
370
    -3
390
F
347
EE
348
0
  0
LAYER
  5
2C5
102
{ACAD_XDICTIONARY
360
2C6
102
}
330
2
100
AcDbSymbolTableRecord
100
AcDbLayerTableRecord
  2
7标注层
 70
     0
 62
     4
  6
Continuous
370
     5
390
F
347
EE
348
0
  0
LAYER
  5
2C7
102
{ACAD_XDICTIONARY
360
2C8
102
}
330
2
100
AcDbSymbolTableRecord
100
AcDbLayerTableRecord
  2
2细线层
 70
     0
 62
     4
  6
Continuous
370
    15
390
F
347
EE
348
0
  0
LAYER
  5
2C9
330
2
100
AcDbSymbolTableRecord
100
AcDbLayerTableRecord
  2
*ADSK_CONSTRAINTS
 70
     0
 62
     7
  6
Continuous
370
    -3
390
F
347
EE
348
0
  0
ENDTAB
  0
TABLE
  2
STYLE
  5
3
330
0
100
AcDbSymbolTable
 70
     8
  0
STYLE
  5
11
330
3
100
AcDbSymbolTableRecord
100
AcDbTextStyleTableRecord
  2
Standard
 70
     0
 40
0.0
 41
1.0
 50
0.0
 71
     0
 42
2.5
  3
arial.ttf
  4

1001
ACAD
1000
Arial
1071
       34
  0
STYLE
  5
132
330
3
100
AcDbSymbolTableRecord
100
AcDbTextStyleTableRecord
  2
Annotative
 70
     0
 40
0.0
 41
1.0
 50
0.0
 71
     0
 42
2.5
  3
arial.ttf
  4

1001
AcadAnnotative
1000
AnnotativeData
1002
{
1070
     1
1070
     1
1002
}
1001
ACAD
1000
Arial
1071
       34
  0
STYLE
  5
2CA
330
3
100
AcDbSymbolTableRecord
100
AcDbTextStyleTableRecord
  2
标准
 70
     0
 40
9.589999999999999
 41
1.0
 50
0.0
 71
     0
 42
0.0
  3

  4

1001
ACAD
1000
SimSun
1071
       34
  0
STYLE
  5
2CB
330
3
100
AcDbSymbolTableRecord
100
AcDbTextStyleTableRecord
  2
TH-GBD2M
 70
     0
 40
2.5
 41
0.8
 50
0.0
 71
     0
 42
2.5
  3
calibri.ttf
  4

1001
AcadAnnotative
1000
AnnotativeData
1002
{
1070
     1
1070
     1
1002
}
1001
ACAD
1000
Calibri
1071
       34
  0
STYLE
  5
2CC
330
3
100
AcDbSymbolTableRecord
100
AcDbTextStyleTableRecord
  2
TH_GBDIM
 70
     0
 40
1.5
 41
0.8
 50
0.0
 71
     0
 42
5.0
  3
calibri.ttf
  4

1001
ACAD
1000
Calibri
1071
       34
  0
STYLE
  5
915
330
3
100
AcDbSymbolTableRecord
100
AcDbTextStyleTableRecord
  2
表格
 70
     0
 40
2.5
 41
1.0
 50
0.0
 71
     0
 42
1.5
  3

  4

1001
AcadAnnotative
1000
AnnotativeData
1002
{
1070
     1
1070
     1
1002
}
1001
ACAD
1000
SimSun
1071
    34306
  0
ENDTAB
  0
TABLE
  2
VIEW
  5
6
330
0
100
AcDbSymbolTable
 70
    31
  0
ENDTAB
  0
TABLE
  2
UCS
  5
7
330
0
100
AcDbSymbolTable
 70
     0
  0
ENDTAB
  0
TABLE
  2
APPID
  5
9
330
0
100
AcDbSymbolTable
 70
    20
  0
APPID
  5
12
330
9
100
AcDbSymbolTableRecord
100
AcDbRegAppTableRecord
  2
ACAD
 70
     0
  0
APPID
  5
9E
330
9
100
AcDbSymbolTableRecord
100
AcDbRegAppTableRecord
  2
ACAD_PSEXT
 70
     0
  0
APPID
  5
133
330
9
100
AcDbSymbolTableRecord
100
AcDbRegAppTableRecord
  2
AcadAnnoPO
 70
     0
  0
APPID
  5
134
330
9
100
AcDbSymbolTableRecord
100
AcDbRegAppTableRecord
  2
AcadAnnotative
 70
     0
  0
APPID
  5
135
330
9
100
AcDbSymbolTableRecord
100
AcDbRegAppTableRecord
  2
ACAD_DSTYLE_DIMJAG
 70
     0
  0
APPID
  5
136
330
9
100
AcDbSymbolTableRecord
100
AcDbRegAppTableRecord
  2
ACAD_DSTYLE_DIMTALN
 70
     0
  0
APPID
  5
165
330
9
100
AcDbSymbolTableRecord
100
AcDbRegAppTableRecord
  2
ACAD_MLEADERVER
 70
     0
  0
APPID
  5
217
330
9
100
AcDbSymbolTableRecord
100
AcDbRegAppTableRecord
  2
ACAD_NAV_VCDISPLAY
 70
     0
  0
APPID
  5
2CE
330
9
100
AcDbSymbolTableRecord
100
AcDbRegAppTableRecord
  2
ACAD_DSTYLE_DIMBREAK
 70
     0
  0
APPID
  5
2CF
330
9
100
AcDbSymbolTableRecord
100
AcDbRegAppTableRecord
  2
ACAD_DSTYLE_DIMRADIAL_EXTENSION
 70
     0
  0
APPID
  5
2D0
330
9
100
AcDbSymbolTableRecord
100
AcDbRegAppTableRecord
  2
ACAD_DSTYLE_DIMINSPECT
 70
     0
  0
APPID
  5
2D1
330
9
100
AcDbSymbolTableRecord
100
AcDbRegAppTableRecord
  2
GENIUS_GENDTOL_13
 70
     0
  0
APPID
  5
2D2
330
9
100
AcDbSymbolTableRecord
100
AcDbRegAppTableRecord
  2
AcDbBlockRepETag
 70
     0
  0
APPID
  5
2D3
330
9
100
AcDbSymbolTableRecord
100
AcDbRegAppTableRecord
  2
CAXA_DRAFT_PAPERFRAME
 70
     0
  0
APPID
  5
2D4
330
9
100
AcDbSymbolTableRecord
100
AcDbRegAppTableRecord
  2
CAXA_DRAFT_BLKHIDE
 70
     0
  0
APPID
  5
2D5
330
9
100
AcDbSymbolTableRecord
100
AcDbRegAppTableRecord
  2
GradientColor1ACI
 70
     0
  0
APPID
  5
2D6
330
9
100
AcDbSymbolTableRecord
100
AcDbRegAppTableRecord
  2
GradientColor2ACI
 70
     0
  0
APPID
  5
42E
330
9
100
AcDbSymbolTableRecord
100
AcDbRegAppTableRecord
  2
ACAD_DSTYLE_DIMJAG_POSITION
 70
     0
  0
APPID
  5
436
330
9
100
AcDbSymbolTableRecord
100
AcDbRegAppTableRecord
  2
AcadAnnoMonitorAlertIconDisabled
 70
     0
  0
APPID
  5
437
330
9
100
AcDbSymbolTableRecord
100
AcDbRegAppTableRecord
  2
ACAD_EXEMPT_FROM_CAD_STANDARDS
 70
     0
  0
ENDTAB
  0
TABLE
  2
DIMSTYLE
  5
A
330
0
100
AcDbSymbolTable
 70
     7
100
AcDbDimStyleTable
 71
     2
340
27
340
137
  0
DIMSTYLE
105
1B0
330
A
100
AcDbSymbolTableRecord
100
AcDbDimStyleTableRecord
  2
Standard
 70
     0
340
11
  0
DIMSTYLE
105
137
330
A
100
AcDbSymbolTableRecord
100
AcDbDimStyleTableRecord
  2
Annotative
 70
     0
 40
0.0
 41
2.5
 42
0.625
 43
3.75
 44
1.25
 73
     0
 74
     0
 77
     1
 78
     8
140
2.5
141
2.5
143
0.03937007874016
147
0.625
171
     3
172
     1
271
     2
272
     2
274
     3
278
    44
283
     0
284
     8
340
11
1001
AcadAnnotative
1000
AnnotativeData
1002
{
1070
     1
1070
     1
1002
}
1001
ACAD_DSTYLE_DIMJAG
1070
   388
1040
1.5
1001
ACAD_DSTYLE_DIMTALN
1070
   392
1070
     0
  0
DIMSTYLE
105
27
102
{ACAD_REACTORS
330
6F7
330
6FB
330
6FC
330
705
330
80B
102
}
330
A
100
AcDbSymbolTableRecord
100
AcDbDimStyleTableRecord
  2
ISO-25
 70
     0
 41
2.5
 42
0.625
 43
3.75
 44
1.25
 73
     0
 74
     0
 77
     1
 78
     8
140
2.5
141
2.5
143
0.03937007874016
147
0.625
171
     3
172
     1
271
     2
272
     2
274
     3
278
    44
283
     0
284
     8
340
11
  0
DIMSTYLE
105
2CD
102
{ACAD_REACTORS
330
6F8
330
80C
102
}
330
A
100
AcDbSymbolTableRecord
100
AcDbDimStyleTableRecord
  2
TH-GBD2M
 70
     0
 41
4.0
 42
0.0
 44
2.0
 73
     0
 74
     0
 77
     1
 78
     9
 79
     3
140
3.5
141
0.0
147
1.5
178
     3
340
2CB
1001
ACAD_DSTYLE_DIMBREAK
1070
   391
1040
3.75
1001
ACAD_DSTYLE_DIMJAG
1070
   388
1040
1.5
1001
ACAD_DSTYLE_DIMTALN
1070
   392
1070
     0
  0
DIMSTYLE
105
916
102
{ACAD_REACTORS
330
94E
330
951
330
9C9
330
9CC
102
}
330
A
100
AcDbSymbolTableRecord
100
AcDbDimStyleTableRecord
  2
ISO-25_2.0
 70
     0
 41
4.0
 42
0.625
 43
3.75
 44
1.25
 73
     0
 77
     1
 78
     8
140
2.5
141
2.5
143
0.03937007874016
144
0.2
147
0.625
171
     3
172
     1
176
   256
178
     3
271
     2
272
     2
274
     3
283
     0
284
     8
288
     1
340
2CB
1001
ACAD_DSTYLE_DIMBREAK
1070
   391
1040
3.75
1001
ACAD_DSTYLE_DIMJAG
1070
   388
1040
1.5
1001
ACAD_DSTYLE_DIMTALN
1070
   392
1070
     0
  0
ENDTAB
  0
TABLE
  2
BLOCK_RECORD
  5
1
330
0
100
AcDbSymbolTable
 70
    36
  0
BLOCK_RECORD
  5
1F
102
{ACAD_XDICTIONARY
360
1CE
102
}
330
1
100
AcDbSymbolTableRecord
100
AcDbBlockTableRecord
  2
*Model_Space
340
22
 70
     0
280
     1
281
     0
  0
BLOCK_RECORD
  5
D2
330
1
100
AcDbSymbolTableRecord
100
AcDbBlockTableRecord
  2
*Paper_Space
340
D3
 70
     0
280
     1
281
     0
  0
BLOCK_RECORD
  5
D6
330
1
100
AcDbSymbolTableRecord
100
AcDbBlockTableRecord
  2
*Paper_Space0
340
D7
 70
     0
280
     1
281
     0
  0
BLOCK_RECORD
  5
277
330
1
100
AcDbSymbolTableRecord
100
AcDbBlockTableRecord
  2
*X1
340
0
 70
     0
280
     1
281
     0
  0
BLOCK_RECORD
  5
34C
330
1
100
AcDbSymbolTableRecord
100
AcDbBlockTableRecord
  2
_ClosedBlank
340
0
 70
     0
280
     1
281
     0
  0
BLOCK_RECORD
  5
3D0
330
1
100
AcDbSymbolTableRecord
100
AcDbBlockTableRecord
  2
*D3
340
0
 70
     0
280
     1
281
     0
  0
BLOCK_RECORD
  5
3E9
330
1
100
AcDbSymbolTableRecord
100
AcDbBlockTableRecord
  2
*D4
340
0
 70
     0
280
     1
281
     0
  0
BLOCK_RECORD
  5
699
330
1
100
AcDbSymbolTableRecord
100
AcDbBlockTableRecord
  2
*X5
340
0
102
{BLKREFS
331
6C3
102
}
 70
     0
280
     1
281
     0
  0
BLOCK_RECORD
  5
6A8
330
1
100
AcDbSymbolTableRecord
100
AcDbBlockTableRecord
  2
*D6
340
0
 70
     0
280
     1
281
     0
  0
BLOCK_RECORD
  5
6B4
330
1
100
AcDbSymbolTableRecord
100
AcDbBlockTableRecord
  2
*D7
340
0
 70
     0
280
     1
281
     0
  0
BLOCK_RECORD
  5
6C1
102
{ACAD_XDICTIONARY
360
706
102
}
330
1
100
AcDbSymbolTableRecord
100
AcDbBlockTableRecord
  2
A$C97e59481
340
0
 70
     4
280
     1
281
     0
  0
BLOCK_RECORD
  5
77D
330
1
100
AcDbSymbolTableRecord
100
AcDbBlockTableRecord
  2
*D11
340
0
 70
     0
280
     1
281
     0
  0
BLOCK_RECORD
  5
789
330
1
100
AcDbSymbolTableRecord
100
AcDbBlockTableRecord
  2
*D12
340
0
 70
     0
280
     1
281
     0
  0
BLOCK_RECORD
  5
7AD
330
1
100
AcDbSymbolTableRecord
100
AcDbBlockTableRecord
  2
*X13
340
0
102
{BLKREFS
102
}
 70
     0
280
     1
281
     0
  0
BLOCK_RECORD
  5
7BC
330
1
100
AcDbSymbolTableRecord
100
AcDbBlockTableRecord
  2
*D14
340
0
 70
     0
280
     1
281
     0
  0
BLOCK_RECORD
  5
7C8
330
1
100
AcDbSymbolTableRecord
100
AcDbBlockTableRecord
  2
*D15
340
0
 70
     0
280
     1
281
     0
  0
BLOCK_RECORD
  5
88E
330
1
100
AcDbSymbolTableRecord
100
AcDbBlockTableRecord
  2
*D19
340
0
 70
     0
280
     1
281
     0
  0
BLOCK_RECORD
  5
89A
330
1
100
AcDbSymbolTableRecord
100
AcDbBlockTableRecord
  2
*D20
340
0
 70
     0
280
     1
281
     0
  0
BLOCK_RECORD
  5
8C6
330
1
100
AcDbSymbolTableRecord
100
AcDbBlockTableRecord
  2
*X21
340
0
102
{BLKREFS
331
995
102
}
 70
     0
280
     1
281
     0
  0
BLOCK_RECORD
  5
8D5
330
1
100
AcDbSymbolTableRecord
100
AcDbBlockTableRecord
  2
*U22
340
0
102
{BLKREFS
102
}
 70
     0
280
     1
281
     0
  0
BLOCK_RECORD
  5
8D9
330
1
100
AcDbSymbolTableRecord
100
AcDbBlockTableRecord
  2
*U23
340
0
102
{BLKREFS
102
}
 70
     0
280
     1
281
     0
  0
BLOCK_RECORD
  5
8E2
330
1
100
AcDbSymbolTableRecord
100
AcDbBlockTableRecord
  2
*T24
340
0
 70
     0
280
     1
281
     0
  0
BLOCK_RECORD
  5
8FA
330
1
100
AcDbSymbolTableRecord
100
AcDbBlockTableRecord
  2
*D25
340
0
 70
     0
280
     1
281
     0
  0
BLOCK_RECORD
  5
906
330
1
100
AcDbSymbolTableRecord
100
AcDbBlockTableRecord
  2
*D26
340
0
 70
     0
280
     1
281
     0
  0
BLOCK_RECORD
  5
974
330
1
100
AcDbSymbolTableRecord
100
AcDbBlockTableRecord
  2
*T29
340
0
102
{BLKREFS
102
}
 70
     0
280
     1
281
     0
  0
BLOCK_RECORD
  5
9EC
330
1
100
AcDbSymbolTableRecord
100
AcDbBlockTableRecord
  2
*U31
340
0
102
{BLKREFS
331
9CE
102
}
 70
     0
280
     1
281
     0
  0
BLOCK_RECORD
  5
9F0
330
1
100
AcDbSymbolTableRecord
100
AcDbBlockTableRecord
  2
*U32
340
0
102
{BLKREFS
331
9CD
102
}
 70
     0
280
     1
281
     0
  0
BLOCK_RECORD
  5
9F9
330
1
100
AcDbSymbolTableRecord
100
AcDbBlockTableRecord
  2
*T33
340
0
102
{BLKREFS
331
9B6
102
}
 70
     0
280
     1
281
     0
  0
BLOCK_RECORD
  5
A13
330
1
100
AcDbSymbolTableRecord
100
AcDbBlockTableRecord
  2
*D34
340
0
 70
     0
280
     1
281
     0
  0
BLOCK_RECORD
  5
A1F
330
1
100
AcDbSymbolTableRecord
100
AcDbBlockTableRecord
  2
*D35
340
0
 70
     0
280
     1
281
     0
  0
ENDTAB
  0
ENDSEC
  0
SECTION
  2
BLOCKS
  0
BLOCK
  5
20
330
1F
100
AcDbEntity
  8
0
100
AcDbBlockBegin
  2
*Model_Space
 70
     0
 10
0.0
 20
0.0
 30
0.0
  3
*Model_Space
  1

  0
ENDBLK
  5
21
330
1F
100
AcDbEntity
  8
0
100
AcDbBlockEnd
  0
BLOCK
  5
D4
330
D2
100
AcDbEntity
 67
     1
  8
0
100
AcDbBlockBegin
  2
*Paper_Space
 70
     0
 10
0.0
 20
0.0
 30
0.0
  3
*Paper_Space
  1

  0
ENDBLK
  5
D5
330
D2
100
AcDbEntity
 67
     1
  8
0
100
AcDbBlockEnd
  0
BLOCK
  5
D8
330
D6
100
AcDbEntity
 67
     1
  8
0
100
AcDbBlockBegin
  2
*Paper_Space0
 70
     0
 10
0.0
 20
0.0
 30
0.0
  3
*Paper_Space0
  1

  0
ENDBLK
  5
D9
330
D6
100
AcDbEntity
 67
     1
  8
0
100
AcDbBlockEnd
  0
BLOCK
  5
278
330
277
100
AcDbEntity
  8
0
100
AcDbBlockBegin
  2
*X1
 70
     1
 10
0.0
 20
0.0
 30
0.0
  3
*X1
  1

  0
LINE
  5
279
330
277
100
AcDbEntity
  8
细实线层
100
AcDbLine
 10
-148.5
 20
-105.0
 30
0.0
 11
148.5
 21
-105.0
 31
0.0
  0
LINE
  5
27A
330
277
100
AcDbEntity
  8
细实线层
100
AcDbLine
 10
148.5
 20
-105.0
 30
0.0
 11
148.5
 21
105.0
 31
0.0
  0
LINE
  5
27B
330
277
100
AcDbEntity
  8
细实线层
100
AcDbLine
 10
148.5
 20
105.0
 30
0.0
 11
-148.5
 21
105.0
 31
0.0
  0
LINE
  5
27C
330
277
100
AcDbEntity
  8
细实线层
100
AcDbLine
 10
-148.5
 20
105.0
 30
0.0
 11
-148.5
 21
-105.0
 31
0.0
  0
LINE
  5
27D
330
277
100
AcDbEntity
  8
粗实线层
100
AcDbLine
 10
-138.5
 20
95.0
 30
0.0
 11
-138.5
 21
-94.99999999999998
 31
0.0
  0
LINE
  5
27E
330
277
100
AcDbEntity
  8
粗实线层
100
AcDbLine
 10
-138.5
 20
-94.99999999999998
 30
0.0
 11
138.5
 21
-95.0
 31
0.0
  0
LINE
  5
27F
330
277
100
AcDbEntity
  8
粗实线层
100
AcDbLine
 10
138.5
 20
-95.0
 30
0.0
 11
138.5
 21
95.0
 31
0.0
  0
LINE
  5
280
330
277
100
AcDbEntity
  8
粗实线层
100
AcDbLine
 10
138.5
 20
95.0
 30
0.0
 11
-138.5
 21
95.0
 31
0.0
  0
LINE
  5
281
330
277
100
AcDbEntity
  8
粗实线层
370
    60
100
AcDbLine
 10
-148.5
 20
0.0
 30
0.0
 11
-133.5
 21
0.0
 31
0.0
  0
LINE
  5
282
330
277
100
AcDbEntity
  8
粗实线层
370
    60
100
AcDbLine
 10
148.5
 20
0.0
 30
0.0
 11
133.5
 21
0.0
 31
0.0
  0
LINE
  5
283
330
277
100
AcDbEntity
  8
粗实线层
370
    60
100
AcDbLine
 10
0.0
 20
105.0
 30
0.0
 11
0.0
 21
90.0
 31
0.0
  0
LINE
  5
284
330
277
100
AcDbEntity
  8
粗实线层
370
    60
100
AcDbLine
 10
0.0
 20
-105.0
 30
0.0
 11
0.0
 21
-95.0
 31
0.0
  0
ENDBLK
  5
285
330
277
100
AcDbEntity
  8
0
100
AcDbBlockEnd
  0
BLOCK
  5
350
330
34C
100
AcDbEntity
  8
0
100
AcDbBlockBegin
  2
_ClosedBlank
 70
     0
 10
0.0
 20
0.0
 30
0.0
  3
_ClosedBlank
  1

  0
LINE
  5
34D
330
34C
100
AcDbEntity
  8
0
  6
ByBlock
 62
     0
370
    -2
100
AcDbLine
 10
-1.0
 20
0.1666666666666666
 30
0.0
 11
0.0
 21
0.0
 31
0.0
  0
LINE
  5
34E
330
34C
100
AcDbEntity
  8
0
  6
ByBlock
 62
     0
370
    -2
100
AcDbLine
 10
0.0
 20
0.0
 30
0.0
 11
-1.0
 21
-0.1666666666666666
 31
0.0
  0
LINE
  5
34F
330
34C
100
AcDbEntity
  8
0
  6
ByBlock
 62
     0
370
    -2
100
AcDbLine
 10
-1.0
 20
0.1666666666666666
 30
0.0
 11
-1.0
 21
-0.1666666666666666
 31
0.0
  0
ENDBLK
  5
351
330
34C
100
AcDbEntity
  8
0
100
AcDbBlockEnd
  0
BLOCK
  5
3D1
330
3D0
100
AcDbEntity
  8
0
100
AcDbBlockBegin
  2
*D3
 70
     1
 10
0.0
 20
0.0
 30
0.0
  3
*D3
  1

  0
LINE
  5
5C4
330
3D0
100
AcDbEntity
  8
7标注层
 62
     0
440
 16777216
370
    -2
100
AcDbLine
 10
2911.714230297924
 20
1455.183984438885
 30
0.0
 11
2900.933122605617
 21
1455.183984438885
 31
0.0
  0
LINE
  5
5C5
330
3D0
100
AcDbEntity
  8
7标注层
 62
     0
440
 16777216
370
    -2
100
AcDbLine
 10
2900.933122605617
 20
1455.183984438885
 30
0.0
 11
2899.150812222238
 21
1453.430881561899
 31
0.0
  0
LINE
  5
5C6
330
3D0
100
AcDbEntity
  8
7标注层
 62
     0
440
 16777216
370
    -2
100
AcDbLine
 10
2888.45694992196
 20
1442.91226429998
 30
0.0
 11
2886.674639538581
 21
1441.159161422993
 31
0.0
  0
MTEXT
  5
5C7
330
3D0
100
AcDbEntity
  8
7标注层
 62
     0
440
 16777216
100
AcDbMText
 10
2906.573676451771
 20
1457.574856233757
 30
0.0
 40
2.5
 41
7.202461538461538
 46
0.0
 71
     5
 72
     1
  1
{\H0.8x;∅10,00\H0.7x;\S+0.0^ -0.2;}
  7
TH-GBD2M
 73
     1
 44
1.0
  0
LINE
  5
5C8
330
3D0
100
AcDbEntity
  8
7标注层
 62
     0
440
 16777216
370
    -2
100
AcDbLine
 10
2890.23926030534
 20
1444.665367176966
 30
0.0
 11
2897.368501838858
 21
1451.677778684912
 31
0.0
  0
SOLID
  5
5C9
330
3D0
100
AcDbEntity
  8
7标注层
 62
     0
440
 16777216
100
AcDbTrace
 10
2888.164766109129
 20
1443.209316030543
 30
0.0
 11
2888.749133734791
 21
1442.615212569416
 31
0.0
 12
2890.23926030534
 22
1444.665367176966
 32
0.0
 13
2890.23926030534
 23
1444.665367176966
 33
0.0
  0
SOLID
  5
5CA
330
3D0
100
AcDbEntity
  8
7标注层
 62
     0
440
 16777216
100
AcDbTrace
 10
2898.858628409407
 20
1453.727933292462
 30
0.0
 11
2899.442996035069
 21
1453.133829831335
 31
0.0
 12
2897.368501838858
 22
1451.677778684912
 32
0.0
 13
2897.368501838858
 23
1451.677778684912
 33
0.0
  0
POINT
  5
5CB
330
3D0
100
AcDbEntity
  8
Defpoints
 62
     0
440
 16777216
100
AcDbPoint
 10
2897.368501838858
 20
1451.677778684912
 30
0.0
  0
POINT
  5
5CC
330
3D0
100
AcDbEntity
  8
Defpoints
 62
     0
440
 16777216
100
AcDbPoint
 10
2890.23926030534
 20
1444.665367176966
 30
0.0
  0
ENDBLK
  5
3D2
330
3D0
100
AcDbEntity
  8
0
100
AcDbBlockEnd
  0
BLOCK
  5
3EA
330
3E9
100
AcDbEntity
  8
0
100
AcDbBlockBegin
  2
*D4
 70
     1
 10
0.0
 20
0.0
 30
0.0
  3
*D4
  1

  0
LINE
  5
58F
330
3E9
100
AcDbEntity
  8
7标注层
 62
     0
440
 16777216
370
    -2
100
AcDbLine
 10
2929.600215056291
 20
1443.171572930938
 30
0.0
 11
2929.600215056291
 21
1438.950126967016
 31
0.0
  0
LINE
  5
590
330
3E9
100
AcDbEntity
  8
7标注层
 62
     0
440
 16777216
370
    -2
100
AcDbLine
 10
2930.600215056291
 20
1443.171572930938
 30
0.0
 11
2930.600215056291
 21
1438.950126967016
 31
0.0
  0
LINE
  5
591
330
3E9
100
AcDbEntity
  8
7标注层
 62
     0
440
 16777216
370
    -2
100
AcDbLine
 10
2927.100215056291
 20
1439.950126967016
 30
0.0
 11
2924.600215056291
 21
1439.950126967016
 31
0.0
  0
LINE
  5
592
330
3E9
100
AcDbEntity
  8
7标注层
 62
     0
440
 16777216
370
    -2
100
AcDbLine
 10
2933.100215056291
 20
1439.950126967016
 30
0.0
 11
2944.522676594753
 21
1439.950126967016
 31
0.0
  0
SOLID
  5
593
330
3E9
100
AcDbEntity
  8
7标注层
 62
     0
440
 16777216
100
AcDbTrace
 10
2927.100215056291
 20
1440.366793633683
 30
0.0
 11
2927.100215056291
 21
1439.533460300349
 31
0.0
 12
2929.600215056291
 22
1439.950126967016
 32
0.0
 13
2929.600215056291
 23
1439.950126967016
 33
0.0
  0
SOLID
  5
594
330
3E9
100
AcDbEntity
  8
7标注层
 62
     0
440
 16777216
100
AcDbTrace
 10
2933.100215056291
 20
1440.366793633683
 30
0.0
 11
2933.100215056291
 21
1439.533460300349
 31
0.0
 12
2930.600215056291
 22
1439.950126967016
 32
0.0
 13
2930.600215056291
 23
1439.950126967016
 33
0.0
  0
MTEXT
  5
595
330
3E9
100
AcDbEntity
  8
7标注层
 62
     3
440
 16777216
100
AcDbMText
 10
2940.380830440906
 20
1441.474742351631
 30
0.0
 40
2.5
 41
0.0
 46
0.0
 71
     5
 72
     1
  1
{\H0.8x;1.0±0.2}
  7
TH-GBD2M
 73
     1
 44
1.0
  0
POINT
  5
596
330
3E9
100
AcDbEntity
  8
Defpoints
 62
     0
440
 16777216
100
AcDbPoint
 10
2929.600215056291
 20
1443.171572930938
 30
0.0
  0
POINT
  5
597
330
3E9
100
AcDbEntity
  8
Defpoints
 62
     0
440
 16777216
100
AcDbPoint
 10
2930.600215056291
 20
1443.171572930938
 30
0.0
  0
POINT
  5
598
330
3E9
100
AcDbEntity
  8
Defpoints
 62
     0
440
 16777216
100
AcDbPoint
 10
2930.600215056291
 20
1439.950126967016
 30
0.0
  0
ENDBLK
  5
3EB
330
3E9
100
AcDbEntity
  8
0
100
AcDbBlockEnd
  0
BLOCK
  5
69A
330
699
100
AcDbEntity
  8
0
100
AcDbBlockBegin
  2
*X5
 70
     1
 10
0.0
 20
0.0
 30
0.0
  3
*X5
  1

  0
LINE
  5
69B
330
699
100
AcDbEntity
  8
细实线层
100
AcDbLine
 10
-148.5
 20
-105.0
 30
0.0
 11
148.5
 21
-105.0
 31
0.0
  0
LINE
  5
69C
330
699
100
AcDbEntity
  8
细实线层
100
AcDbLine
 10
148.5
 20
-105.0
 30
0.0
 11
148.5
 21
105.0
 31
0.0
  0
LINE
  5
69D
330
699
100
AcDbEntity
  8
细实线层
100
AcDbLine
 10
148.5
 20
105.0
 30
0.0
 11
-148.5
 21
105.0
 31
0.0
  0
LINE
  5
69E
330
699
100
AcDbEntity
  8
细实线层
100
AcDbLine
 10
-148.5
 20
105.0
 30
0.0
 11
-148.5
 21
-105.0
 31
0.0
  0
LINE
  5
69F
330
699
100
AcDbEntity
  8
粗实线层
100
AcDbLine
 10
-138.5
 20
95.0
 30
0.0
 11
-138.5
 21
-94.99999999999998
 31
0.0
  0
LINE
  5
6A0
330
699
100
AcDbEntity
  8
粗实线层
100
AcDbLine
 10
-138.5
 20
-94.99999999999998
 30
0.0
 11
138.5
 21
-95.0
 31
0.0
  0
LINE
  5
6A1
330
699
100
AcDbEntity
  8
粗实线层
100
AcDbLine
 10
138.5
 20
-95.0
 30
0.0
 11
138.5
 21
95.0
 31
0.0
  0
LINE
  5
6A2
330
699
100
AcDbEntity
  8
粗实线层
100
AcDbLine
 10
138.5
 20
95.0
 30
0.0
 11
-138.5
 21
95.0
 31
0.0
  0
LINE
  5
6A3
330
699
100
AcDbEntity
  8
粗实线层
370
    60
100
AcDbLine
 10
-148.5
 20
0.0
 30
0.0
 11
-133.5
 21
0.0
 31
0.0
  0
LINE
  5
6A4
330
699
100
AcDbEntity
  8
粗实线层
370
    60
100
AcDbLine
 10
148.5
 20
0.0
 30
0.0
 11
133.5
 21
0.0
 31
0.0
  0
LINE
  5
6A5
330
699
100
AcDbEntity
  8
粗实线层
370
    60
100
AcDbLine
 10
0.0
 20
105.0
 30
0.0
 11
0.0
 21
90.0
 31
0.0
  0
LINE
  5
6A6
330
699
100
AcDbEntity
  8
粗实线层
370
    60
100
AcDbLine
 10
0.0
 20
-105.0
 30
0.0
 11
0.0
 21
-95.0
 31
0.0
  0
ENDBLK
  5
6A7
330
699
100
AcDbEntity
  8
0
100
AcDbBlockEnd
  0
BLOCK
  5
6A9
330
6A8
100
AcDbEntity
  8
0
100
AcDbBlockBegin
  2
*D6
 70
     1
 10
0.0
 20
0.0
 30
0.0
  3
*D6
  1

  0
LINE
  5
6AA
330
6A8
100
AcDbEntity
  8
7标注层
 62
     0
440
 16777216
370
    -2
100
AcDbLine
 10
2911.714230297924
 20
1455.183984438885
 30
0.0
 11
2900.933122605617
 21
1455.183984438885
 31
0.0
  0
LINE
  5
6AB
330
6A8
100
AcDbEntity
  8
7标注层
 62
     0
440
 16777216
370
    -2
100
AcDbLine
 10
2900.933122605617
 20
1455.183984438885
 30
0.0
 11
2899.150812222238
 21
1453.430881561899
 31
0.0
  0
LINE
  5
6AC
330
6A8
100
AcDbEntity
  8
7标注层
 62
     0
440
 16777216
370
    -2
100
AcDbLine
 10
2888.45694992196
 20
1442.91226429998
 30
0.0
 11
2886.674639538581
 21
1441.159161422993
 31
0.0
  0
MTEXT
  5
6AD
330
6A8
100
AcDbEntity
  8
7标注层
 62
     0
440
 16777216
100
AcDbMText
 10
2906.573676451771
 20
1457.574856233757
 30
0.0
 40
2.5
 41
7.202461538461538
 46
0.0
 71
     5
 72
     1
  1
{\H0.8x;∅10,00\H0.7x;\S+0.0^ -0.2;}
  7
TH-GBD2M
 73
     1
 44
1.0
  0
LINE
  5
6AE
330
6A8
100
AcDbEntity
  8
7标注层
 62
     0
440
 16777216
370
    -2
100
AcDbLine
 10
2890.23926030534
 20
1444.665367176966
 30
0.0
 11
2897.368501838858
 21
1451.677778684912
 31
0.0
  0
SOLID
  5
6AF
330
6A8
100
AcDbEntity
  8
7标注层
 62
     0
440
 16777216
100
AcDbTrace
 10
2888.164766109129
 20
1443.209316030543
 30
0.0
 11
2888.749133734791
 21
1442.615212569416
 31
0.0
 12
2890.23926030534
 22
1444.665367176966
 32
0.0
 13
2890.23926030534
 23
1444.665367176966
 33
0.0
  0
SOLID
  5
6B0
330
6A8
100
AcDbEntity
  8
7标注层
 62
     0
440
 16777216
100
AcDbTrace
 10
2898.858628409407
 20
1453.727933292462
 30
0.0
 11
2899.442996035069
 21
1453.133829831335
 31
0.0
 12
2897.368501838858
 22
1451.677778684912
 32
0.0
 13
2897.368501838858
 23
1451.677778684912
 33
0.0
  0
POINT
  5
6B1
330
6A8
100
AcDbEntity
  8
Defpoints
 62
     0
440
 16777216
100
AcDbPoint
 10
2897.368501838858
 20
1451.677778684912
 30
0.0
  0
POINT
  5
6B2
330
6A8
100
AcDbEntity
  8
Defpoints
 62
     0
440
 16777216
100
AcDbPoint
 10
2890.23926030534
 20
1444.665367176966
 30
0.0
  0
ENDBLK
  5
6B3
330
6A8
100
AcDbEntity
  8
0
100
AcDbBlockEnd
  0
BLOCK
  5
6B5
330
6B4
100
AcDbEntity
  8
0
100
AcDbBlockBegin
  2
*D7
 70
     1
 10
0.0
 20
0.0
 30
0.0
  3
*D7
  1

  0
LINE
  5
6B6
330
6B4
100
AcDbEntity
  8
7标注层
 62
     0
440
 16777216
370
    -2
100
AcDbLine
 10
2929.600215056291
 20
1443.171572930938
 30
0.0
 11
2929.600215056291
 21
1438.950126967016
 31
0.0
  0
LINE
  5
6B7
330
6B4
100
AcDbEntity
  8
7标注层
 62
     0
440
 16777216
370
    -2
100
AcDbLine
 10
2930.600215056291
 20
1443.171572930938
 30
0.0
 11
2930.600215056291
 21
1438.950126967016
 31
0.0
  0
LINE
  5
6B8
330
6B4
100
AcDbEntity
  8
7标注层
 62
     0
440
 16777216
370
    -2
100
AcDbLine
 10
2927.100215056291
 20
1439.950126967016
 30
0.0
 11
2924.600215056291
 21
1439.950126967016
 31
0.0
  0
LINE
  5
6B9
330
6B4
100
AcDbEntity
  8
7标注层
 62
     0
440
 16777216
370
    -2
100
AcDbLine
 10
2933.100215056291
 20
1439.950126967016
 30
0.0
 11
2944.522676594753
 21
1439.950126967016
 31
0.0
  0
SOLID
  5
6BA
330
6B4
100
AcDbEntity
  8
7标注层
 62
     0
440
 16777216
100
AcDbTrace
 10
2927.100215056291
 20
1440.366793633683
 30
0.0
 11
2927.100215056291
 21
1439.533460300349
 31
0.0
 12
2929.600215056291
 22
1439.950126967016
 32
0.0
 13
2929.600215056291
 23
1439.950126967016
 33
0.0
  0
SOLID
  5
6BB
330
6B4
100
AcDbEntity
  8
7标注层
 62
     0
440
 16777216
100
AcDbTrace
 10
2933.100215056291
 20
1440.366793633683
 30
0.0
 11
2933.100215056291
 21
1439.533460300349
 31
0.0
 12
2930.600215056291
 22
1439.950126967016
 32
0.0
 13
2930.600215056291
 23
1439.950126967016
 33
0.0
  0
MTEXT
  5
6BC
330
6B4
100
AcDbEntity
  8
7标注层
 62
     3
440
 16777216
100
AcDbMText
 10
2940.380830440906
 20
1441.474742351631
 30
0.0
 40
2.5
 41
0.0
 46
0.0
 71
     5
 72
     1
  1
{\H0.8x;1.0±0.2}
  7
TH-GBD2M
 73
     1
 44
1.0
  0
POINT
  5
6BD
330
6B4
100
AcDbEntity
  8
Defpoints
 62
     0
440
 16777216
100
AcDbPoint
 10
2929.600215056291
 20
1443.171572930938
 30
0.0
  0
POINT
  5
6BE
330
6B4
100
AcDbEntity
  8
Defpoints
 62
     0
440
 16777216
100
AcDbPoint
 10
2930.600215056291
 20
1443.171572930938
 30
0.0
  0
POINT
  5
6BF
330
6B4
100
AcDbEntity
  8
Defpoints
 62
     0
440
 16777216
100
AcDbPoint
 10
2930.600215056291
 20
1439.950126967016
 30
0.0
  0
ENDBLK
  5
6C0
330
6B4
100
AcDbEntity
  8
0
100
AcDbBlockEnd
  0
BLOCK
  5
707
330
6C1
100
AcDbEntity
  8
0
100
AcDbBlockBegin
  2
A$C97e59481
 70
     0
 10
0.0
 20
0.0
 30
0.0
  3
A$C97e59481
  1

  0
LINE
  5
6C2
330
6C1
100
AcDbEntity
  8
6文字层
 62
     0
100
AcDbLine
 10
58.80000188159965
 20
4.00000012800001
 30
0.0
 11
10.80000034557633
 21
4.000000127999783
 31
0.0
  0
INSERT
  5
6C3
330
6C1
100
AcDbEntity
  8
粗实线层
100
AcDbBlockReference
  2
*X5
 10
59.40000190079991
 20
42.00000134400011
 30
0.0
 41
0.4000000128
 42
0.4000000128
 43
0.4000000128
1001
CAXA_DRAFT_PAPERFRAME
1071
        2
1041
55.40000177280002
1041
0.0
1041
0.0
1000
A4A-D-Sighted(CHS)
1070
     1
1001
CAXA_DRAFT_BLKHIDE
1070
     0
  0
LINE
  5
6C4
330
6C1
100
AcDbEntity
  8
1轮廓实线层
100
AcDbLine
 10
58.80000188159965
 20
4.00000012800001
 30
0.0
 11
114.8000036735998
 21
4.00000012800001
 31
0.0
  0
LINE
  5
6C5
330
6C1
100
AcDbEntity
  8
2细线层
100
AcDbLine
 10
21.05860187069857
 20
12.0000003847324
 30
0.0
 11
21.05860187069857
 21
4.00000012800001
 31
0.0
  0
LINE
  5
6C6
330
6C1
100
AcDbEntity
  8
2细线层
100
AcDbLine
 10
35.4586023314987
 20
12.0000003847324
 30
0.0
 11
35.4586023314987
 21
4.000000127999783
 31
0.0
  0
LINE
  5
6C7
330
6C1
100
AcDbEntity
  8
2细线层
100
AcDbLine
 10
49.85860279229837
 20
12.0000003847324
 30
0.0
 11
49.85860279229837
 21
4.00000012800001
 31
0.0
  0
LINE
  5
6C8
330
6C1
100
AcDbEntity
  8
2细线层
100
AcDbLine
 10
4.000000125897713
 20
10.0000002053132
 30
0.0
 11
49.85860279229837
 21
10.0000002053132
 31
0.0
  0
LINE
  5
6C9
330
6C1
100
AcDbEntity
  8
2细线层
100
AcDbLine
 10
4.000000125897713
 20
12.0000002693132
 30
0.0
 11
49.85860279229837
 21
12.0000002693132
 31
0.0
  0
MTEXT
  5
6CA
330
6C1
100
AcDbEntity
  8
6文字层
100
AcDbMText
 10
11.03221328834843
 20
9.767485270688212
 30
0.0
 40
1.000000031999999
 41
13.96779382874115
 46
0.0
 71
     1
 72
     5
  1
{\fSimSun|b0|i0|c134|p2;形状}
 73
     1
 44
1.0
101
Embedded Object
 70
     1
 10
1.0
 20
0.0
 30
0.0
 11
11.03221328834843
 21
9.767485270688212
 31
0.0
 40
13.96779382874115
 41
0.0
 42
2.726257070480446
 43
1.301676019307262
 71
     2
 72
     1
 44
13.96779382874115
 45
17.5
 73
     0
 74
     0
 46
0.0
  0
MTEXT
  5
6CB
330
6C1
100
AcDbEntity
  8
6文字层
100
AcDbMText
 10
27.90855119845901
 20
11.60008975967776
 30
0.0
 40
1.000000031999999
 41
24.72261576280289
 46
0.0
 71
     1
 72
     5
  1
{\fSimSun|b0|i0|c0|p2;S1}
 73
     1
 44
1.0
101
Embedded Object
 70
     1
 10
1.0
 20
0.0
 30
0.0
 11
27.90855119845901
 21
11.60008975967776
 31
0.0
 40
24.72261576280289
 41
0.0
 42
1.223463726301675
 43
1.000000031999999
 71
     2
 72
     1
 44
24.72261576280289
 45
17.5
 73
     0
 74
     0
 46
0.0
  0
MTEXT
  5
6CC
330
6C1
100
AcDbEntity
  8
6文字层
100
AcDbMText
 10
27.21574614871406
 20
9.681138494443757
 30
0.0
 40
1.000000031999999
 41
21.83610089032027
 46
0.0
 71
     1
 72
     5
  1
{\fSimSun|b0|i0|c134|p2;平面}
 73
     1
 44
1.0
101
Embedded Object
 70
     1
 10
1.0
 20
0.0
 30
0.0
 11
27.21574614871406
 21
9.681138494443757
 31
0.0
 40
21.83610089032027
 41
0.0
 42
2.748603439910614
 43
1.290502834592178
 71
     2
 72
     1
 44
21.83610089032027
 45
17.5
 73
     0
 74
     0
 46
0.0
  0
MTEXT
  5
6CD
330
6C1
100
AcDbEntity
  8
6文字层
100
AcDbMText
 10
42.25313442968491
 20
11.62752572439217
 30
0.0
 40
1.000000031999999
 41
21.29571820648198
 46
0.0
 71
     1
 72
     5
  1
{\fSimSun|b0|i0|c0|p2;S2}
 73
     1
 44
1.0
101
Embedded Object
 70
     1
 10
1.0
 20
0.0
 30
0.0
 11
42.25313442968491
 21
11.62752572439217
 31
0.0
 40
21.29571820648198
 41
0.0
 42
1.279329649877094
 43
1.000000031999999
 71
     2
 72
     1
 44
21.29571820648198
 45
17.5
 73
     0
 74
     0
 46
0.0
  0
MTEXT
  5
6CE
330
6C1
100
AcDbEntity
  8
6文字层
100
AcDbMText
 10
41.57206743046981
 20
9.717593272168642
 30
0.0
 40
1.000000031999999
 41
16.12893952976628
 46
0.0
 71
     1
 72
     5
  1
{\fSimSun|b0|i0|c134|p2;平面}
 73
     1
 44
1.0
101
Embedded Object
 70
     1
 10
1.0
 20
0.0
 30
0.0
 11
41.57206743046981
 21
9.717593272168642
 31
0.0
 40
16.12893952976628
 41
0.0
 42
2.748603439910614
 43
1.290502834592178
 71
     2
 72
     1
 44
16.12893952976628
 45
17.5
 73
     0
 74
     0
 46
0.0
  0
MTEXT
  5
6CF
102
{ACAD_XDICTIONARY
360
6D0
102
}
330
6C1
100
AcDbEntity
  8
6文字层
100
AcDbMText
 10
10.28241317478841
 20
23.92783830299118
 30
0.0
 40
1.000000031999999
 41
114.6703060300538
 46
0.0
 71
     1
 72
     5
  1
\pxqj;{\fSimSun|b1|i0|c134|p2;\C1;注：\P1：仅供参考,禁止使用本图加工生产.\P2：图纸细节如有更改不再另行通知.}
  7
标准
 73
     1
 44
1.0
101
Embedded Object
 70
     1
 10
1.0
 20
0.0
 30
0.0
 11
10.28241317478841
 21
23.92783830299118
 31
0.0
 40
114.6703060300538
 41
0.0
 42
22.74725347516484
 43
4.915751073054944
 71
     2
 72
     1
 44
114.6703060300538
 45
1.0
 73
     0
 74
     0
 46
0.0
  0
MTEXT
  5
6D1
102
{ACAD_XDICTIONARY
360
6D2
102
}
330
6C1
100
AcDbEntity
  8
6文字层
 62
     3
100
AcDbMText
 10
53.22224642479205
 20
53.17472858911128
 30
0.0
 40
1.000000031999999
 41
85.83544987841287
 46
0.0
 71
     5
 72
     5
  3
\A1;\pxsm1,ql;{\fSimSun|b0|i0|c134|p2;\H0.99999x;注释： \P1.材料：蓝宝石\PMaterials：Optical Sapphire\P2.中心波长：4.68±0.03um\PCentral Wavelength：4.68±0.03um\P3.半带宽：0.07±0.02um\PFull width at half maxima:0.07±0.02um \P4.峰值透过率：≥80%\PPeak Transmission：≥80%          
  3
   \P5.倒边：保护性倒边\fAdobe Pi Std|b0|i0|c134|p0;\H1.08335x;\C256;\P\fSimSun|b0|i0|c134|p34;\H0.92308x;\C3;Bevel: \H1.00003x;Protectived\P6.截止吸收：T\H0.7x;\S^ max;\H1.42857x;<1%,T\H0.7x;\S^ avg;\H1.42857x;<0.1%@200~12000nm\PBlocking：T\H0.7x;\S^ max;\H1.42857x;
  1
<1%,T\H0.7x;\S^ avg;\H1.42857x;<0.1%@200~12000nm}
 73
     1
 44
1.0
101
Embedded Object
 70
     5
 10
1.0
 20
0.0
 30
0.0
 11
53.22224642479205
 21
53.17472858911128
 31
0.0
 40
85.83544987841287
 41
0.0
 42
28.30166782718787
 43
23.05819973563016
 71
     2
 72
     1
 44
85.83544987841287
 45
1.0
 73
     0
 74
     0
 46
66.30194141419766
1001
AcadAnnotative
1000
AnnotativeData
1002
{
1070
     1
1070
     0
1002
}
  0
LINE
  5
6D5
330
6C1
100
AcDbEntity
  8
粗实线层
100
AcDbLine
 10
84.80000271359996
 20
18.09931268948003
 30
0.0
 11
84.8000027136004
 21
4.000000127999783
 31
0.0
  0
LINE
  5
6D6
330
6C1
100
AcDbEntity
  8
粗实线层
100
AcDbLine
 10
84.80000271359996
 20
6.435715369748095
 30
0.0
 11
114.8000036735998
 21
6.43571536974764
 31
0.0
  0
MTEXT
  5
6D7
330
6C1
100
AcDbEntity
  8
6文字层
100
AcDbMText
 10
106.0358778062532
 20
5.365383442729353
 30
0.0
 40
0.8750000279999774
 41
7.139423305384559
 46
1.713461593292264
 71
     5
 72
     5
  1
{\fSimSun|b0|i0|c134|p2;\H0.91429x;投影} 
 73
     1
 44
1.0
1001
AcDbBlockRepETag
1000

  0
LINE
  5
6D8
330
6C1
100
AcDbEntity
  8
细实线层
100
AcDbLine
 10
109.5655337512826
 20
6.435715369748095
 30
0.0
 11
109.5655337512817
 21
4.099312241480447
 31
0.0
  0
LINE
  5
6D9
330
6C1
100
AcDbEntity
  8
细实线层
100
AcDbLine
 10
108.4105337143232
 20
5.267513805613816
 30
0.0
 11
111.0355337983224
 21
5.267513805613816
 31
0.0
  0
CIRCLE
  5
6DA
330
6C1
100
AcDbEntity
  8
细实线层
100
AcDbCircle
 10
109.5655337512817
 20
5.267513805614271
 30
0.0
 40
0.8750000279999774
  0
CIRCLE
  5
6DB
330
6C1
100
AcDbEntity
  8
细实线层
100
AcDbCircle
 10
109.5655337512817
 20
5.267513805614271
 30
0.0
 40
0.2625000083999931
  0
LINE
  5
6DC
330
6C1
100
AcDbEntity
  8
3中心线层
 62
     7
 48
0.1
100
AcDbLine
 10
111.0355337983224
 20
5.267513805613816
 30
0.0
 11
114.5251663945437
 21
5.267513805613816
 31
0.0
  0
LINE
  5
6DD
330
6C1
100
AcDbEntity
  8
3中心线层
 62
     7
100
AcDbLine
 10
111.4957465528068
 20
5.136263801413861
 30
0.0
 11
111.4957465528068
 21
5.398763809813772
 31
0.0
  0
LINE
  5
6DE
330
6C1
100
AcDbEntity
  8
3中心线层
 62
     7
100
AcDbLine
 10
113.9457466312078
 20
4.392513777614112
 30
0.0
 11
113.945746631206
 21
6.142513833613747
 31
0.0
  0
LINE
  5
6DF
330
6C1
100
AcDbEntity
  8
细实线层
100
AcDbLine
 10
111.4957465528068
 20
5.398763809813772
 30
0.0
 11
113.945746631206
 21
6.14251383361352
 31
0.0
  0
LINE
  5
6E0
330
6C1
100
AcDbEntity
  8
细实线层
100
AcDbLine
 10
111.4957465528068
 20
5.136263801413406
 30
0.0
 11
113.9457466312078
 21
4.392513777613885
 31
0.0
  0
MTEXT
  5
6E1
330
6C1
100
AcDbEntity
  8
6文字层
100
AcDbMText
 10
87.70929527311636
 20
8.625229371018804
 30
0.0
 40
0.8750000279999774
 41
7.139423305384559
 46
1.713461593292264
 71
     5
 72
     5
  1
{\fMicrosoft YaHei|b0|i0|c134|p34;\H1.1429x;名称\P Name}
 73
     1
 44
1.0
1001
AcDbBlockRepETag
1000

  0
MTEXT
  5
6E2
330
6C1
100
AcDbEntity
  8
6文字层
100
AcDbMText
 10
102.7970810296638
 20
8.53418055478528
 30
0.0
 40
1.000000031999999
 41
24.0058452878729
 46
4.196930370075381
 71
     5
 72
     5
  1
{\fMicrosoft YaHei|b0|i0|c134|p34;\H1.0001x;中远红外带通滤光片  中心波长4.68um\A1;  D=10.00mm }
 73
     1
 44
1.0
1001
AcDbBlockRepETag
1000

  0
LINE
  5
6E3
330
6C1
100
AcDbEntity
  8
细实线层
100
AcDbLine
 10
107.9268989972829
 20
6.43571536974764
 30
0.0
 11
107.9268989972829
 21
4.00000012800001
 31
0.0
  0
LINE
  5
6E4
330
6C1
100
AcDbEntity
  8
细实线层
100
AcDbLine
 10
104.2735045216382
 20
6.43571536974764
 30
0.0
 11
104.2735045216382
 21
4.000000127999783
 31
0.0
  0
LINE
  5
6E5
330
6C1
100
AcDbEntity
  8
粗实线层
100
AcDbLine
 10
86.40815432975569
 20
18.09931264542365
 30
0.0
 11
114.7528882509755
 21
18.09931264542388
 31
0.0
  0
LINE
  5
6E6
330
6C1
100
AcDbEntity
  8
粗实线层
100
AcDbLine
 10
84.80000271359996
 20
10.63264573982292
 30
0.0
 11
114.8000036735998
 21
10.63264573982451
 31
0.0
  0
LINE
  5
6E7
330
6C1
100
AcDbEntity
  8
粗实线层
100
AcDbLine
 10
90.79415838572732
 20
14.36597919262249
 30
0.0
 11
90.79415838572776
 21
6.435715369747867
 31
0.0
  0
LINE
  5
6E8
330
6C1
100
AcDbEntity
  8
粗实线层
100
AcDbLine
 10
84.8000027136004
 20
14.36597919262408
 30
0.0
 11
114.8000036735998
 21
14.36597919262249
 31
0.0
  0
MTEXT
  5
6E9
330
6C1
100
AcDbEntity
  8
6文字层
100
AcDbMText
 10
100.4168421855679
 20
16.1186217067775
 30
0.0
 40
1.000000031999999
 41
21.97524794034445
 46
1.52335779494352
 71
     5
 72
     5
  1
{\fMicrosoft YaHei|b0|i0|c134|p34;北京欧普特科技有限公司\PBEIJING GOLDEN WAY}
 73
     1
 44
1.0
1001
AcDbBlockRepETag
1000

  0
MTEXT
  5
6EA
330
6C1
100
AcDbEntity
  8
6文字层
100
AcDbMText
 10
86.76860551915615
 20
12.43797815292896
 30
0.0
 40
0.8750000279999774
 41
8.157953945468623
 46
1.713461593292264
 71
     5
 72
     5
  1
{\fSimSun|b0|i0|c134|p34;\H0.91429x;    \fMicrosoft YaHei|b0|i0|c134|p34;\H1.25x;产品型号\P     Model} 
 73
     1
 44
1.0
1001
AcDbBlockRepETag
1000

  0
MTEXT
  5
6EB
330
6C1
100
AcDbEntity
  8
6文字层
100
AcDbMText
 10
102.5034201940452
 20
12.58746643422546
 30
0.0
 40
1.000000031999999
 41
12.55259553221399
 46
1.713461593292264
 71
     5
 72
     5
  1
{\fMicrosoft YaHei|b0|i0|c134|p34;\C3;GNIF-070-4680-D10}
 73
     1
 44
1.0
1001
AcDbBlockRepETag
1000

  0
LINE
  5
6EC
330
6C1
100
AcDbEntity
  8
粗实线层
100
AcDbLine
 10
114.8000036735998
 20
18.09931264542388
 30
0.0
 11
84.80000271359996
 21
18.09931264542228
 31
0.0
  0
MTEXT
  5
6ED
330
6C1
100
AcDbEntity
  8
6文字层
100
AcDbMText
 10
100.6937705179352
 20
5.185008895593455
 30
0.0
 40
0.6000000192
 41
9.09802986977086
 46
1.713461593292264
 71
     5
 72
     5
  1
{\fMicrosoft YaHei|b0|i0|c134|p34;单位 Demension Unit：mm} 
 73
     1
 44
1.0
1001
AcDbBlockRepETag
1000

  0
LINE
  5
6EE
330
6C1
100
AcDbEntity
  8
1轮廓实线层
100
AcDbLine
 10
97.00615740475269
 20
6.433708037574888
 30
0.0
 11
97.00615740475313
 21
4.00000012800001
 31
0.0
  0
MTEXT
  5
6EF
330
6C1
100
AcDbEntity
  8
1轮廓实线层
100
AcDbMText
 10
85.09959213369347
 20
5.823397887166493
 30
0.0
 40
0.8000000255999999
 41
24.37902016857242
 46
0.0
 71
     1
 72
     5
  1
{\fMicrosoft YaHei|b0|i0|c134|p34;\C3;http://www.goldway.com.cn}
  7
TH_GBDIM
 73
     1
 44
1.0
101
Embedded Object
 70
     1
 10
1.0
 20
0.0
 30
0.0
 11
85.09959213369347
 21
5.823397887166493
 31
0.0
 40
24.37902016857242
 41
0.0
 42
11.22912882931274
 43
1.114525535987604
 71
     2
 72
     1
 44
24.37902016857242
 45
12.5
 73
     0
 74
     0
 46
2.07650045776552
1001
AcadAnnotative
1000
AnnotativeData
1002
{
1070
     1
1070
     0
1002
}
  0
LINE
  5
6F0
330
6C1
100
AcDbEntity
  8
粗实线层
100
AcDbLine
 10
114.8000036735998
 20
18.09931264542388
 30
0.0
 11
114.8000036735998
 21
4.00000012800001
 31
0.0
  0
LINE
  5
6F1
330
6C1
100
AcDbEntity
  8
3中心线层
100
AcDbLine
 10
46.62585302528714
 20
47.07178274246939
 30
0.0
 11
101.0310355770766
 21
47.07178274246939
 31
0.0
  0
LINE
  5
6F2
330
6C1
100
AcDbEntity
  8
3中心线层
100
AcDbLine
 10
56.95274428632501
 20
57.22845983274646
 30
0.0
 11
56.95274428632501
 21
36.28417015226182
 31
0.0
  0
LEADER
  5
6F3
330
6C1
100
AcDbEntity
  8
7标注层
100
AcDbLeader
  3
TH-GBD2M
 76
     3
 10
93.79248261110751
 20
47.07178274246939
 30
0.0
 10
95.75262581950665
 20
50.60007746684255
 30
0.0
 10
99.0855706642128
 20
50.60127626313465
 30
0.0
1001
ACAD
1000
DSTYLE
1002
{
1070
   340
1005
2CB
1070
   147
1040
1.5
1070
    77
1070
     0
1002
}
  0
LEADER
  5
6F4
330
6C1
100
AcDbEntity
  8
7标注层
100
AcDbLeader
  3
TH-GBD2M
 76
     3
 10
92.74907827051766
 20
47.07178274246916
 30
0.0
 10
90.92271253732997
 20
50.59197658790345
 30
0.0
 10
88.05906462179109
 20
50.59197658790345
 30
0.0
211
-1.0
221
0.0
231
0.0
1001
ACAD
1000
DSTYLE
1002
{
1070
   340
1005
2CB
1070
   147
1040
1.5
1070
    77
1070
     0
1002
}
  0
MTEXT
  5
6F5
330
6C1
100
AcDbEntity
  8
7标注层
 62
     3
100
AcDbMText
 10
89.09559891513891
 20
52.29659061699954
 30
0.0
 40
1.968504
 41
0.0
 46
0.0
 71
     5
 72
     1
  1
\A1;S1
  7
TH-GBD2M
 73
     1
 44
1.0
  0
MTEXT
  5
6F6
330
6C1
100
AcDbEntity
  8
7标注层
 62
     3
100
AcDbMText
 10
97.5360191332893
 20
52.19428555260947
 30
0.0
 40
1.968504
 41
0.0
 46
0.0
 71
     5
 72
     1
  1
\A1;S2
  7
TH-GBD2M
 73
     1
 44
1.0
  0
DIMENSION
  5
6F7
330
6C1
100
AcDbEntity
  8
7标注层
100
AcDbDimension
280
     0
  2
*D6
 10
53.38812351956676
 20
43.56557698849724
 30
0.0
 11
69.72253966599737
 21
56.47506604528803
 31
0.0
 12
-2836.851136785773
 22
-1401.099790188468
 32
0.0
 70
     3
  1
{\H0.8x;<>\H0.7x;\S+0.0^ -0.2;}
 71
     5
 42
10.00000000000091
 73
     0
 74
     0
 75
     0
  3
ISO-25
100
AcDbDiametricDimension
 15
60.51736505308508
 25
50.57798849644337
 35
0.0
 40
0.0
1001
ACAD_DSTYLE_DIMRADIAL_EXTENSION
1070
   387
1070
     1
1070
   388
1040
0.0
1070
   390
1040
0.0
1001
GENIUS_GENDTOL_13
1000
TolSmNrm
1000

1000
{\H0.71x;$2\S$+$P^ $-$M;}
1040
6.25
1001
ACAD_DSTYLE_DIMINSPECT
1070
   396
1000
100%
1070
   395
1000

1070
   394
1070
    33
1070
   393
1070
     0
1001
ACAD
1000
DSTYLE
1002
{
1070
    42
1040
0.0
1070
    44
1040
1.0
1070
    48
1040
0.1
1070
    73
1070
     1
1070
    74
1070
     1
1070
    78
1070
     0
1070
   140
1040
1.5
1070
   143
1040
0.0393700787401575
1070
   147
1040
0.5
1070
   179
1070
     2
1070
   284
1070
     0
1070
   288
1070
     1
1070
   340
1005
2CB
1002
}
  0
DIMENSION
  5
6F8
330
6C1
100
AcDbEntity
  8
7标注层
100
AcDbDimension
280
     0
  2
*D7
 10
93.74907827051766
 20
38.85033677854722
 30
0.0
 11
103.5296936551331
 21
38.85033677854722
 31
0.0
 12
-2836.851136785773
 22
-1401.099790188468
 32
0.0
 70
   128
  1
{\H0.8x;1.0±0.2}
 71
     5
 73
     0
 74
     0
 75
     0
  3
TH-GBD2M
100
AcDbAlignedDimension
 13
92.74907827051766
 23
42.07178274246939
 33
0.0
 14
93.74907827051766
 24
42.07178274246962
 34
0.0
100
AcDbRotatedDimension
1001
GENIUS_GENDTOL_13
1000
TolAcTol
1000

1000

1040
1.0
1001
ACAD_DSTYLE_DIMINSPECT
1070
   396
1000
100%
1070
   395
1000

1070
   394
1070
    33
1070
   393
1070
     0
1001
ACAD
1000
DSTYLE
1002
{
1070
    41
1040
2.5
1070
    44
1040
1.0
1070
    47
1040
0.1
1070
    48
1040
0.1
1070
    74
1070
     1
1070
    78
1070
     1
1070
   140
1040
1.5
1070
   147
1040
0.5
1070
   271
1070
     2
1070
   272
1070
     2
1070
   274
1070
     3
1070
   283
1070
     0
1002
}
  0
CIRCLE
  5
6F9
102
{ACAD_REACTORS
330
710
102
}
330
6C1
100
AcDbEntity
  8
0
100
AcDbCircle
 10
56.95274428632501
 20
47.07178274247008
 30
0.0
 40
5.0
  0
LWPOLYLINE
  5
6FA
102
{ACAD_REACTORS
330
713
330
716
330
714
330
70C
102
}
330
6C1
100
AcDbEntity
  8
0
100
AcDbPolyline
 90
        4
 70
     1
 43
0.0
 10
92.74907827051766
 20
52.07178274246939
 91
        1
 10
93.74907827051766
 20
52.07178274246939
 91
        2
 10
93.74907827051766
 20
42.07178274246939
 91
        4
 10
92.74907827051766
 20
42.07178274246939
 91
        3
  0
DIMENSION
  5
6FB
102
{ACAD_REACTORS
330
718
102
}
330
6C1
100
AcDbEntity
  8
*ADSK_CONSTRAINTS
 60
     1
100
AcDbDimension
280
     0
 10
89.93213242253705
 20
42.07178274246939
 30
0.0
 11
89.93213242253705
 21
42.07178274246939
 31
0.0
 70
   128
  1
10
 71
     5
 42
25.59142311420556
 73
     0
 74
     0
 75
     0
  3
ISO-25
100
AcDbAlignedDimension
 13
92.74907827051766
 23
52.07178274246939
 33
0.0
 14
92.74907827051766
 24
42.07178274246939
 34
0.0
 50
90.0
100
AcDbRotatedDimension
  0
DIMENSION
  5
6FC
102
{ACAD_REACTORS
330
711
102
}
330
6C1
100
AcDbEntity
  8
*ADSK_CONSTRAINTS
 60
     1
100
AcDbDimension
280
     0
 10
93.74907827051719
 20
56.23038897144329
 30
0.0
 11
93.74907827051719
 21
56.23038897144329
 31
0.0
 70
   128
  1
1
 71
     5
 42
2.255645949720474
 73
     0
 74
     0
 75
     0
  3
ISO-25
100
AcDbAlignedDimension
 13
92.74907827051766
 23
52.07178274246939
 33
0.0
 14
93.74907827051766
 24
52.07178274246939
 34
0.0
100
AcDbRotatedDimension
  0
LINE
  5
6FD
330
6C1
100
AcDbEntity
  8
2细线层
100
AcDbLine
 10
4.000000125897713
 20
8.000000323942913
 30
0.0
 11
49.85860279229837
 21
8.000000372151362
 31
0.0
  0
MTEXT
  5
6FE
330
6C1
100
AcDbEntity
  8
6文字层
100
AcDbMText
 10
10.9321013062131
 20
7.633490900956758
 30
0.0
 40
1.000000031999999
 41
13.96779382874115
 46
0.0
 71
     1
 72
     5
  1
{\fSimSun|b0|i0|c134|p2;光洁度}
 73
     1
 44
1.0
101
Embedded Object
 70
     1
 10
1.0
 20
0.0
 30
0.0
 11
10.9321013062131
 21
7.633490900956758
 31
0.0
 40
13.96779382874115
 41
0.0
 42
4.139664936938546
 43
1.32402238873743
 71
     2
 72
     1
 44
13.96779382874115
 45
17.5
 73
     0
 74
     0
 46
0.0
  0
MTEXT
  5
6FF
330
6C1
100
AcDbEntity
  8
6文字层
100
AcDbMText
 10
41.27208697611467
 20
7.54719823478922
 30
0.0
 40
1.000000031999999
 41
21.83610089032027
 46
0.0
 71
     1
 72
     5
  1
{\fSimSun|b0|i0|c134|p2;80/50}
 73
     1
 44
1.0
101
Embedded Object
 70
     1
 10
1.0
 20
0.0
 30
0.0
 11
41.27208697611467
 21
7.54719823478922
 31
0.0
 40
21.83610089032027
 41
0.0
 42
3.441340892245809
 43
1.217877133944134
 71
     2
 72
     1
 44
21.83610089032027
 45
17.5
 73
     0
 74
     0
 46
0.0
  0
LINE
  5
700
330
6C1
100
AcDbEntity
  8
2细线层
100
AcDbLine
 10
4.000000298387021
 20
5.883005358208492
 30
0.0
 11
49.85860296478768
 21
5.883005406416941
 31
0.0
  0
MTEXT
  5
701
330
6C1
100
AcDbEntity
  8
6文字层
100
AcDbMText
 10
10.47312714765166
 20
5.417472358532222
 30
0.0
 40
1.000000031999999
 41
13.96779382874115
 46
0.0
 71
     1
 72
     5
  1
{\fSimSun|b0|i0|c134|p2;通光口径}
 73
     1
 44
1.0
101
Embedded Object
 70
     1
 10
1.0
 20
0.0
 30
0.0
 11
10.47312714765166
 21
5.417472358532222
 31
0.0
 40
13.96779382874115
 41
0.0
 42
5.592178949899441
 43
1.307262611664804
 71
     2
 72
     1
 44
13.96779382874115
 45
17.5
 73
     0
 74
     0
 46
0.0
  0
MTEXT
  5
702
330
6C1
100
AcDbEntity
  8
6文字层
100
AcDbMText
 10
27.01175970770919
 20
7.524943062059037
 30
0.0
 40
1.000000031999999
 41
21.83610089032027
 46
0.0
 71
     1
 72
     5
  1
{\fSimSun|b0|i0|c134|p2;80/50}
 73
     1
 44
1.0
101
Embedded Object
 70
     1
 10
1.0
 20
0.0
 30
0.0
 11
27.01175970770919
 21
7.524943062059037
 31
0.0
 40
21.83610089032027
 41
0.0
 42
3.441340892245809
 43
1.217877133944134
 71
     2
 72
     1
 44
21.83610089032027
 45
17.5
 73
     0
 74
     0
 46
0.0
  0
MTEXT
  5
703
330
6C1
100
AcDbEntity
  8
6文字层
100
AcDbMText
 10
26.96919309166833
 20
5.610717513525287
 30
0.0
 40
1.000000031999999
 41
21.83610089032027
 46
0.0
 71
     1
 72
     5
  1
{\fSimSun|b0|i0|c134|p2;90%}
 73
     1
 44
1.0
101
Embedded Object
 70
     1
 10
1.0
 20
0.0
 30
0.0
 11
26.96919309166833
 21
5.610717513525287
 31
0.0
 40
21.83610089032027
 41
0.0
 42
2.050279395217877
 43
1.000000031999999
 71
     2
 72
     1
 44
21.83610089032027
 45
17.5
 73
     0
 74
     0
 46
0.0
  0
MTEXT
  5
704
330
6C1
100
AcDbEntity
  8
6文字层
100
AcDbMText
 10
41.6261676095578
 20
5.56021633152568
 30
0.0
 40
1.000000031999999
 41
21.83610089032027
 46
0.0
 71
     1
 72
     5
  1
{\fSimSun|b0|i0|c134|p2;90%}
 73
     1
 44
1.0
101
Embedded Object
 70
     1
 10
1.0
 20
0.0
 30
0.0
 11
41.6261676095578
 21
5.56021633152568
 31
0.0
 40
21.83610089032027
 41
0.0
 42
2.050279395217877
 43
1.000000031999999
 71
     2
 72
     1
 44
21.83610089032027
 45
17.5
 73
     0
 74
     0
 46
0.0
  0
DIMENSION
  5
705
102
{ACAD_REACTORS
330
70E
102
}
330
6C1
100
AcDbEntity
  8
*ADSK_CONSTRAINTS
 60
     1
100
AcDbDimension
280
     0
 10
52.40403725481078
 20
49.147659506985
 30
0.0
 11
60.47123587659812
 21
45.46606162484551
 31
0.0
 70
   131
  1
10
 71
     5
 42
25.00000080000018
 73
     0
 74
     0
 75
     0
  3
ISO-25
100
AcDbDiametricDimension
 15
61.50145131783925
 25
44.99590597795515
 35
0.0
 40
0.0
1001
ACAD
1000
DSTYLE
1002
{
1070
   288
1070
     1
1002
}
1001
ACAD_DSTYLE_DIMRADIAL_EXTENSION
1070
   387
1070
     1
1070
   388
1040
0.0
1070
   390
1040
0.0
  0
ENDBLK
  5
708
330
6C1
100
AcDbEntity
  8
0
100
AcDbBlockEnd
  0
BLOCK
  5
77E
330
77D
100
AcDbEntity
  8
0
100
AcDbBlockBegin
  2
*D11
 70
     1
 10
0.0
 20
0.0
 30
0.0
  3
*D11
  1

  0
LINE
  5
79A
330
77D
100
AcDbEntity
  8
7标注层
 62
     0
440
 16777216
370
    -2
100
AcDbLine
 10
1349.270733908236
 20
1170.873283305053
 30
0.0
 11
1338.489626215928
 21
1170.873283305053
 31
0.0
  0
LINE
  5
79B
330
77D
100
AcDbEntity
  8
7标注层
 62
     0
440
 16777216
370
    -2
100
AcDbLine
 10
1338.489626215928
 20
1170.873283305053
 30
0.0
 11
1336.707315832549
 21
1169.120180428067
 31
0.0
  0
LINE
  5
79C
330
77D
100
AcDbEntity
  8
7标注层
 62
     0
440
 16777216
370
    -2
100
AcDbLine
 10
1326.013453532272
 20
1158.601563166148
 30
0.0
 11
1324.231143148892
 21
1156.848460289162
 31
0.0
  0
MTEXT
  5
79D
330
77D
100
AcDbEntity
  8
7标注层
 62
     0
440
 16777216
100
AcDbMText
 10
1344.130180062082
 20
1173.264155099925
 30
0.0
 40
2.5
 41
7.202461538461538
 46
0.0
 71
     5
 72
     1
  1
{\H0.8x;∅10,00\H0.7x;\S+0.0^ -0.2;}
  7
TH-GBD2M
 73
     1
 44
1.0
  0
LINE
  5
79E
330
77D
100
AcDbEntity
  8
7标注层
 62
     0
440
 16777216
370
    -2
100
AcDbLine
 10
1327.795763915651
 20
1160.354666043135
 30
0.0
 11
1334.92500544917
 21
1167.367077551081
 31
0.0
  0
SOLID
  5
79F
330
77D
100
AcDbEntity
  8
7标注层
 62
     0
440
 16777216
100
AcDbTrace
 10
1325.72126971944
 20
1158.898614896711
 30
0.0
 11
1326.305637345103
 21
1158.304511435585
 31
0.0
 12
1327.795763915651
 22
1160.354666043135
 32
0.0
 13
1327.795763915651
 23
1160.354666043135
 33
0.0
  0
SOLID
  5
7A0
330
77D
100
AcDbEntity
  8
7标注层
 62
     0
440
 16777216
100
AcDbTrace
 10
1336.415132019718
 20
1169.41723215863
 30
0.0
 11
1336.99949964538
 21
1168.823128697504
 31
0.0
 12
1334.92500544917
 22
1167.367077551081
 32
0.0
 13
1334.92500544917
 23
1167.367077551081
 33
0.0
  0
POINT
  5
7A1
330
77D
100
AcDbEntity
  8
Defpoints
 62
     0
440
 16777216
100
AcDbPoint
 10
1334.92500544917
 20
1167.367077551081
 30
0.0
  0
POINT
  5
7A2
330
77D
100
AcDbEntity
  8
Defpoints
 62
     0
440
 16777216
100
AcDbPoint
 10
1327.795763915651
 20
1160.354666043135
 30
0.0
  0
ENDBLK
  5
77F
330
77D
100
AcDbEntity
  8
0
100
AcDbBlockEnd
  0
BLOCK
  5
78A
330
789
100
AcDbEntity
  8
0
100
AcDbBlockBegin
  2
*D12
 70
     1
 10
0.0
 20
0.0
 30
0.0
  3
*D12
  1

  0
LINE
  5
7A3
330
789
100
AcDbEntity
  8
7标注层
 62
     0
440
 16777216
370
    -2
100
AcDbLine
 10
1367.156718666602
 20
1158.860871797107
 30
0.0
 11
1367.156718666602
 21
1154.639425833184
 31
0.0
  0
LINE
  5
7A4
330
789
100
AcDbEntity
  8
7标注层
 62
     0
440
 16777216
370
    -2
100
AcDbLine
 10
1368.156718666602
 20
1158.860871797107
 30
0.0
 11
1368.156718666602
 21
1154.639425833184
 31
0.0
  0
LINE
  5
7A5
330
789
100
AcDbEntity
  8
7标注层
 62
     0
440
 16777216
370
    -2
100
AcDbLine
 10
1364.656718666602
 20
1155.639425833184
 30
0.0
 11
1362.156718666602
 21
1155.639425833184
 31
0.0
  0
LINE
  5
7A6
330
789
100
AcDbEntity
  8
7标注层
 62
     0
440
 16777216
370
    -2
100
AcDbLine
 10
1370.656718666602
 20
1155.639425833184
 30
0.0
 11
1382.079180205063
 21
1155.639425833184
 31
0.0
  0
SOLID
  5
7A7
330
789
100
AcDbEntity
  8
7标注层
 62
     0
440
 16777216
100
AcDbTrace
 10
1364.656718666602
 20
1156.056092499851
 30
0.0
 11
1364.656718666602
 21
1155.222759166518
 31
0.0
 12
1367.156718666602
 22
1155.639425833184
 32
0.0
 13
1367.156718666602
 23
1155.639425833184
 33
0.0
  0
SOLID
  5
7A8
330
789
100
AcDbEntity
  8
7标注层
 62
     0
440
 16777216
100
AcDbTrace
 10
1370.656718666602
 20
1156.056092499851
 30
0.0
 11
1370.656718666602
 21
1155.222759166518
 31
0.0
 12
1368.156718666602
 22
1155.639425833184
 32
0.0
 13
1368.156718666602
 23
1155.639425833184
 33
0.0
  0
MTEXT
  5
7A9
330
789
100
AcDbEntity
  8
7标注层
 62
     3
440
 16777216
100
AcDbMText
 10
1377.937334051217
 20
1157.1640412178
 30
0.0
 40
2.5
 41
0.0
 46
0.0
 71
     5
 72
     1
  1
{\H0.8x;1.0±0.2}
  7
TH-GBD2M
 73
     1
 44
1.0
  0
POINT
  5
7AA
330
789
100
AcDbEntity
  8
Defpoints
 62
     0
440
 16777216
100
AcDbPoint
 10
1367.156718666602
 20
1158.860871797107
 30
0.0
  0
POINT
  5
7AB
330
789
100
AcDbEntity
  8
Defpoints
 62
     0
440
 16777216
100
AcDbPoint
 10
1368.156718666602
 20
1158.860871797107
 30
0.0
  0
POINT
  5
7AC
330
789
100
AcDbEntity
  8
Defpoints
 62
     0
440
 16777216
100
AcDbPoint
 10
1368.156718666602
 20
1155.639425833184
 30
0.0
  0
ENDBLK
  5
78B
330
789
100
AcDbEntity
  8
0
100
AcDbBlockEnd
  0
BLOCK
  5
7AE
330
7AD
100
AcDbEntity
  8
0
100
AcDbBlockBegin
  2
*X13
 70
     1
 10
0.0
 20
0.0
 30
0.0
  3
*X13
  1

  0
LINE
  5
7AF
330
7AD
100
AcDbEntity
  8
细实线层
100
AcDbLine
 10
-148.5
 20
-105.0
 30
0.0
 11
148.5
 21
-105.0
 31
0.0
  0
LINE
  5
7B0
330
7AD
100
AcDbEntity
  8
细实线层
100
AcDbLine
 10
148.5
 20
-105.0
 30
0.0
 11
148.5
 21
105.0
 31
0.0
  0
LINE
  5
7B1
330
7AD
100
AcDbEntity
  8
细实线层
100
AcDbLine
 10
148.5
 20
105.0
 30
0.0
 11
-148.5
 21
105.0
 31
0.0
  0
LINE
  5
7B2
330
7AD
100
AcDbEntity
  8
细实线层
100
AcDbLine
 10
-148.5
 20
105.0
 30
0.0
 11
-148.5
 21
-105.0
 31
0.0
  0
LINE
  5
7B3
330
7AD
100
AcDbEntity
  8
粗实线层
100
AcDbLine
 10
-138.5
 20
95.0
 30
0.0
 11
-138.5
 21
-94.99999999999998
 31
0.0
  0
LINE
  5
7B4
330
7AD
100
AcDbEntity
  8
粗实线层
100
AcDbLine
 10
-138.5
 20
-94.99999999999998
 30
0.0
 11
138.5
 21
-95.0
 31
0.0
  0
LINE
  5
7B5
330
7AD
100
AcDbEntity
  8
粗实线层
100
AcDbLine
 10
138.5
 20
-95.0
 30
0.0
 11
138.5
 21
95.0
 31
0.0
  0
LINE
  5
7B6
330
7AD
100
AcDbEntity
  8
粗实线层
100
AcDbLine
 10
138.5
 20
95.0
 30
0.0
 11
-138.5
 21
95.0
 31
0.0
  0
LINE
  5
7B7
330
7AD
100
AcDbEntity
  8
粗实线层
370
    60
100
AcDbLine
 10
-148.5
 20
0.0
 30
0.0
 11
-133.5
 21
0.0
 31
0.0
  0
LINE
  5
7B8
330
7AD
100
AcDbEntity
  8
粗实线层
370
    60
100
AcDbLine
 10
148.5
 20
0.0
 30
0.0
 11
133.5
 21
0.0
 31
0.0
  0
LINE
  5
7B9
330
7AD
100
AcDbEntity
  8
粗实线层
370
    60
100
AcDbLine
 10
0.0
 20
105.0
 30
0.0
 11
0.0
 21
90.0
 31
0.0
  0
LINE
  5
7BA
330
7AD
100
AcDbEntity
  8
粗实线层
370
    60
100
AcDbLine
 10
0.0
 20
-105.0
 30
0.0
 11
0.0
 21
-95.0
 31
0.0
  0
ENDBLK
  5
7BB
330
7AD
100
AcDbEntity
  8
0
100
AcDbBlockEnd
  0
BLOCK
  5
7BD
330
7BC
100
AcDbEntity
  8
0
100
AcDbBlockBegin
  2
*D14
 70
     1
 10
0.0
 20
0.0
 30
0.0
  3
*D14
  1

  0
LINE
  5
7BE
330
7BC
100
AcDbEntity
  8
7标注层
 62
     0
440
 16777216
370
    -2
100
AcDbLine
 10
1349.270733908236
 20
1170.873283305053
 30
0.0
 11
1338.489626215928
 21
1170.873283305053
 31
0.0
  0
LINE
  5
7BF
330
7BC
100
AcDbEntity
  8
7标注层
 62
     0
440
 16777216
370
    -2
100
AcDbLine
 10
1338.489626215928
 20
1170.873283305053
 30
0.0
 11
1336.707315832549
 21
1169.120180428067
 31
0.0
  0
LINE
  5
7C0
330
7BC
100
AcDbEntity
  8
7标注层
 62
     0
440
 16777216
370
    -2
100
AcDbLine
 10
1326.013453532272
 20
1158.601563166148
 30
0.0
 11
1324.231143148892
 21
1156.848460289162
 31
0.0
  0
MTEXT
  5
7C1
330
7BC
100
AcDbEntity
  8
7标注层
 62
     0
440
 16777216
100
AcDbMText
 10
1344.130180062082
 20
1173.264155099925
 30
0.0
 40
2.5
 41
7.202461538461538
 46
0.0
 71
     5
 72
     1
  1
{\H0.8x;∅10,00\H0.7x;\S+0.0^ -0.2;}
  7
TH-GBD2M
 73
     1
 44
1.0
  0
LINE
  5
7C2
330
7BC
100
AcDbEntity
  8
7标注层
 62
     0
440
 16777216
370
    -2
100
AcDbLine
 10
1327.795763915651
 20
1160.354666043135
 30
0.0
 11
1334.92500544917
 21
1167.367077551081
 31
0.0
  0
SOLID
  5
7C3
330
7BC
100
AcDbEntity
  8
7标注层
 62
     0
440
 16777216
100
AcDbTrace
 10
1325.72126971944
 20
1158.898614896711
 30
0.0
 11
1326.305637345103
 21
1158.304511435585
 31
0.0
 12
1327.795763915651
 22
1160.354666043135
 32
0.0
 13
1327.795763915651
 23
1160.354666043135
 33
0.0
  0
SOLID
  5
7C4
330
7BC
100
AcDbEntity
  8
7标注层
 62
     0
440
 16777216
100
AcDbTrace
 10
1336.415132019718
 20
1169.41723215863
 30
0.0
 11
1336.99949964538
 21
1168.823128697504
 31
0.0
 12
1334.92500544917
 22
1167.367077551081
 32
0.0
 13
1334.92500544917
 23
1167.367077551081
 33
0.0
  0
POINT
  5
7C5
330
7BC
100
AcDbEntity
  8
Defpoints
 62
     0
440
 16777216
100
AcDbPoint
 10
1334.92500544917
 20
1167.367077551081
 30
0.0
  0
POINT
  5
7C6
330
7BC
100
AcDbEntity
  8
Defpoints
 62
     0
440
 16777216
100
AcDbPoint
 10
1327.795763915651
 20
1160.354666043135
 30
0.0
  0
ENDBLK
  5
7C7
330
7BC
100
AcDbEntity
  8
0
100
AcDbBlockEnd
  0
BLOCK
  5
7C9
330
7C8
100
AcDbEntity
  8
0
100
AcDbBlockBegin
  2
*D15
 70
     1
 10
0.0
 20
0.0
 30
0.0
  3
*D15
  1

  0
LINE
  5
7CA
330
7C8
100
AcDbEntity
  8
7标注层
 62
     0
440
 16777216
370
    -2
100
AcDbLine
 10
1367.156718666602
 20
1158.860871797107
 30
0.0
 11
1367.156718666602
 21
1154.639425833184
 31
0.0
  0
LINE
  5
7CB
330
7C8
100
AcDbEntity
  8
7标注层
 62
     0
440
 16777216
370
    -2
100
AcDbLine
 10
1368.156718666602
 20
1158.860871797107
 30
0.0
 11
1368.156718666602
 21
1154.639425833184
 31
0.0
  0
LINE
  5
7CC
330
7C8
100
AcDbEntity
  8
7标注层
 62
     0
440
 16777216
370
    -2
100
AcDbLine
 10
1364.656718666602
 20
1155.639425833184
 30
0.0
 11
1362.156718666602
 21
1155.639425833184
 31
0.0
  0
LINE
  5
7CD
330
7C8
100
AcDbEntity
  8
7标注层
 62
     0
440
 16777216
370
    -2
100
AcDbLine
 10
1370.656718666602
 20
1155.639425833184
 30
0.0
 11
1382.079180205063
 21
1155.639425833184
 31
0.0
  0
SOLID
  5
7CE
330
7C8
100
AcDbEntity
  8
7标注层
 62
     0
440
 16777216
100
AcDbTrace
 10
1364.656718666602
 20
1156.056092499851
 30
0.0
 11
1364.656718666602
 21
1155.222759166518
 31
0.0
 12
1367.156718666602
 22
1155.639425833184
 32
0.0
 13
1367.156718666602
 23
1155.639425833184
 33
0.0
  0
SOLID
  5
7CF
330
7C8
100
AcDbEntity
  8
7标注层
 62
     0
440
 16777216
100
AcDbTrace
 10
1370.656718666602
 20
1156.056092499851
 30
0.0
 11
1370.656718666602
 21
1155.222759166518
 31
0.0
 12
1368.156718666602
 22
1155.639425833184
 32
0.0
 13
1368.156718666602
 23
1155.639425833184
 33
0.0
  0
MTEXT
  5
7D0
330
7C8
100
AcDbEntity
  8
7标注层
 62
     3
440
 16777216
100
AcDbMText
 10
1377.937334051217
 20
1157.1640412178
 30
0.0
 40
2.5
 41
0.0
 46
0.0
 71
     5
 72
     1
  1
{\H0.8x;1.0±0.2}
  7
TH-GBD2M
 73
     1
 44
1.0
  0
POINT
  5
7D1
330
7C8
100
AcDbEntity
  8
Defpoints
 62
     0
440
 16777216
100
AcDbPoint
 10
1367.156718666602
 20
1158.860871797107
 30
0.0
  0
POINT
  5
7D2
330
7C8
100
AcDbEntity
  8
Defpoints
 62
     0
440
 16777216
100
AcDbPoint
 10
1368.156718666602
 20
1158.860871797107
 30
0.0
  0
POINT
  5
7D3
330
7C8
100
AcDbEntity
  8
Defpoints
 62
     0
440
 16777216
100
AcDbPoint
 10
1368.156718666602
 20
1155.639425833184
 30
0.0
  0
ENDBLK
  5
7D4
330
7C8
100
AcDbEntity
  8
0
100
AcDbBlockEnd
  0
BLOCK
  5
88F
330
88E
100
AcDbEntity
  8
0
100
AcDbBlockBegin
  2
*D19
 70
     1
 10
0.0
 20
0.0
 30
0.0
  3
*D19
  1

  0
LINE
  5
8AB
330
88E
100
AcDbEntity
  8
7标注层
 62
     0
440
 16777216
370
    -2
100
AcDbLine
 10
-76.59248877962365
 20
52.35444540227821
 30
0.0
 11
-87.37359647193136
 21
52.35444540227821
 31
0.0
  0
LINE
  5
8AC
330
88E
100
AcDbEntity
  8
7标注层
 62
     0
440
 16777216
370
    -2
100
AcDbLine
 10
-87.37359647193136
 20
52.35444540227821
 30
0.0
 11
-89.15590685531077
 21
50.60134252529184
 31
0.0
  0
LINE
  5
8AD
330
88E
100
AcDbEntity
  8
7标注层
 62
     0
440
 16777216
370
    -2
100
AcDbLine
 10
-99.84976915558796
 20
40.08272526337299
 30
0.0
 11
-101.6320795389674
 21
38.32962238638663
 31
0.0
  0
MTEXT
  5
8AE
330
88E
100
AcDbEntity
  8
7标注层
 62
     0
440
 16777216
100
AcDbMText
 10
-81.73304262577749
 20
54.74531719715002
 30
0.0
 40
2.5
 41
7.202461538461538
 46
0.0
 71
     5
 72
     1
  1
{\H0.8x;∅10,00\H0.7x;\S+0.0^ -0.2;}
  7
TH-GBD2M
 73
     1
 44
1.0
  0
LINE
  5
8AF
330
88E
100
AcDbEntity
  8
7标注层
 62
     0
440
 16777216
370
    -2
100
AcDbLine
 10
-98.06745877220855
 20
41.83582814035936
 30
0.0
 11
-90.93821723869019
 21
48.84823964830547
 31
0.0
  0
SOLID
  5
8B0
330
88E
100
AcDbEntity
  8
7标注层
 62
     0
440
 16777216
100
AcDbTrace
 10
-100.141952968419
 20
40.37977699393624
 30
0.0
 11
-99.55758534275688
 21
39.78567353280976
 31
0.0
 12
-98.06745877220855
 22
41.83582814035936
 32
0.0
 13
-98.06745877220855
 23
41.83582814035936
 33
0.0
  0
SOLID
  5
8B1
330
88E
100
AcDbEntity
  8
7标注层
 62
     0
440
 16777216
100
AcDbTrace
 10
-89.44809066814185
 20
50.89839425585508
 30
0.0
 11
-88.8637230424797
 21
50.3042907947286
 31
0.0
 12
-90.93821723869019
 22
48.84823964830547
 32
0.0
 13
-90.93821723869019
 23
48.84823964830547
 33
0.0
  0
POINT
  5
8B2
330
88E
100
AcDbEntity
  8
Defpoints
 62
     0
440
 16777216
100
AcDbPoint
 10
-90.93821723869019
 20
48.84823964830547
 30
0.0
  0
POINT
  5
8B3
330
88E
100
AcDbEntity
  8
Defpoints
 62
     0
440
 16777216
100
AcDbPoint
 10
-98.06745877220855
 20
41.83582814035936
 30
0.0
  0
ENDBLK
  5
890
330
88E
100
AcDbEntity
  8
0
100
AcDbBlockEnd
  0
BLOCK
  5
89B
330
89A
100
AcDbEntity
  8
0
100
AcDbBlockBegin
  2
*D20
 70
     1
 10
0.0
 20
0.0
 30
0.0
  3
*D20
  1

  0
LINE
  5
8B4
330
89A
100
AcDbEntity
  8
7标注层
 62
     0
440
 16777216
370
    -2
100
AcDbLine
 10
-58.70650402125784
 20
40.34203389433128
 30
0.0
 11
-58.70650402125784
 21
36.1205879304091
 31
0.0
  0
LINE
  5
8B5
330
89A
100
AcDbEntity
  8
7标注层
 62
     0
440
 16777216
370
    -2
100
AcDbLine
 10
-57.70650402125784
 20
40.34203389433151
 30
0.0
 11
-57.70650402125784
 21
36.1205879304091
 31
0.0
  0
LINE
  5
8B6
330
89A
100
AcDbEntity
  8
7标注层
 62
     0
440
 16777216
370
    -2
100
AcDbLine
 10
-61.20650402125784
 20
37.1205879304091
 30
0.0
 11
-63.70650402125784
 21
37.1205879304091
 31
0.0
  0
LINE
  5
8B7
330
89A
100
AcDbEntity
  8
7标注层
 62
     0
440
 16777216
370
    -2
100
AcDbLine
 10
-55.20650402125784
 20
37.1205879304091
 30
0.0
 11
-43.78404248279625
 21
37.1205879304091
 31
0.0
  0
SOLID
  5
8B8
330
89A
100
AcDbEntity
  8
7标注层
 62
     0
440
 16777216
100
AcDbTrace
 10
-61.20650402125784
 20
37.53725459707577
 30
0.0
 11
-61.20650402125784
 21
36.70392126374244
 31
0.0
 12
-58.70650402125784
 22
37.1205879304091
 32
0.0
 13
-58.70650402125784
 23
37.1205879304091
 33
0.0
  0
SOLID
  5
8B9
330
89A
100
AcDbEntity
  8
7标注层
 62
     0
440
 16777216
100
AcDbTrace
 10
-55.20650402125784
 20
37.53725459707577
 30
0.0
 11
-55.20650402125784
 21
36.70392126374244
 31
0.0
 12
-57.70650402125784
 22
37.1205879304091
 32
0.0
 13
-57.70650402125784
 23
37.1205879304091
 33
0.0
  0
MTEXT
  5
8BA
330
89A
100
AcDbEntity
  8
7标注层
 62
     3
440
 16777216
100
AcDbMText
 10
-47.92588863664241
 20
38.64520331502449
 30
0.0
 40
2.5
 41
0.0
 46
0.0
 71
     5
 72
     1
  1
{\H0.8x;1.0±0.2}
  7
TH-GBD2M
 73
     1
 44
1.0
  0
POINT
  5
8BB
330
89A
100
AcDbEntity
  8
Defpoints
 62
     0
440
 16777216
100
AcDbPoint
 10
-58.70650402125784
 20
40.34203389433128
 30
0.0
  0
POINT
  5
8BC
330
89A
100
AcDbEntity
  8
Defpoints
 62
     0
440
 16777216
100
AcDbPoint
 10
-57.70650402125784
 20
40.34203389433151
 30
0.0
  0
POINT
  5
8BD
330
89A
100
AcDbEntity
  8
Defpoints
 62
     0
440
 16777216
100
AcDbPoint
 10
-57.70650402125784
 20
37.1205879304091
 30
0.0
  0
ENDBLK
  5
89C
330
89A
100
AcDbEntity
  8
0
100
AcDbBlockEnd
  0
BLOCK
  5
8C7
330
8C6
100
AcDbEntity
  8
0
100
AcDbBlockBegin
  2
*X21
 70
     1
 10
0.0
 20
0.0
 30
0.0
  3
*X21
  1

  0
LINE
  5
8C8
330
8C6
100
AcDbEntity
  8
细实线层
100
AcDbLine
 10
-148.5
 20
-105.0
 30
0.0
 11
148.5
 21
-105.0
 31
0.0
  0
LINE
  5
8C9
330
8C6
100
AcDbEntity
  8
细实线层
100
AcDbLine
 10
148.5
 20
-105.0
 30
0.0
 11
148.5
 21
105.0
 31
0.0
  0
LINE
  5
8CA
330
8C6
100
AcDbEntity
  8
细实线层
100
AcDbLine
 10
148.5
 20
105.0
 30
0.0
 11
-148.5
 21
105.0
 31
0.0
  0
LINE
  5
8CB
330
8C6
100
AcDbEntity
  8
细实线层
100
AcDbLine
 10
-148.5
 20
105.0
 30
0.0
 11
-148.5
 21
-105.0
 31
0.0
  0
LINE
  5
8CC
330
8C6
100
AcDbEntity
  8
粗实线层
100
AcDbLine
 10
-138.5
 20
95.0
 30
0.0
 11
-138.5
 21
-95.0
 31
0.0
  0
LINE
  5
8CD
330
8C6
100
AcDbEntity
  8
粗实线层
100
AcDbLine
 10
-138.5
 20
-95.0
 30
0.0
 11
138.5
 21
-95.0
 31
0.0
  0
LINE
  5
8CE
330
8C6
100
AcDbEntity
  8
粗实线层
100
AcDbLine
 10
138.5
 20
-95.0
 30
0.0
 11
138.5
 21
95.0
 31
0.0
  0
LINE
  5
8CF
330
8C6
100
AcDbEntity
  8
粗实线层
100
AcDbLine
 10
138.5
 20
95.0
 30
0.0
 11
-138.5
 21
95.0
 31
0.0
  0
LINE
  5
8D0
330
8C6
100
AcDbEntity
  8
粗实线层
370
    60
100
AcDbLine
 10
-148.5
 20
0.0
 30
0.0
 11
-133.5
 21
0.0
 31
0.0
  0
LINE
  5
8D1
330
8C6
100
AcDbEntity
  8
粗实线层
370
    60
100
AcDbLine
 10
148.5
 20
0.0
 30
0.0
 11
133.5
 21
0.0
 31
0.0
  0
LINE
  5
8D2
330
8C6
100
AcDbEntity
  8
粗实线层
370
    60
100
AcDbLine
 10
0.0
 20
105.0
 30
0.0
 11
0.0
 21
90.0
 31
0.0
  0
LINE
  5
8D3
330
8C6
100
AcDbEntity
  8
粗实线层
370
    60
100
AcDbLine
 10
0.0
 20
-105.0
 30
0.0
 11
0.0
 21
-95.0
 31
0.0
  0
ENDBLK
  5
8D4
330
8C6
100
AcDbEntity
  8
0
100
AcDbBlockEnd
  0
BLOCK
  5
8D6
330
8D5
100
AcDbEntity
  8
0
100
AcDbBlockBegin
  2
*U22
 70
     1
 10
0.0
 20
0.0
 30
0.0
  3
*U22
  1

  0
LINE
  5
8D7
330
8D5
100
AcDbEntity
  8
3中心线层
  6
CENTER2
 62
     0
440
 16777216
100
AcDbLine
 10
5.0
 20
0.0
 30
0.0
 11
-5.0
 21
0.0
 31
0.0
  0
ENDBLK
  5
8D8
330
8D5
100
AcDbEntity
  8
0
100
AcDbBlockEnd
  0
BLOCK
  5
8DA
330
8D9
100
AcDbEntity
  8
0
100
AcDbBlockBegin
  2
*U23
 70
     1
 10
0.0
 20
0.0
 30
0.0
  3
*U23
  1

  0
LINE
  5
8DB
330
8D9
100
AcDbEntity
  8
3中心线层
  6
Continuous
 62
     0
440
 16777216
100
AcDbLine
 10
-2.499999999999999
 20
0.0
 30
0.0
 11
2.499999999999999
 21
0.0
 31
0.0
  0
LINE
  5
8DC
330
8D9
100
AcDbEntity
  8
3中心线层
  6
Continuous
 62
     0
440
 16777216
100
AcDbLine
 10
0.0
 20
-2.499999999999999
 30
0.0
 11
0.0
 21
2.499999999999999
 31
0.0
  0
LINE
  5
8DD
330
8D9
100
AcDbEntity
  8
3中心线层
  6
CENTER2
 62
     0
440
 16777216
100
AcDbLine
 10
-28.49999999999999
 20
0.0
 30
0.0
 11
-4.999999999999996
 21
0.0
 31
0.0
  0
LINE
  5
8DE
330
8D9
100
AcDbEntity
  8
3中心线层
  6
CENTER2
 62
     0
440
 16777216
100
AcDbLine
 10
4.999999999999998
 20
0.0
 30
0.0
 11
28.5
 21
0.0
 31
0.0
  0
LINE
  5
8DF
330
8D9
100
AcDbEntity
  8
3中心线层
  6
CENTER2
 62
     0
440
 16777216
100
AcDbLine
 10
0.0
 20
-28.49999999999999
 30
0.0
 11
0.0
 21
-4.999999999999996
 31
0.0
  0
LINE
  5
8E0
330
8D9
100
AcDbEntity
  8
3中心线层
  6
CENTER2
 62
     0
440
 16777216
100
AcDbLine
 10
0.0
 20
4.999999999999998
 30
0.0
 11
0.0
 21
28.5
 31
0.0
  0
ENDBLK
  5
8E1
330
8D9
100
AcDbEntity
  8
0
100
AcDbBlockEnd
  0
BLOCK
  5
8E3
330
8E2
100
AcDbEntity
  8
0
100
AcDbBlockBegin
  2
*T24
 70
     1
 10
0.0
 20
0.0
 30
0.0
  3
*T24
  1

  0
MTEXT
  5
8E4
330
8E2
100
AcDbEntity
  8
2细线层
 62
     3
440
 16777216
100
AcDbMText
 10
60.64999999999999
 20
-3.166666666666664
 30
0.0
 40
2.5
 41
33.0
 46
0.0
 71
     5
 72
     5
  1
{\fSimSun|b1|i0|c134|p34;S1}
  7
表格
 73
     1
 44
1.0
  0
MTEXT
  5
8E5
330
8E2
100
AcDbEntity
  8
2细线层
 62
     3
440
 16777216
100
AcDbMText
 10
96.64999999999999
 20
-3.166666666666664
 30
0.0
 40
2.5
 41
33.0
 46
0.0
 71
     5
 72
     5
  1
{\fSimSun|b1|i0|c134|p34;S2}
  7
表格
 73
     1
 44
1.0
  0
MTEXT
  5
8E6
330
8E2
100
AcDbEntity
  8
2细线层
 62
     3
440
 16777216
100
AcDbMText
 10
21.325
 20
-9.5
 30
0.0
 40
2.5
 41
39.64999999999999
 46
0.0
 71
     5
 72
     5
  1
{\fSimSun|b1|i0|c134|p34;形状}
  7
表格
 73
     1
 44
1.0
  0
MTEXT
  5
8E7
330
8E2
100
AcDbEntity
  8
2细线层
 62
     3
440
 16777216
100
AcDbMText
 10
60.64999999999999
 20
-9.5
 30
0.0
 40
2.5
 41
33.0
 46
0.0
 71
     5
 72
     5
  1
{\fSimSun|b1|i0|c134|p34;平面}
  7
表格
 73
     1
 44
1.0
  0
MTEXT
  5
8E8
330
8E2
100
AcDbEntity
  8
2细线层
 62
     3
440
 16777216
100
AcDbMText
 10
96.64999999999999
 20
-9.5
 30
0.0
 40
2.5
 41
33.0
 46
0.0
 71
     5
 72
     5
  1
{\fSimSun|b1|i0|c134|p34;平面}
  7
表格
 73
     1
 44
1.0
  0
MTEXT
  5
8E9
330
8E2
100
AcDbEntity
  8
2细线层
 62
     3
440
 16777216
100
AcDbMText
 10
21.325
 20
-15.83333333333333
 30
0.0
 40
2.5
 41
39.64999999999999
 46
0.0
 71
     5
 72
     5
  1
{\fSimSun|b1|i0|c134|p34;光洁度}
  7
表格
 73
     1
 44
1.0
  0
MTEXT
  5
8EA
330
8E2
100
AcDbEntity
  8
2细线层
 62
     3
440
 16777216
100
AcDbMText
 10
60.64999999999999
 20
-15.83333333333333
 30
0.0
 40
2.5
 41
33.0
 46
0.0
 71
     5
 72
     5
  1
{\fSimSun|b1|i0|c134|p34;80-50}
  7
表格
 73
     1
 44
1.0
  0
MTEXT
  5
8EB
330
8E2
100
AcDbEntity
  8
2细线层
 62
     3
440
 16777216
100
AcDbMText
 10
96.64999999999999
 20
-15.83333333333333
 30
0.0
 40
2.5
 41
33.0
 46
0.0
 71
     5
 72
     5
  1
{\fSimSun|b1|i0|c134|p34;80-50}
  7
表格
 73
     1
 44
1.0
  0
MTEXT
  5
8EC
330
8E2
100
AcDbEntity
  8
2细线层
 62
     3
440
 16777216
100
AcDbMText
 10
21.325
 20
-22.16666666666666
 30
0.0
 40
2.5
 41
39.64999999999999
 46
0.0
 71
     5
 72
     5
  1
{\fSimSun|b1|i0|c134|p34;通光口径}
  7
表格
 73
     1
 44
1.0
  0
MTEXT
  5
8ED
330
8E2
100
AcDbEntity
  8
2细线层
 62
     3
440
 16777216
100
AcDbMText
 10
60.64999999999999
 20
-22.16666666666666
 30
0.0
 40
2.5
 41
33.0
 46
0.0
 71
     5
 72
     5
  1
{\fSimSun|b1|i0|c134|p34;90%}
  7
表格
 73
     1
 44
1.0
  0
MTEXT
  5
8EE
330
8E2
100
AcDbEntity
  8
2细线层
 62
     3
440
 16777216
100
AcDbMText
 10
96.64999999999999
 20
-22.16666666666666
 30
0.0
 40
2.5
 41
33.0
 46
0.0
 71
     5
 72
     5
  1
{\fSimSun|b1|i0|c134|p34;90%}
  7
表格
 73
     1
 44
1.0
  0
LINE
  5
8EF
330
8E2
100
AcDbEntity
  8
2细线层
  6
ByBlock
 62
     0
440
 16777216
370
    -2
100
AcDbLine
 10
0.0
 20
0.0
 30
0.0
 11
114.65
 21
0.0
 31
0.0
  0
LINE
  5
8F0
330
8E2
100
AcDbEntity
  8
2细线层
  6
ByBlock
 62
     0
440
 16777216
370
    -2
100
AcDbLine
 10
0.0
 20
-6.333333333333332
 30
0.0
 11
114.65
 21
-6.333333333333332
 31
0.0
  0
LINE
  5
8F1
330
8E2
100
AcDbEntity
  8
2细线层
  6
ByBlock
 62
     0
440
 16777216
370
    -2
100
AcDbLine
 10
0.0
 20
-12.66666666666666
 30
0.0
 11
114.65
 21
-12.66666666666666
 31
0.0
  0
LINE
  5
8F2
330
8E2
100
AcDbEntity
  8
2细线层
  6
ByBlock
 62
     0
440
 16777216
370
    -2
100
AcDbLine
 10
0.0
 20
-19.0
 30
0.0
 11
114.65
 21
-19.0
 31
0.0
  0
LINE
  5
8F3
330
8E2
100
AcDbEntity
  8
2细线层
  6
ByBlock
 62
     0
440
 16777216
370
    -2
100
AcDbLine
 10
0.0
 20
-25.33333333333333
 30
0.0
 11
114.65
 21
-25.33333333333333
 31
0.0
  0
LINE
  5
8F4
330
8E2
100
AcDbEntity
  8
2细线层
  6
ByBlock
 62
     0
440
 16777216
370
    -2
100
AcDbLine
 10
0.0
 20
0.0
 30
0.0
 11
0.0
 21
-25.33333333333333
 31
0.0
  0
LINE
  5
8F5
330
8E2
100
AcDbEntity
  8
2细线层
  6
ByBlock
 62
     0
440
 16777216
370
    -2
100
AcDbLine
 10
42.64999999999999
 20
0.0
 30
0.0
 11
42.64999999999999
 21
-25.33333333333333
 31
0.0
  0
LINE
  5
8F6
330
8E2
100
AcDbEntity
  8
2细线层
  6
ByBlock
 62
     0
440
 16777216
370
    -2
100
AcDbLine
 10
78.64999999999999
 20
0.0
 30
0.0
 11
78.64999999999999
 21
-25.33333333333333
 31
0.0
  0
LINE
  5
8F7
330
8E2
100
AcDbEntity
  8
2细线层
  6
ByBlock
 62
     0
440
 16777216
370
    -2
100
AcDbLine
 10
114.65
 20
0.0
 30
0.0
 11
114.65
 21
-25.33333333333333
 31
0.0
  0
LINE
  5
8F8
330
8E2
100
AcDbEntity
  8
Defpoints
 62
     8
440
 16777216
 60
     1
370
     0
100
AcDbLine
 10
0.0
 20
0.0
 30
0.0
 11
0.0
 21
0.0
 31
0.0
  0
ENDBLK
  5
8F9
330
8E2
100
AcDbEntity
  8
0
100
AcDbBlockEnd
  0
BLOCK
  5
8FB
330
8FA
100
AcDbEntity
  8
0
100
AcDbBlockBegin
  2
*D25
 70
     1
 10
0.0
 20
0.0
 30
0.0
  3
*D25
  1

  0
LINE
  5
8FC
330
8FA
100
AcDbEntity
  8
7标注层
440
 16777216
370
    -2
100
AcDbLine
 10
210.0539141915121
 20
151.5235948595648
 30
0.0
 11
197.154914191512
 21
151.5235948595648
 31
0.0
  0
LINE
  5
8FD
330
8FA
100
AcDbEntity
  8
7标注层
440
 16777216
370
    -2
100
AcDbLine
 10
197.154914191512
 20
151.5235948595648
 30
0.0
 11
187.7060474058775
 21
142.6729048411836
 31
0.0
  0
LINE
  5
8FE
330
8FA
100
AcDbEntity
  8
7标注层
440
 16777216
370
    -2
100
AcDbLine
 10
145.375854652552
 20
103.0224977629922
 30
0.0
 11
142.4565310143916
 21
100.2879869300135
 31
0.0
  0
MTEXT
  5
8FF
330
8FA
100
AcDbEntity
  8
7标注层
 62
     3
440
 16777216
100
AcDbMText
 10
204.9142218838198
 20
154.4544922954622
 30
0.0
 40
2.5
 41
0.0
 46
0.0
 71
     5
 72
     1
  1
∅10 {\H0.7x;\S 0.00^ -0.20;}
  7
TH-GBD2M
 73
     1
 44
1.0
  0
LINE
  5
900
330
8FA
100
AcDbEntity
  8
7标注层
440
 16777216
370
    -2
100
AcDbLine
 10
148.2951782907124
 20
105.7570085959709
 30
0.0
 11
184.7867237677171
 21
139.9383940082049
 31
0.0
  0
SOLID
  5
901
330
8FA
100
AcDbEntity
  8
7标注层
440
 16777216
100
AcDbTrace
 10
144.9201028470555
 20
103.5090517026856
 30
0.0
 11
145.8316064580484
 21
102.5359438232988
 31
0.0
 12
148.2951782907124
 22
105.7570085959709
 32
0.0
 13
148.2951782907124
 23
105.7570085959709
 33
0.0
  0
SOLID
  5
902
330
8FA
100
AcDbEntity
  8
7标注层
440
 16777216
100
AcDbTrace
 10
187.2502956003811
 20
143.159458780877
 30
0.0
 11
188.161799211374
 21
142.1863509014902
 31
0.0
 12
184.7867237677171
 22
139.9383940082049
 32
0.0
 13
184.7867237677171
 23
139.9383940082049
 33
0.0
  0
POINT
  5
903
330
8FA
100
AcDbEntity
  8
Defpoints
 62
     0
440
 16777216
100
AcDbPoint
 10
184.7867237677171
 20
139.9383940082049
 30
0.0
  0
POINT
  5
904
330
8FA
100
AcDbEntity
  8
Defpoints
 62
     0
440
 16777216
100
AcDbPoint
 10
148.2951782907124
 20
105.7570085959709
 30
0.0
  0
ENDBLK
  5
905
330
8FA
100
AcDbEntity
  8
0
100
AcDbBlockEnd
  0
BLOCK
  5
907
330
906
100
AcDbEntity
  8
0
100
AcDbBlockBegin
  2
*D26
 70
     1
 10
0.0
 20
0.0
 30
0.0
  3
*D26
  1

  0
LINE
  5
908
330
906
100
AcDbEntity
  8
7标注层
 62
     0
440
 16777216
370
    -2
100
AcDbLine
 10
243.2968322173147
 20
147.4727013020878
 30
0.0
 11
243.2968322173147
 21
152.6626913964218
 31
0.0
  0
LINE
  5
909
330
906
100
AcDbEntity
  8
7标注层
 62
     0
440
 16777216
370
    -2
100
AcDbLine
 10
238.2968322173146
 20
147.4727013020878
 30
0.0
 11
238.2968322173146
 21
152.6626913964218
 31
0.0
  0
LINE
  5
90A
330
906
100
AcDbEntity
  8
7标注层
440
 16777216
370
    -2
100
AcDbLine
 10
247.2968322173147
 20
151.4126913964218
 30
0.0
 11
251.2968322173147
 21
151.4126913964218
 31
0.0
  0
LINE
  5
90B
330
906
100
AcDbEntity
  8
7标注层
440
 16777216
370
    -2
100
AcDbLine
 10
234.2968322173146
 20
151.4126913964218
 30
0.0
 11
220.67144760193
 21
151.4126913964218
 31
0.0
  0
LINE
  5
90C
330
906
100
AcDbEntity
  8
7标注层
440
 16777216
370
    -2
100
AcDbLine
 10
243.2968322173147
 20
151.4126913964218
 30
0.0
 11
238.2968322173146
 21
151.4126913964218
 31
0.0
  0
SOLID
  5
90D
330
906
100
AcDbEntity
  8
7标注层
440
 16777216
100
AcDbTrace
 10
247.2968322173147
 20
152.0793580630884
 30
0.0
 11
247.2968322173147
 21
150.7460247297551
 31
0.0
 12
243.2968322173147
 22
151.4126913964218
 32
0.0
 13
243.2968322173147
 23
151.4126913964218
 33
0.0
  0
SOLID
  5
90E
330
906
100
AcDbEntity
  8
7标注层
440
 16777216
100
AcDbTrace
 10
234.2968322173146
 20
152.0793580630884
 30
0.0
 11
234.2968322173146
 21
150.7460247297551
 31
0.0
 12
238.2968322173146
 22
151.4126913964218
 32
0.0
 13
238.2968322173146
 23
151.4126913964218
 33
0.0
  0
MTEXT
  5
90F
330
906
100
AcDbEntity
  8
7标注层
 62
     3
440
 16777216
100
AcDbMText
 10
225.4841399096223
 20
153.318460627191
 30
0.0
 40
2.5
 41
0.0
 46
0.0
 71
     5
 72
     1
  1
1%%p0.20
  7
TH-GBD2M
 73
     1
 44
1.0
  0
POINT
  5
910
330
906
100
AcDbEntity
  8
Defpoints
 62
     0
440
 16777216
100
AcDbPoint
 10
243.2968322173147
 20
146.8477013020878
 30
0.0
  0
POINT
  5
911
330
906
100
AcDbEntity
  8
Defpoints
 62
     0
440
 16777216
100
AcDbPoint
 10
238.2968322173146
 20
146.8477013020878
 30
0.0
  0
POINT
  5
912
330
906
100
AcDbEntity
  8
Defpoints
 62
     0
440
 16777216
100
AcDbPoint
 10
238.2968322173146
 20
151.4126913964218
 30
0.0
  0
ENDBLK
  5
913
330
906
100
AcDbEntity
  8
0
100
AcDbBlockEnd
  0
BLOCK
  5
98A
330
974
100
AcDbEntity
  8
0
100
AcDbBlockBegin
  2
*T29
 70
     1
 10
0.0
 20
0.0
 30
0.0
  3
*T29
  1

  0
MTEXT
  5
975
330
974
100
AcDbEntity
  8
2细线层
 62
     3
440
 16777216
100
AcDbMText
 10
60.64999999999999
 20
-3.166666666666664
 30
0.0
 40
2.5
 41
33.0
 46
0.0
 71
     5
 72
     5
  1
{\fSimSun|b1|i0|c134|p34;S1}
  7
表格
 73
     1
 44
1.0
  0
MTEXT
  5
976
330
974
100
AcDbEntity
  8
2细线层
 62
     3
440
 16777216
100
AcDbMText
 10
96.64999999999999
 20
-3.166666666666664
 30
0.0
 40
2.5
 41
33.0
 46
0.0
 71
     5
 72
     5
  1
{\fSimSun|b1|i0|c134|p34;S2}
  7
表格
 73
     1
 44
1.0
  0
MTEXT
  5
977
330
974
100
AcDbEntity
  8
2细线层
 62
     3
440
 16777216
100
AcDbMText
 10
21.325
 20
-9.5
 30
0.0
 40
2.5
 41
39.64999999999999
 46
0.0
 71
     5
 72
     5
  1
{\fSimSun|b1|i0|c134|p34;形状}
  7
表格
 73
     1
 44
1.0
  0
MTEXT
  5
978
330
974
100
AcDbEntity
  8
2细线层
 62
     3
440
 16777216
100
AcDbMText
 10
60.64999999999999
 20
-9.5
 30
0.0
 40
2.5
 41
33.0
 46
0.0
 71
     5
 72
     5
  1
{\fSimSun|b1|i0|c134|p34;平面}
  7
表格
 73
     1
 44
1.0
  0
MTEXT
  5
979
330
974
100
AcDbEntity
  8
2细线层
 62
     3
440
 16777216
100
AcDbMText
 10
96.64999999999999
 20
-9.5
 30
0.0
 40
2.5
 41
33.0
 46
0.0
 71
     5
 72
     5
  1
{\fSimSun|b1|i0|c134|p34;平面}
  7
表格
 73
     1
 44
1.0
  0
MTEXT
  5
97A
330
974
100
AcDbEntity
  8
2细线层
 62
     3
440
 16777216
100
AcDbMText
 10
21.325
 20
-15.83333333333333
 30
0.0
 40
2.5
 41
39.64999999999999
 46
0.0
 71
     5
 72
     5
  1
{\fSimSun|b1|i0|c134|p34;光洁度}
  7
表格
 73
     1
 44
1.0
  0
MTEXT
  5
97B
330
974
100
AcDbEntity
  8
2细线层
 62
     3
440
 16777216
100
AcDbMText
 10
60.64999999999999
 20
-15.83333333333333
 30
0.0
 40
2.5
 41
33.0
 46
0.0
 71
     5
 72
     5
  1
{\fSimSun|b1|i0|c134|p34;80-50}
  7
表格
 73
     1
 44
1.0
  0
MTEXT
  5
97C
330
974
100
AcDbEntity
  8
2细线层
 62
     3
440
 16777216
100
AcDbMText
 10
96.64999999999999
 20
-15.83333333333333
 30
0.0
 40
2.5
 41
33.0
 46
0.0
 71
     5
 72
     5
  1
{\fSimSun|b1|i0|c134|p34;80-50}
  7
表格
 73
     1
 44
1.0
  0
MTEXT
  5
97D
330
974
100
AcDbEntity
  8
2细线层
 62
     3
440
 16777216
100
AcDbMText
 10
21.325
 20
-22.16666666666666
 30
0.0
 40
2.5
 41
39.64999999999999
 46
0.0
 71
     5
 72
     5
  1
{\fSimSun|b1|i0|c134|p34;通光口径}
  7
表格
 73
     1
 44
1.0
  0
MTEXT
  5
97E
330
974
100
AcDbEntity
  8
2细线层
 62
     3
440
 16777216
100
AcDbMText
 10
60.64999999999999
 20
-22.16666666666666
 30
0.0
 40
2.5
 41
33.0
 46
0.0
 71
     5
 72
     5
  1
{\fSimSun|b1|i0|c134|p34;90%}
  7
表格
 73
     1
 44
1.0
  0
MTEXT
  5
97F
330
974
100
AcDbEntity
  8
2细线层
 62
     3
440
 16777216
100
AcDbMText
 10
96.64999999999999
 20
-22.16666666666666
 30
0.0
 40
2.5
 41
33.0
 46
0.0
 71
     5
 72
     5
  1
{\fSimSun|b1|i0|c134|p34;90%}
  7
表格
 73
     1
 44
1.0
  0
LINE
  5
980
330
974
100
AcDbEntity
  8
2细线层
  6
ByBlock
 62
     0
440
 16777216
370
    -2
100
AcDbLine
 10
0.0
 20
0.0
 30
0.0
 11
114.65
 21
0.0
 31
0.0
  0
LINE
  5
981
330
974
100
AcDbEntity
  8
2细线层
  6
ByBlock
 62
     0
440
 16777216
370
    -2
100
AcDbLine
 10
0.0
 20
-6.333333333333332
 30
0.0
 11
114.65
 21
-6.333333333333332
 31
0.0
  0
LINE
  5
982
330
974
100
AcDbEntity
  8
2细线层
  6
ByBlock
 62
     0
440
 16777216
370
    -2
100
AcDbLine
 10
0.0
 20
-12.66666666666666
 30
0.0
 11
114.65
 21
-12.66666666666666
 31
0.0
  0
LINE
  5
983
330
974
100
AcDbEntity
  8
2细线层
  6
ByBlock
 62
     0
440
 16777216
370
    -2
100
AcDbLine
 10
0.0
 20
-19.0
 30
0.0
 11
114.65
 21
-19.0
 31
0.0
  0
LINE
  5
984
330
974
100
AcDbEntity
  8
2细线层
  6
ByBlock
 62
     0
440
 16777216
370
    -2
100
AcDbLine
 10
0.0
 20
-25.33333333333333
 30
0.0
 11
114.65
 21
-25.33333333333333
 31
0.0
  0
LINE
  5
985
330
974
100
AcDbEntity
  8
2细线层
  6
ByBlock
 62
     0
440
 16777216
370
    -2
100
AcDbLine
 10
0.0
 20
0.0
 30
0.0
 11
0.0
 21
-25.33333333333333
 31
0.0
  0
LINE
  5
986
330
974
100
AcDbEntity
  8
2细线层
  6
ByBlock
 62
     0
440
 16777216
370
    -2
100
AcDbLine
 10
42.64999999999999
 20
0.0
 30
0.0
 11
42.64999999999999
 21
-25.33333333333333
 31
0.0
  0
LINE
  5
987
330
974
100
AcDbEntity
  8
2细线层
  6
ByBlock
 62
     0
440
 16777216
370
    -2
100
AcDbLine
 10
78.64999999999999
 20
0.0
 30
0.0
 11
78.64999999999999
 21
-25.33333333333333
 31
0.0
  0
LINE
  5
988
330
974
100
AcDbEntity
  8
2细线层
  6
ByBlock
 62
     0
440
 16777216
370
    -2
100
AcDbLine
 10
114.65
 20
0.0
 30
0.0
 11
114.65
 21
-25.33333333333333
 31
0.0
  0
LINE
  5
989
330
974
100
AcDbEntity
  8
Defpoints
 62
     8
440
 16777216
 60
     1
370
     0
100
AcDbLine
 10
0.0
 20
0.0
 30
0.0
 11
0.0
 21
0.0
 31
0.0
  0
ENDBLK
  5
98B
330
974
100
AcDbEntity
  8
0
100
AcDbBlockEnd
  0
BLOCK
  5
9ED
330
9EC
100
AcDbEntity
  8
0
100
AcDbBlockBegin
  2
*U31
 70
     1
 10
0.0
 20
0.0
 30
0.0
  3
*U31
  1

  0
LINE
  5
9EE
330
9EC
100
AcDbEntity
  8
3中心线层
  6
CENTER2
 62
     0
440
 16777216
100
AcDbLine
 10
5.0
 20
0.0
 30
0.0
 11
-5.0
 21
0.0
 31
0.0
  0
ENDBLK
  5
9EF
330
9EC
100
AcDbEntity
  8
0
100
AcDbBlockEnd
  0
BLOCK
  5
9F1
330
9F0
100
AcDbEntity
  8
0
100
AcDbBlockBegin
  2
*U32
 70
     1
 10
0.0
 20
0.0
 30
0.0
  3
*U32
  1

  0
LINE
  5
9F2
330
9F0
100
AcDbEntity
  8
3中心线层
  6
Continuous
 62
     0
440
 16777216
100
AcDbLine
 10
-2.499999999999999
 20
0.0
 30
0.0
 11
2.499999999999999
 21
0.0
 31
0.0
  0
LINE
  5
9F3
330
9F0
100
AcDbEntity
  8
3中心线层
  6
Continuous
 62
     0
440
 16777216
100
AcDbLine
 10
0.0
 20
-2.499999999999999
 30
0.0
 11
0.0
 21
2.499999999999999
 31
0.0
  0
LINE
  5
9F4
330
9F0
100
AcDbEntity
  8
3中心线层
  6
CENTER2
 62
     0
440
 16777216
100
AcDbLine
 10
-28.49999999999999
 20
0.0
 30
0.0
 11
-4.999999999999996
 21
0.0
 31
0.0
  0
LINE
  5
9F5
330
9F0
100
AcDbEntity
  8
3中心线层
  6
CENTER2
 62
     0
440
 16777216
100
AcDbLine
 10
4.999999999999998
 20
0.0
 30
0.0
 11
28.5
 21
0.0
 31
0.0
  0
LINE
  5
9F6
330
9F0
100
AcDbEntity
  8
3中心线层
  6
CENTER2
 62
     0
440
 16777216
100
AcDbLine
 10
0.0
 20
-28.49999999999999
 30
0.0
 11
0.0
 21
-4.999999999999996
 31
0.0
  0
LINE
  5
9F7
330
9F0
100
AcDbEntity
  8
3中心线层
  6
CENTER2
 62
     0
440
 16777216
100
AcDbLine
 10
0.0
 20
4.999999999999998
 30
0.0
 11
0.0
 21
28.5
 31
0.0
  0
ENDBLK
  5
9F8
330
9F0
100
AcDbEntity
  8
0
100
AcDbBlockEnd
  0
BLOCK
  5
A0F
330
9F9
100
AcDbEntity
  8
0
100
AcDbBlockBegin
  2
*T33
 70
     1
 10
0.0
 20
0.0
 30
0.0
  3
*T33
  1

  0
MTEXT
  5
9FA
330
9F9
100
AcDbEntity
  8
2细线层
 62
     3
440
 16777216
100
AcDbMText
 10
60.64999999999999
 20
-3.166666666666664
 30
0.0
 40
2.5
 41
33.0
 46
0.0
 71
     5
 72
     5
  1
{\fSimSun|b1|i0|c134|p34;S1}
  7
表格
 73
     1
 44
1.0
  0
MTEXT
  5
9FB
330
9F9
100
AcDbEntity
  8
2细线层
 62
     3
440
 16777216
100
AcDbMText
 10
96.64999999999999
 20
-3.166666666666664
 30
0.0
 40
2.5
 41
33.0
 46
0.0
 71
     5
 72
     5
  1
{\fSimSun|b1|i0|c134|p34;S2}
  7
表格
 73
     1
 44
1.0
  0
MTEXT
  5
9FC
330
9F9
100
AcDbEntity
  8
2细线层
 62
     3
440
 16777216
100
AcDbMText
 10
21.325
 20
-9.5
 30
0.0
 40
2.5
 41
39.64999999999999
 46
0.0
 71
     5
 72
     5
  1
{\fSimSun|b1|i0|c134|p34;形状}
  7
表格
 73
     1
 44
1.0
  0
MTEXT
  5
9FD
330
9F9
100
AcDbEntity
  8
2细线层
 62
     3
440
 16777216
100
AcDbMText
 10
60.64999999999999
 20
-9.5
 30
0.0
 40
2.5
 41
33.0
 46
0.0
 71
     5
 72
     5
  1
{\fSimSun|b1|i0|c134|p34;平面}
  7
表格
 73
     1
 44
1.0
  0
MTEXT
  5
9FE
330
9F9
100
AcDbEntity
  8
2细线层
 62
     3
440
 16777216
100
AcDbMText
 10
96.64999999999999
 20
-9.5
 30
0.0
 40
2.5
 41
33.0
 46
0.0
 71
     5
 72
     5
  1
{\fSimSun|b1|i0|c134|p34;平面}
  7
表格
 73
     1
 44
1.0
  0
MTEXT
  5
9FF
330
9F9
100
AcDbEntity
  8
2细线层
 62
     3
440
 16777216
100
AcDbMText
 10
21.325
 20
-15.83333333333333
 30
0.0
 40
2.5
 41
39.64999999999999
 46
0.0
 71
     5
 72
     5
  1
{\fSimSun|b1|i0|c134|p34;光洁度}
  7
表格
 73
     1
 44
1.0
  0
MTEXT
  5
A00
330
9F9
100
AcDbEntity
  8
2细线层
 62
     3
440
 16777216
100
AcDbMText
 10
60.64999999999999
 20
-15.83333333333333
 30
0.0
 40
2.5
 41
33.0
 46
0.0
 71
     5
 72
     5
  1
{\fSimSun|b1|i0|c134|p34;80-50}
  7
表格
 73
     1
 44
1.0
  0
MTEXT
  5
A01
330
9F9
100
AcDbEntity
  8
2细线层
 62
     3
440
 16777216
100
AcDbMText
 10
96.64999999999999
 20
-15.83333333333333
 30
0.0
 40
2.5
 41
33.0
 46
0.0
 71
     5
 72
     5
  1
{\fSimSun|b1|i0|c134|p34;80-50}
  7
表格
 73
     1
 44
1.0
  0
MTEXT
  5
A02
330
9F9
100
AcDbEntity
  8
2细线层
 62
     3
440
 16777216
100
AcDbMText
 10
21.325
 20
-22.16666666666666
 30
0.0
 40
2.5
 41
39.64999999999999
 46
0.0
 71
     5
 72
     5
  1
{\fSimSun|b1|i0|c134|p34;通光口径}
  7
表格
 73
     1
 44
1.0
  0
MTEXT
  5
A03
330
9F9
100
AcDbEntity
  8
2细线层
 62
     3
440
 16777216
100
AcDbMText
 10
60.64999999999999
 20
-22.16666666666666
 30
0.0
 40
2.5
 41
33.0
 46
0.0
 71
     5
 72
     5
  1
{\fSimSun|b1|i0|c134|p34;90%}
  7
表格
 73
     1
 44
1.0
  0
MTEXT
  5
A04
330
9F9
100
AcDbEntity
  8
2细线层
 62
     3
440
 16777216
100
AcDbMText
 10
96.64999999999999
 20
-22.16666666666666
 30
0.0
 40
2.5
 41
33.0
 46
0.0
 71
     5
 72
     5
  1
{\fSimSun|b1|i0|c134|p34;90%}
  7
表格
 73
     1
 44
1.0
  0
LINE
  5
A05
330
9F9
100
AcDbEntity
  8
2细线层
  6
ByBlock
 62
     0
440
 16777216
370
    -2
100
AcDbLine
 10
0.0
 20
0.0
 30
0.0
 11
114.65
 21
0.0
 31
0.0
  0
LINE
  5
A06
330
9F9
100
AcDbEntity
  8
2细线层
  6
ByBlock
 62
     0
440
 16777216
370
    -2
100
AcDbLine
 10
0.0
 20
-6.333333333333332
 30
0.0
 11
114.65
 21
-6.333333333333332
 31
0.0
  0
LINE
  5
A07
330
9F9
100
AcDbEntity
  8
2细线层
  6
ByBlock
 62
     0
440
 16777216
370
    -2
100
AcDbLine
 10
0.0
 20
-12.66666666666666
 30
0.0
 11
114.65
 21
-12.66666666666666
 31
0.0
  0
LINE
  5
A08
330
9F9
100
AcDbEntity
  8
2细线层
  6
ByBlock
 62
     0
440
 16777216
370
    -2
100
AcDbLine
 10
0.0
 20
-19.0
 30
0.0
 11
114.65
 21
-19.0
 31
0.0
  0
LINE
  5
A09
330
9F9
100
AcDbEntity
  8
2细线层
  6
ByBlock
 62
     0
440
 16777216
370
    -2
100
AcDbLine
 10
0.0
 20
-25.33333333333333
 30
0.0
 11
114.65
 21
-25.33333333333333
 31
0.0
  0
LINE
  5
A0A
330
9F9
100
AcDbEntity
  8
2细线层
  6
ByBlock
 62
     0
440
 16777216
370
    -2
100
AcDbLine
 10
0.0
 20
0.0
 30
0.0
 11
0.0
 21
-25.33333333333333
 31
0.0
  0
LINE
  5
A0B
330
9F9
100
AcDbEntity
  8
2细线层
  6
ByBlock
 62
     0
440
 16777216
370
    -2
100
AcDbLine
 10
42.64999999999999
 20
0.0
 30
0.0
 11
42.64999999999999
 21
-25.33333333333333
 31
0.0
  0
LINE
  5
A0C
330
9F9
100
AcDbEntity
  8
2细线层
  6
ByBlock
 62
     0
440
 16777216
370
    -2
100
AcDbLine
 10
78.64999999999999
 20
0.0
 30
0.0
 11
78.64999999999999
 21
-25.33333333333333
 31
0.0
  0
LINE
  5
A0D
330
9F9
100
AcDbEntity
  8
2细线层
  6
ByBlock
 62
     0
440
 16777216
370
    -2
100
AcDbLine
 10
114.65
 20
0.0
 30
0.0
 11
114.65
 21
-25.33333333333333
 31
0.0
  0
LINE
  5
A0E
330
9F9
100
AcDbEntity
  8
Defpoints
 62
     8
440
 16777216
 60
     1
370
     0
100
AcDbLine
 10
0.0
 20
0.0
 30
0.0
 11
0.0
 21
0.0
 31
0.0
  0
ENDBLK
  5
A10
330
9F9
100
AcDbEntity
  8
0
100
AcDbBlockEnd
  0
BLOCK
  5
A14
330
A13
100
AcDbEntity
  8
0
100
AcDbBlockBegin
  2
*D34
 70
     1
 10
0.0
 20
0.0
 30
0.0
  3
*D34
  1

  0
LINE
  5
A86
330
A13
100
AcDbEntity
  8
7标注层
440
 16777216
370
    -2
100
AcDbLine
 10
193.4386750319006
 20
142.3744365973755
 30
0.0
 11
180.5396750319007
 21
142.3744365973755
 31
0.0
  0
LINE
  5
A87
330
A13
100
AcDbEntity
  8
7标注层
440
 16777216
370
    -2
100
AcDbLine
 10
180.5396750319007
 20
142.3744365973755
 30
0.0
 11
171.0908082462661
 21
133.5237465789943
 31
0.0
  0
LINE
  5
A88
330
A13
100
AcDbEntity
  8
7标注层
440
 16777216
370
    -2
100
AcDbLine
 10
128.7606154929405
 20
93.87333950080298
 30
0.0
 11
125.8412918547801
 21
91.13882866782427
 31
0.0
  0
MTEXT
  5
A89
330
A13
100
AcDbEntity
  8
7标注层
 62
     3
440
 16777216
100
AcDbMText
 10
188.2989827242083
 20
145.3053340332729
 30
0.0
 40
2.5
 41
0.0
 46
0.0
 71
     5
 72
     1
  1
∅10 {\H0.7x;\S 0.00^ -0.20;}
  7
TH-GBD2M
 73
     1
 44
1.0
  0
LINE
  5
A8A
330
A13
100
AcDbEntity
  8
7标注层
440
 16777216
370
    -2
100
AcDbLine
 10
131.6799391311009
 20
96.60785033378171
 30
0.0
 11
168.1714846081057
 21
130.7892357460155
 31
0.0
  0
SOLID
  5
A8B
330
A13
100
AcDbEntity
  8
7标注层
440
 16777216
100
AcDbTrace
 10
128.304863687444
 20
94.35989344049637
 30
0.0
 11
129.2163672984369
 21
93.38678556110957
 31
0.0
 12
131.6799391311009
 22
96.60785033378171
 32
0.0
 13
131.6799391311009
 23
96.60785033378171
 33
0.0
  0
SOLID
  5
A8C
330
A13
100
AcDbEntity
  8
7标注层
440
 16777216
100
AcDbTrace
 10
170.6350564407696
 20
134.0103005186876
 30
0.0
 11
171.5465600517625
 21
133.0371926393009
 31
0.0
 12
168.1714846081057
 22
130.7892357460155
 32
0.0
 13
168.1714846081057
 23
130.7892357460155
 33
0.0
  0
POINT
  5
A8D
330
A13
100
AcDbEntity
  8
Defpoints
 62
     0
440
 16777216
100
AcDbPoint
 10
168.1714846081057
 20
130.7892357460155
 30
0.0
  0
POINT
  5
A8E
330
A13
100
AcDbEntity
  8
Defpoints
 62
     0
440
 16777216
100
AcDbPoint
 10
131.6799391311009
 20
96.60785033378171
 30
0.0
  0
ENDBLK
  5
A15
330
A13
100
AcDbEntity
  8
0
100
AcDbBlockEnd
  0
BLOCK
  5
A20
330
A1F
100
AcDbEntity
  8
0
100
AcDbBlockBegin
  2
*D35
 70
     1
 10
0.0
 20
0.0
 30
0.0
  3
*D35
  1

  0
LINE
  5
A7B
330
A1F
100
AcDbEntity
  8
7标注层
 62
     0
440
 16777216
370
    -2
100
AcDbLine
 10
226.6815930577032
 20
138.3235430398985
 30
0.0
 11
226.6815930577032
 21
143.5135331342325
 31
0.0
  0
LINE
  5
A7C
330
A1F
100
AcDbEntity
  8
7标注层
 62
     0
440
 16777216
370
    -2
100
AcDbLine
 10
221.6815930577031
 20
138.3235430398985
 30
0.0
 11
221.6815930577031
 21
143.5135331342325
 31
0.0
  0
LINE
  5
A7D
330
A1F
100
AcDbEntity
  8
7标注层
440
 16777216
370
    -2
100
AcDbLine
 10
230.6815930577032
 20
142.2635331342325
 30
0.0
 11
234.6815930577032
 21
142.2635331342325
 31
0.0
  0
LINE
  5
A7E
330
A1F
100
AcDbEntity
  8
7标注层
440
 16777216
370
    -2
100
AcDbLine
 10
217.6815930577031
 20
142.2635331342325
 30
0.0
 11
204.0562084423185
 21
142.2635331342325
 31
0.0
  0
LINE
  5
A7F
330
A1F
100
AcDbEntity
  8
7标注层
440
 16777216
370
    -2
100
AcDbLine
 10
226.6815930577032
 20
142.2635331342325
 30
0.0
 11
221.6815930577031
 21
142.2635331342325
 31
0.0
  0
SOLID
  5
A80
330
A1F
100
AcDbEntity
  8
7标注层
440
 16777216
100
AcDbTrace
 10
230.6815930577032
 20
142.9301998008991
 30
0.0
 11
230.6815930577032
 21
141.5968664675658
 31
0.0
 12
226.6815930577032
 22
142.2635331342325
 32
0.0
 13
226.6815930577032
 23
142.2635331342325
 33
0.0
  0
SOLID
  5
A81
330
A1F
100
AcDbEntity
  8
7标注层
440
 16777216
100
AcDbTrace
 10
217.6815930577031
 20
142.9301998008991
 30
0.0
 11
217.6815930577031
 21
141.5968664675658
 31
0.0
 12
221.6815930577031
 22
142.2635331342325
 32
0.0
 13
221.6815930577031
 23
142.2635331342325
 33
0.0
  0
MTEXT
  5
A82
330
A1F
100
AcDbEntity
  8
7标注层
 62
     3
440
 16777216
100
AcDbMText
 10
208.8689007500108
 20
144.1693023650017
 30
0.0
 40
2.5
 41
0.0
 46
0.0
 71
     5
 72
     1
  1
1%%p0.20
  7
TH-GBD2M
 73
     1
 44
1.0
  0
POINT
  5
A83
330
A1F
100
AcDbEntity
  8
Defpoints
 62
     0
440
 16777216
100
AcDbPoint
 10
226.6815930577032
 20
137.6985430398985
 30
0.0
  0
POINT
  5
A84
330
A1F
100
AcDbEntity
  8
Defpoints
 62
     0
440
 16777216
100
AcDbPoint
 10
221.6815930577031
 20
137.6985430398985
 30
0.0
  0
POINT
  5
A85
330
A1F
100
AcDbEntity
  8
Defpoints
 62
     0
440
 16777216
100
AcDbPoint
 10
221.6815930577031
 20
142.2635331342325
 30
0.0
  0
ENDBLK
  5
A21
330
A1F
100
AcDbEntity
  8
0
100
AcDbBlockEnd
  0
ENDSEC
  0
SECTION
  2
ENTITIES
  0
LINE
  5
994
330
1F
100
AcDbEntity
  8
6文字层
 62
     0
100
AcDbLine
 10
130.4812144330353
 20
0.7672031874735695
 30
0.0
 11
10.48121443298441
 21
0.7672031874735695
 31
0.0
  0
INSERT
  5
995
330
1F
100
AcDbEntity
  8
6文字层
100
AcDbBlockReference
  2
*X21
 10
131.9812144330353
 20
95.76720318747538
 30
0.0
1001
CAXA_DRAFT_PAPERFRAME
1071
        2
1041
138.5
1041
-95.0
1041
0.0
1000
A4A-D-Sighted(CHS)
1070
     1
1001
CAXA_DRAFT_BLKHIDE
1070
     0
  0
LINE
  5
996
330
1F
100
AcDbEntity
  8
1轮廓实线层
100
AcDbLine
 10
130.4812144330353
 20
0.7672031874735695
 30
0.0
 11
270.4812144330353
 21
0.7672031874735695
 31
0.0
  0
LINE
  5
997
330
1F
100
AcDbEntity
  8
粗实线层
100
AcDbLine
 10
165.4815614044346
 20
6.60821082122402
 30
0.0
 11
270.4812144330353
 21
6.608210821230386
 31
0.0
  0
LINE
  5
998
330
1F
100
AcDbEntity
  8
细实线层
100
AcDbLine
 10
260.2373597870428
 20
6.608210821230386
 30
0.0
 11
260.2373597870428
 21
0.7672031874735695
 31
0.0
  0
LINE
  5
999
330
1F
100
AcDbEntity
  8
细实线层
100
AcDbLine
 10
257.3498597870439
 20
3.687707004351977
 30
0.0
 11
263.9123597870439
 21
3.687707004351977
 31
0.0
  0
CIRCLE
  5
99A
330
1F
100
AcDbEntity
  8
细实线层
100
AcDbCircle
 10
260.2373597870428
 20
3.687707004351977
 30
0.0
 40
2.187499999999943
  0
CIRCLE
  5
99B
330
1F
100
AcDbEntity
  8
细实线层
100
AcDbCircle
 10
260.2373597870428
 20
3.687707004351977
 30
0.0
 40
0.656249999999983
  0
LINE
  5
99C
330
1F
100
AcDbEntity
  8
3中心线层
 62
     7
 48
0.1
100
AcDbLine
 10
248.6257785756643
 20
3.687707004351977
 30
0.0
 11
257.3498597870439
 21
3.687707004351977
 31
0.0
  0
LINE
  5
99D
330
1F
100
AcDbEntity
  8
3中心线层
 62
     7
100
AcDbLine
 10
249.7763104250534
 20
3.359582004351977
 30
0.0
 11
249.7763104250534
 21
4.015832004349249
 31
0.0
  0
LINE
  5
99E
330
1F
100
AcDbEntity
  8
3中心线层
 62
     7
100
AcDbLine
 10
255.9013104250535
 20
1.500207004351977
 30
0.0
 11
255.9013104250535
 21
5.875207004350158
 31
0.0
  0
LINE
  5
99F
330
1F
100
AcDbEntity
  8
细实线层
100
AcDbLine
 10
249.7763104250534
 20
4.015832004349249
 30
0.0
 11
255.9013104250535
 21
5.875207004350158
 31
0.0
  0
LINE
  5
9A0
330
1F
100
AcDbEntity
  8
细实线层
100
AcDbLine
 10
249.7763104250534
 20
3.359582004351977
 30
0.0
 11
255.9013104250535
 21
1.500207004351977
 31
0.0
  0
LINE
  5
9A1
330
1F
100
AcDbEntity
  8
粗实线层
100
AcDbLine
 10
165.4815614044346
 20
17.10053652080478
 30
0.0
 11
270.4812144330353
 21
17.10053652080842
 31
0.0
  0
LINE
  5
9A2
330
1F
100
AcDbEntity
  8
粗实线层
100
AcDbLine
 10
165.4815614044346
 20
30.76720318747448
 30
0.0
 11
270.4812144330353
 21
30.76720318747539
 31
0.0
  0
MTEXT
  5
9A3
330
1F
100
AcDbEntity
  8
6文字层
100
AcDbMText
 10
177.6606498118926
 20
11.90264048653171
 30
0.0
 40
2.5
 41
17.84855769230755
 46
4.283653846153733
 71
     5
 72
     5
  1
{\fSimHei|b1|i0|c134|p49;名称 }
 73
     1
 44
1.0
1001
AcDbBlockRepETag
1000

1001
ACAD
1000
ACAD_MTEXT_DEFINED_HEIGHT_BEGIN
1070
    46
1040
4.283653846153733
1000
ACAD_MTEXT_DEFINED_HEIGHT_END
  0
MTEXT
  5
9A4
330
1F
100
AcDbEntity
  8
6文字层
100
AcDbMText
 10
241.9059890351637
 20
24.10603713503679
 30
0.0
 40
3.0
 41
63.12269194006067
 46
3.808394365490181
 71
     5
 72
     5
  1
{\fSimHei|b1|i0|c134|p49;联合光科技（北京）有限公司}
 73
     1
 44
1.0
1001
AcDbBlockRepETag
1000

1001
ACAD
1000
ACAD_MTEXT_DEFINED_HEIGHT_BEGIN
1070
    46
1040
3.808394365490181
1000
ACAD_MTEXT_DEFINED_HEIGHT_END
  0
MTEXT
  5
9A5
330
1F
100
AcDbEntity
  8
6文字层
100
AcDbMText
 10
177.854496035914
 20
3.756543900079122
 30
0.0
 40
2.5
 41
17.84855769230755
 46
4.283653846153733
 71
     5
 72
     5
  1
{\fSimHei|b1|i0|c134|p49;产品编号} 
 73
     1
 44
1.0
1001
AcDbBlockRepETag
1000

1001
ACAD
1000
ACAD_MTEXT_DEFINED_HEIGHT_BEGIN
1070
    46
1040
4.283653846153733
1000
ACAD_MTEXT_DEFINED_HEIGHT_END
  0
MTEXT
  5
9A6
330
1F
100
AcDbEntity
  8
6文字层
100
AcDbMText
 10
236.9128519025144
 20
3.910637193137517
 30
0.0
 40
2.5
 41
17.84855769230755
 46
4.283653846153733
 71
     5
 72
     5
  1
{\fSimHei|b1|i0|c134|p49;mm }
 73
     1
 44
1.0
1001
AcDbBlockRepETag
1000

1001
ACAD
1000
ACAD_MTEXT_DEFINED_HEIGHT_BEGIN
1070
    46
1040
4.283653846153733
1000
ACAD_MTEXT_DEFINED_HEIGHT_END
  0
LINE
  5
9A7
330
1F
100
AcDbEntity
  8
粗实线层
100
AcDbLine
 10
165.4815614044346
 20
0.7082999307431237
 30
0.0
 11
165.4815614044346
 21
30.70829993073221
 31
0.0
  0
LINE
  5
9A8
330
1F
100
AcDbEntity
  8
粗实线层
100
AcDbLine
 10
190.2415472975644
 20
0.7672031874735695
 30
0.0
 11
190.2415472975644
 21
17.10053652079932
 31
0.0
  0
LINE
  5
9A9
330
1F
100
AcDbEntity
  8
粗实线层
100
AcDbLine
 10
213.1171102017852
 20
17.19572553454691
 30
0.0
 11
213.1171102017852
 21
30.76720318747539
 31
0.0
  0
LINE
  5
9AA
330
1F
100
AcDbEntity
  8
粗实线层
100
AcDbLine
 10
213.1171102017852
 20
0.767203187467203
 30
0.0
 11
213.1171102017743
 21
6.608210821220382
 31
0.0
  0
MTEXT
  5
9AB
330
1F
100
AcDbEntity
  8
6文字层
100
AcDbMText
 10
221.6784737725757
 20
3.596060993516402
 30
0.0
 40
2.5
 41
17.84855769230755
 46
3.291666666666666
 71
     5
 72
     5
  1
{\fSimHei|b1|i0|c134|p49;单位}
 73
     1
 44
1.0
  0
LINE
  5
9AC
330
1F
100
AcDbEntity
  8
粗实线层
100
AcDbLine
 10
230.2213676079737
 20
0.7672031874735695
 30
0.0
 11
230.2213676079737
 21
6.608210821227658
 31
0.0
  0
LINE
  5
9AD
330
1F
100
AcDbEntity
  8
粗实线层
100
AcDbLine
 10
242.7863803285836
 20
0.7672031874735695
 30
0.0
 11
242.7863803285836
 21
6.608210821227658
 31
0.0
  0
LINE
  5
9AE
330
1F
100
AcDbEntity
  8
0
100
AcDbLine
 10
270.4812144330353
 20
0.7672031874735695
 30
0.0
 11
170.4812144330353
 21
0.7672031874735695
 31
0.0
  0
HATCH
  5
9AF
330
1F
100
AcDbEntity
  8
3中心线层
 62
     0
100
AcDbHatch
 10
0.0
 20
0.0
 30
0.0
210
0.0
220
0.0
230
1.0
  2
SOLID
 70
     1
 71
     0
 91
       14
 92
        5
 93
        5
 72
     4
 94
        3
 73
     0
 74
     0
 95
        8
 96
        4
 40
7.0
 40
7.0
 40
7.0
 40
7.0
 40
8.0
 40
8.0
 40
8.0
 40
8.0
 10
176.1430732305252
 20
27.01790516652363
 10
176.1430732305252
 20
27.83177668995632
 10
175.4832994609842
 20
28.49155400441032
 10
174.669424392634
 20
28.49155400441032
 97
        0
 72
     4
 94
        3
 73
     0
 74
     0
 95
        8
 96
        4
 40
0.0
 40
0.0
 40
0.0
 40
0.0
 40
1.0
 40
1.0
 40
1.0
 40
1.0
 10
174.669424392634
 20
28.49155400441032
 10
174.669424392634
 20
28.49155400441032
 10
169.0204389531736
 20
28.49155400441032
 10
169.0204389531736
 20
28.49155400441032
 97
        0
 72
     4
 94
        3
 73
     0
 74
     0
 95
       11
 96
        7
 40
1.0
 40
1.0
 40
1.0
 40
1.0
 40
2.0
 40
2.0
 40
2.0
 40
3.0
 40
3.0
 40
3.0
 40
3.0
 10
169.0204389531736
 20
28.49155400441032
 10
168.2065674297337
 20
28.49155400441032
 10
167.5467936601926
 20
27.83177668995632
 10
167.5467936601926
 20
27.01790516652363
 10
167.5467936601926
 20
27.01790516652363
 10
167.5467936601926
 20
21.36891972706871
 10
167.5467936601926
 20
21.36891972706871
 97
        0
 72
     4
 94
        3
 73
     0
 74
     0
 95
       11
 96
        7
 40
3.0
 40
3.0
 40
3.0
 40
3.0
 40
4.0
 40
4.0
 40
4.0
 40
5.0
 40
5.0
 40
5.0
 40
5.0
 10
167.5467936601926
 20
21.36891972706871
 10
167.5467936601926
 20
20.55504465870854
 10
168.2065674297337
 20
19.89527088917839
 10
169.0204389531736
 20
19.89527088917839
 10
169.0204389531736
 20
19.89527088917839
 10
174.669424392634
 20
19.89527088917839
 10
174.669424392634
 20
19.89527088917839
 97
        0
 72
     4
 94
        3
 73
     0
 74
     0
 95
       11
 96
        7
 40
5.0
 40
5.0
 40
5.0
 40
5.0
 40
6.0
 40
6.0
 40
6.0
 40
7.0
 40
7.0
 40
7.0
 40
7.0
 10
174.669424392634
 20
19.89527088917839
 10
175.4832994609842
 20
19.89527088917839
 10
176.1430732305252
 20
20.55504465870854
 10
176.1430732305252
 20
21.36891972706871
 10
176.1430732305252
 20
21.36891972706871
 10
176.1430732305252
 20
27.01790516652363
 10
176.1430732305252
 20
27.01790516652363
 97
        0
 97
        0
 92
       20
 93
       12
 72
     4
 94
        3
 73
     0
 74
     0
 95
        8
 96
        4
 40
10.0
 40
10.0
 40
10.0
 40
10.0
 40
11.0
 40
11.0
 40
11.0
 40
11.0
 10
168.4064194902839
 20
24.19341067433379
 10
168.4064194902839
 20
26.09244659230081
 10
169.9459187969241
 20
27.63192462941061
 10
171.8449511699764
 20
27.63192462941061
 97
        0
 72
     4
 94
        3
 73
     0
 74
     0
 95
        8
 96
        4
 40
11.0
 40
11.0
 40
11.0
 40
11.0
 40
12.0
 40
12.0
 40
12.0
 40
12.0
 10
171.8449511699764
 20
27.63192462941061
 10
173.743979998093
 20
27.63192462941061
 10
175.2834438555255
 20
26.09244659230081
 10
175.2834438555255
 20
24.19341067433379
 97
        0
 72
     4
 94
        3
 73
     0
 74
     0
 95
        8
 96
        4
 40
12.0
 40
12.0
 40
12.0
 40
12.0
 40
13.0
 40
13.0
 40
13.0
 40
13.0
 10
175.2834438555255
 20
24.19341067433379
 10
175.2834438555255
 20
22.29437121144565
 10
173.743979998093
 20
20.75489671925152
 10
171.8449511699764
 20
20.75489671925152
 97
        0
 72
     4
 94
        3
 73
     0
 74
     0
 95
        8
 96
        4
 40
0.0
 40
0.0
 40
0.0
 40
0.0
 40
1.0
 40
1.0
 40
1.0
 40
1.0
 10
171.8449511699764
 20
20.75489671925152
 10
171.5758596953637
 20
20.75489671925152
 10
171.3144429766034
 20
20.7869321782382
 10
171.0632462676349
 20
20.845628994648
 97
        0
 72
     4
 94
        3
 73
     0
 74
     0
 95
        8
 96
        4
 40
1.0
 40
1.0
 40
1.0
 40
1.0
 40
2.0
 40
2.0
 40
2.0
 40
2.0
 10
171.0632462676349
 20
20.845628994648
 10
171.3868515508347
 20
21.06677894582026
 10
171.5993235332553
 20
21.43859516652264
 10
171.5993235332553
 20
21.86013600636306
 97
        0
 72
     4
 94
        3
 73
     0
 74
     0
 95
        8
 96
        4
 40
2.0
 40
2.0
 40
2.0
 40
2.0
 40
3.0
 40
3.0
 40
3.0
 40
3.0
 10
171.5993235332553
 20
21.86013600636306
 10
171.5993235332553
 20
21.95089664113039
 10
171.589185056695
 20
22.0392467290194
 10
171.570503318404
 20
22.12439929738139
 97
        0
 72
     4
 94
        3
 73
     0
 74
     0
 95
        8
 96
        4
 40
3.0
 40
3.0
 40
3.0
 40
3.0
 40
4.0
 40
4.0
 40
4.0
 40
4.0
 10
171.570503318404
 20
22.12439929738139
 10
171.6603564531742
 20
22.11249544972543
 10
171.7518367070843
 20
22.10574237355195
 10
171.8449440801341
 20
22.10574237355195
 97
        0
 72
     4
 94
        3
 73
     0
 74
     0
 95
        8
 96
        4
 40
4.0
 40
4.0
 40
4.0
 40
4.0
 40
5.0
 40
5.0
 40
5.0
 40
5.0
 10
171.8449440801341
 20
22.10574237355195
 10
172.9979263750447
 20
22.10574237355195
 10
173.9326017461426
 20
23.04042128956553
 10
173.9326017461426
 20
24.19341067433379
 97
        0
 72
     4
 94
        3
 73
     0
 74
     0
 95
       11
 96
        7
 40
5.0
 40
5.0
 40
5.0
 40
5.0
 40
6.0
 40
6.0
 40
6.0
 40
7.0
 40
7.0
 40
7.0
 40
7.0
 10
173.9326017461426
 20
24.19341067433379
 10
173.9326017461426
 20
25.34639651417638
 10
172.9979263750447
 20
26.28107897511199
 10
171.8449440801341
 20
26.28107897511199
 10
170.6919617852054
 20
26.28107897511199
 10
169.7572651445753
 20
25.34639651417638
 10
169.7572651445753
 20
24.19341067433379
 97
        0
 72
     4
 94
        3
 73
     0
 74
     0
 95
        8
 96
        4
 40
7.0
 40
7.0
 40
7.0
 40
7.0
 40
8.0
 40
8.0
 40
8.0
 40
8.0
 10
169.7572651445753
 20
24.19341067433379
 10
169.7572651445753
 20
23.77393297902199
 10
169.8813303203642
 20
23.38359454152215
 10
170.0942808672334
 20
23.05641597706562
 97
        0
 72
     4
 94
        3
 73
     0
 74
     0
 95
        8
 96
        4
 40
8.0
 40
8.0
 40
8.0
 40
8.0
 40
9.0
 40
9.0
 40
9.0
 40
9.0
 10
170.0942808672334
 20
23.05641597706562
 10
169.6097751250436
 20
22.94464813527429
 10
169.2348287383356
 20
22.54654986378682
 10
169.1578436699638
 20
22.04966525441069
 97
        0
 72
     4
 94
        3
 73
     0
 74
     0
 95
        8
 96
        4
 40
9.0
 40
9.0
 40
9.0
 40
9.0
 40
10.0
 40
10.0
 40
10.0
 40
10.0
 10
169.1578436699638
 20
22.04966525441069
 10
168.6880564434141
 20
22.63756927785198
 10
168.4064194902839
 20
23.3823396391781
 10
168.4064194902839
 20
24.19341067433379
 97
        0
 97
        0
 92
       20
 93
        1
 72
     4
 94
        3
 73
     0
 74
     0
 95
       17
 96
       13
 40
0.0
 40
0.0
 40
0.0
 40
0.0
 40
1.0
 40
1.0
 40
1.0
 40
2.0
 40
2.0
 40
2.0
 40
3.0
 40
3.0
 40
3.0
 40
4.0
 40
4.0
 40
4.0
 40
4.0
 10
170.2484814238742
 20
24.19341067433379
 10
170.2484814238742
 20
25.07510718800677
 10
170.9632475664621
 20
25.78986624074059
 10
171.844940535213
 20
25.78986624074059
 10
172.7266335039549
 20
25.78986624074059
 10
173.4413854668437
 20
25.07510718800677
 10
173.4413854668437
 20
24.19341067433379
 10
173.4413854668437
 20
23.31171416066081
 10
172.7266335039549
 20
22.59695865285175
 10
171.844940535213
 20
22.59695865285175
 10
170.9632475664621
 20
22.59695865285175
 10
170.2484814238742
 20
23.31171416066081
 10
170.2484814238742
 20
24.19341067433379
 97
        0
 97
        0
 92
       20
 93
        3
 72
     4
 94
        3
 73
     0
 74
     0
 95
       11
 96
        7
 40
1.0
 40
1.0
 40
1.0
 40
1.0
 40
2.0
 40
2.0
 40
2.0
 40
3.0
 40
3.0
 40
3.0
 40
3.0
 10
169.5116552324762
 20
21.86013600636306
 10
169.5116552324762
 20
22.33489321339675
 10
169.8965309453633
 20
22.71976183644619
 10
170.3712881523934
 20
22.71976183644619
 10
170.8460453594343
 20
22.71976183644619
 10
171.2309104375435
 20
22.33489321339675
 10
171.2309104375435
 20
21.86013600636306
 97
        0
 72
     4
 94
        3
 73
     0
 74
     0
 95
        8
 96
        4
 40
3.0
 40
3.0
 40
3.0
 40
3.0
 40
4.0
 40
4.0
 40
4.0
 40
4.0
 10
171.2309104375435
 20
21.86013600636306
 10
171.2309104375435
 20
21.3853752544137
 10
170.8460453594343
 20
21.00050663136699
 10
170.3712881523934
 20
21.00050663136699
 97
        0
 72
     4
 94
        3
 73
     0
 74
     0
 95
        8
 96
        4
 40
0.0
 40
0.0
 40
0.0
 40
0.0
 40
1.0
 40
1.0
 40
1.0
 40
1.0
 10
170.3712881523934
 20
21.00050663136699
 10
169.8965309453633
 20
21.00050663136699
 10
169.5116552324762
 20
21.3853752544137
 10
169.5116552324762
 20
21.86013600636306
 97
        0
 97
        0
 92
        5
 93
       33
 72
     4
 94
        3
 73
     0
 74
     0
 95
       11
 96
        7
 40
5.0
 40
5.0
 40
5.0
 40
5.0
 40
6.0
 40
6.0
 40
6.0
 40
7.0
 40
7.0
 40
7.0
 40
7.0
 10
180.9139651092246
 20
25.09223011755694
 10
180.9139651092246
 20
25.09223011755694
 10
181.7373588693626
 20
25.09223011755694
 10
181.7373588693626
 20
25.09223011755694
 10
181.6091080193746
 20
26.20238600724042
 10
180.7249594763252
 20
26.77470384995559
 10
179.6721123784737
 20
26.77470384995559
 97
        0
 72
     4
 94
        3
 73
     0
 74
     0
 95
        8
 96
        4
 40
4.0
 40
4.0
 40
4.0
 40
4.0
 40
5.0
 40
5.0
 40
5.0
 40
5.0
 10
179.6721123784737
 20
26.77470384995559
 10
178.2278130593913
 20
26.77470384995559
 10
177.3639299816041
 20
25.60247582489774
 10
177.3639299816041
 20
24.1958192008924
 97
        0
 72
     4
 94
        3
 73
     0
 74
     0
 95
        8
 96
        4
 40
3.0
 40
3.0
 40
3.0
 40
3.0
 40
4.0
 40
4.0
 40
4.0
 40
4.0
 10
177.3639299816041
 20
24.1958192008924
 10
177.3639299816041
 20
22.78914131929923
 10
178.2278130593913
 20
21.61693455182285
 10
179.6721123784737
 20
21.61693455182285
 97
        0
 72
     4
 94
        3
 73
     0
 74
     0
 95
        8
 96
        4
 40
2.0
 40
2.0
 40
2.0
 40
2.0
 40
3.0
 40
3.0
 40
3.0
 40
3.0
 10
179.6721123784737
 20
21.61693455182285
 10
180.259269903885
 20
21.61693455182285
 10
180.6709875903925
 20
21.7893122729738
 10
181.123152981685
 20
22.31337540771074
 97
        0
 72
     4
 94
        3
 73
     0
 74
     0
 95
       11
 96
        7
 40
0.5
 40
0.5
 40
0.5
 40
0.5
 40
1.5
 40
1.5
 40
1.5
 40
2.0
 40
2.0
 40
2.0
 40
2.0
 10
181.123152981685
 20
22.31337540771074
 10
181.123152981685
 20
22.31337540771074
 10
181.2514038316749
 20
21.73414885129842
 10
181.2514038316749
 20
21.73414885129842
 10
181.2514038316749
 20
21.73414885129842
 10
181.3863855625823
 20
21.73414885129842
 10
181.5213672934933
 20
21.73414885129842
 97
        0
 72
     4
 94
        3
 73
     0
 74
     0
 95
       11
 96
        7
 40
14.749965
 40
14.749965
 40
14.749965
 40
14.749965
 40
15.249965
 40
15.249965
 40
15.249965
 40
15.5
 40
15.5
 40
15.5
 40
15.5
 10
181.5213672934933
 20
21.73414885129842
 10
181.6563490243843
 20
21.73414885129842
 10
181.7913307552826
 20
21.73414885129842
 10
181.7913307552826
 20
21.73414885129842
 10
181.7913307552826
 20
21.73414885129842
 10
181.7913307552826
 20
21.89623677756936
 10
181.7913307552826
 20
22.13935732081518
 97
        0
 72
     4
 94
        3
 73
     0
 74
     0
 95
        8
 96
        4
 40
14.49997
 40
14.49997
 40
14.49997
 40
14.49997
 40
14.749965
 40
14.749965
 40
14.749965
 40
14.749965
 10
181.7913307552826
 20
22.13935732081518
 10
181.7913307552826
 20
22.38243897022858
 10
181.7913307552826
 20
22.70652731188238
 10
181.7913307552826
 20
23.03060593137161
 97
        0
 72
     4
 94
        3
 73
     0
 74
     0
 95
        8
 96
        4
 40
14.3749725
 40
14.3749725
 40
14.3749725
 40
14.3749725
 40
14.49997
 40
14.49997
 40
14.49997
 40
14.49997
 10
181.7913307552826
 20
23.03060593137161
 10
181.7913307552826
 20
23.19264524111805
 10
181.7913307552826
 20
23.35468212032811
 10
181.7913307552826
 20
23.50658951718742
 97
        0
 72
     4
 94
        3
 73
     0
 74
     0
 95
        8
 96
        4
 40
14.18747625
 40
14.18747625
 40
14.18747625
 40
14.18747625
 40
14.3749725
 40
14.3749725
 40
14.3749725
 40
14.3749725
 10
181.7913307552826
 20
23.50658951718742
 10
181.7913307552826
 20
23.73445061248003
 10
181.7913307552826
 20
23.93952037250256
 10
181.7913307552826
 20
24.08761999742456
 97
        0
 72
     4
 94
        3
 73
     0
 74
     0
 95
        8
 96
        4
 40
14.1249775
 40
14.1249775
 40
14.1249775
 40
14.1249775
 40
14.18747625
 40
14.18747625
 40
14.18747625
 40
14.18747625
 10
181.7913307552826
 20
24.08761999742456
 10
181.7913307552826
 20
24.13698653906886
 10
181.7913307552826
 20
24.18002306570088
 10
181.7913307552826
 20
24.21546369584121
 97
        0
 72
     4
 94
        3
 73
     0
 74
     0
 95
        8
 96
        4
 40
14.093728125
 40
14.093728125
 40
14.093728125
 40
14.093728125
 40
14.1249775
 40
14.1249775
 40
14.1249775
 40
14.1249775
 10
181.7913307552826
 20
24.21546369584121
 10
181.7913307552826
 20
24.23318401091638
 10
181.7913307552826
 20
24.24900535186135
 10
181.7913307552826
 20
24.26276948351097
 97
        0
 72
     4
 94
        3
 73
     0
 74
     0
 95
        8
 96
        4
 40
14.06247875
 40
14.06247875
 40
14.06247875
 40
14.06247875
 40
14.093728125
 40
14.093728125
 40
14.093728125
 40
14.093728125
 10
181.7913307552826
 20
24.26276948351097
 10
181.7913307552826
 20
24.2765336151515
 10
181.7913307552826
 20
24.28824053749122
 10
181.7913307552826
 20
24.29773201533953
 97
        0
 72
     4
 94
        3
 73
     0
 74
     0
 95
       11
 96
        7
 40
13.99997958222998
 40
13.99997958222998
 40
13.99997958222998
 40
13.99997958222998
 40
14.0
 40
14.0
 40
14.0
 40
14.00071240722656
 40
14.00071240722656
 40
14.00071240722656
 40
14.00071240722656
 10
181.7913307527251
 20
24.32682967017718
 10
181.7913307544331
 20
24.32682967017718
 10
181.7913307552826
 20
24.32682967017718
 10
181.7913307552826
 20
24.32682967017718
 10
181.7913307552826
 20
24.32682967017718
 10
181.7913307552826
 20
24.32682835433388
 10
181.7913307552826
 20
24.32682572451267
 97
        0
 72
     4
 94
        3
 73
     0
 74
     0
 95
        8
 96
        4
 40
13.49999
 40
13.49999
 40
13.49999
 40
13.49999
 40
13.99997958222998
 40
13.99997958222998
 40
13.99997958222998
 40
13.99997958222998
 10
181.7913307527251
 20
24.32682967017718
 10
181.7912888628543
 20
24.32682967017718
 10
181.2783587146241
 20
24.32682967017718
 10
180.7654388245755
 20
24.32682967017718
 97
        0
 72
     4
 94
        3
 73
     0
 74
     0
 95
       11
 96
        7
 40
12.99902343580856
 40
12.99902343580856
 40
12.99902343580856
 40
12.99902343580856
 40
13.49901343580856
 40
13.49901343580856
 40
13.49901343580856
 40
13.49999
 40
13.49999
 40
13.49999
 40
13.49999
 10
180.7654388245755
 20
24.32682967017718
 10
180.2525185059548
 20
24.32682967017718
 10
179.739608445534
 20
24.32682967017718
 10
179.739608445534
 20
24.32682967017718
 10
179.739608445534
 20
24.32682967017718
 10
179.739608445534
 20
24.3268290454489
 10
179.739608445534
 20
24.32682779720926
 97
        0
 72
     4
 94
        3
 73
     0
 74
     0
 95
        8
 96
        4
 40
12.906251875
 40
12.906251875
 40
12.906251875
 40
12.906251875
 40
12.93750125
 40
12.93750125
 40
12.93750125
 40
12.93750125
 10
179.739608445534
 20
24.31947317441063
 10
179.739608445534
 20
24.3170743159817
 10
179.739608445534
 20
24.31411572307025
 10
179.739608445534
 20
24.31063737578461
 97
        0
 72
     4
 94
        3
 73
     0
 74
     0
 95
        8
 96
        4
 40
12.81250375
 40
12.81250375
 40
12.81250375
 40
12.81250375
 40
12.8750024998249
 40
12.8750024998249
 40
12.8750024998249
 40
12.8750024998249
 10
179.739608445534
 20
24.2986830509044
 10
179.739608445534
 20
24.28972729913858
 10
179.739608445534
 20
24.27885245040489
 10
179.739608445534
 20
24.26637834567828
 97
        0
 72
     4
 94
        3
 73
     0
 74
     0
 95
        8
 96
        4
 40
12.75000499991749
 40
12.75000499991749
 40
12.75000499991749
 40
12.75000499991749
 40
12.81250375
 40
12.81250375
 40
12.81250375
 40
12.81250375
 10
179.739608445534
 20
24.26637834567828
 10
179.739608445534
 20
24.25390424089255
 10
179.739608445534
 20
24.23983088009663
 10
179.739608445534
 20
24.22447810425456
 97
        0
 72
     4
 94
        3
 73
     0
 74
     0
 95
        8
 96
        4
 40
12.6250075
 40
12.6250075
 40
12.6250075
 40
12.6250075
 40
12.75000499991749
 40
12.75000499991749
 40
12.75000499991749
 40
12.75000499991749
 10
179.739608445534
 20
24.22447810425456
 10
179.739608445534
 20
24.19377255262771
 10
179.739608445534
 20
24.15794934083533
 10
179.739608445534
 20
24.11956719660611
 97
        0
 72
     4
 94
        3
 73
     0
 74
     0
 95
        8
 96
        4
 40
12.50000999999212
 40
12.50000999999212
 40
12.50000999999212
 40
12.50000999999212
 40
12.6250075
 40
12.6250075
 40
12.6250075
 40
12.6250075
 10
179.739608445534
 20
24.11956719660611
 10
179.739608445534
 20
24.08118505235234
 10
179.739608445534
 20
24.04024397566627
 10
179.739608445534
 20
23.99930269426113
 97
        0
 72
     4
 94
        3
 73
     0
 74
     0
 95
        8
 96
        4
 40
12.250015
 40
12.250015
 40
12.250015
 40
12.250015
 40
12.50000999999212
 40
12.50000999999212
 40
12.50000999999212
 40
12.50000999999212
 10
179.739608445534
 20
23.99930269426113
 10
179.739608445534
 20
23.91742013147905
 10
179.739608445534
 20
23.83553674988616
 10
179.739608445534
 20
23.77412237137196
 97
        0
 72
     4
 94
        3
 73
     0
 74
     0
 95
       11
 96
        7
 40
11.99928759277344
 40
11.99928759277344
 40
11.99928759277344
 40
11.99928759277344
 40
12.24930259277344
 40
12.24930259277344
 40
12.24930259277344
 40
12.250015
 40
12.250015
 40
12.250015
 40
12.250015
 10
179.739608445534
 20
23.77412237137196
 10
179.739608445534
 20
23.71270307960913
 10
179.739608445534
 20
23.67175606615729
 10
179.739608445534
 20
23.67175606615729
 10
179.739608445534
 20
23.67175606615729
 10
179.7396090963429
 20
23.67175606615729
 10
179.7396103970623
 20
23.67175606615729
 97
        0
 72
     4
 94
        3
 73
     0
 74
     0
 95
        8
 96
        4
 40
11.906271875
 40
11.906271875
 40
11.906271875
 40
11.906271875
 40
11.93752124974706
 40
11.93752124974706
 40
11.93752124974706
 40
11.93752124974706
 10
179.754000169476
 20
23.67175606615729
 10
179.7586946621341
 20
23.67175606615729
 10
179.7644849154349
 20
23.67175606615729
 10
179.7712926661334
 20
23.67175606615729
 97
        0
 72
     4
 94
        3
 73
     0
 74
     0
 95
        8
 96
        4
 40
11.8750225
 40
11.8750225
 40
11.8750225
 40
11.8750225
 40
11.906271875
 40
11.906271875
 40
11.906271875
 40
11.906271875
 10
179.7712926661334
 20
23.67175606615729
 10
179.7781004168628
 20
23.67175606615729
 10
179.7859256650154
 20
23.67175606615729
 10
179.7946901473042
 20
23.67175606615729
 97
        0
 72
     4
 94
        3
 73
     0
 74
     0
 95
        8
 96
        4
 40
11.81252375
 40
11.81252375
 40
11.81252375
 40
11.81252375
 40
11.8750225
 40
11.8750225
 40
11.8750225
 40
11.8750225
 10
179.7946901473042
 20
23.67175606615729
 10
179.8122191118855
 20
23.67175606615729
 10
179.8335050130645
 20
23.67175606615729
 10
179.8579217448441
 20
23.67175606615729
 97
        0
 72
     4
 94
        3
 73
     0
 74
     0
 95
        8
 96
        4
 40
11.75002499995332
 40
11.75002499995332
 40
11.75002499995332
 40
11.75002499995332
 40
11.81252375
 40
11.81252375
 40
11.81252375
 40
11.81252375
 10
179.8579217448441
 20
23.67175606615729
 10
179.8823384766438
 20
23.67175606615729
 10
179.9098860390331
 20
23.67175606615729
 10
179.9399383260043
 20
23.67175606615729
 97
        0
 72
     4
 94
        3
 73
     0
 74
     0
 95
        8
 96
        4
 40
11.6250275
 40
11.6250275
 40
11.6250275
 40
11.6250275
 40
11.75002499995332
 40
11.75002499995332
 40
11.75002499995332
 40
11.75002499995332
 10
179.9399383260043
 20
23.67175606615729
 10
180.0000428998755
 20
23.67175606615729
 10
180.0701663720428
 20
23.67175606615729
 10
180.1452998944532
 20
23.67175606615729
 97
        0
 72
     4
 94
        3
 73
     0
 74
     0
 95
        8
 96
        4
 40
11.50003
 40
11.50003
 40
11.50003
 40
11.50003
 40
11.6250275
 40
11.6250275
 40
11.6250275
 40
11.6250275
 10
180.1452998944532
 20
23.67175606615729
 10
180.2204334168855
 20
23.67175606615729
 10
180.3005769895444
 20
23.67175606615729
 10
180.3807217643625
 20
23.67175606615729
 97
        0
 72
     4
 94
        3
 73
     0
 74
     0
 95
        8
 96
        4
 40
11.250035
 40
11.250035
 40
11.250035
 40
11.250035
 40
11.50003
 40
11.50003
 40
11.50003
 40
11.50003
 10
180.3807217643625
 20
23.67175606615729
 10
180.5410113139751
 20
23.67175606615729
 10
180.7013056721844
 20
23.67175606615729
 10
180.8215340543138
 20
23.67175606615729
 97
        0
 72
     4
 94
        3
 73
     0
 74
     0
 95
       11
 96
        7
 40
10.0
 40
10.0
 40
10.0
 40
10.0
 40
10.250035
 40
10.250035
 40
10.250035
 40
11.250035
 40
11.250035
 40
11.250035
 40
11.250035
 10
180.8215340543138
 20
23.67175606615729
 10
180.9417816733748
 20
23.67175606615729
 10
181.0219504939559
 20
23.67175606615729
 10
181.0219504939559
 20
23.67175606615729
 10
181.0084263128246
 20
22.83741728486166
 10
180.5359954562737
 20
22.30646669401267
 10
179.6721123784737
 20
22.32026286382552
 97
        0
 72
     4
 94
        3
 73
     0
 74
     0
 95
        8
 96
        4
 40
9.0
 40
9.0
 40
9.0
 40
9.0
 40
10.0
 40
10.0
 40
10.0
 40
10.0
 10
179.6721123784737
 20
22.32026286382552
 10
178.6395307458842
 20
22.32026286382552
 10
178.2075892070043
 20
23.25113231866362
 10
178.2075892070043
 20
24.1958192008924
 97
        0
 72
     4
 94
        3
 73
     0
 74
     0
 95
        8
 96
        4
 40
8.0
 40
8.0
 40
8.0
 40
8.0
 40
9.0
 40
9.0
 40
9.0
 40
9.0
 10
178.2075892070043
 20
24.1958192008924
 10
178.2075892070043
 20
25.14048482554335
 10
178.6395307458842
 20
26.07137553795201
 10
179.6721123784737
 20
26.07137553795201
 97
        0
 72
     4
 94
        3
 73
     0
 74
     0
 95
        8
 96
        4
 40
7.0
 40
7.0
 40
7.0
 40
7.0
 40
8.0
 40
8.0
 40
8.0
 40
8.0
 10
179.6721123784737
 20
26.07137553795201
 10
180.2795353691635
 20
26.07137553795201
 10
180.832944861042
 20
25.74039500788422
 10
180.9139651092246
 20
25.09223011755694
 97
        0
 97
        0
 92
        5
 93
        8
 72
     4
 94
        3
 73
     0
 74
     0
 95
       11
 96
        7
 40
0.5
 40
0.5
 40
0.5
 40
0.5
 40
1.5
 40
1.5
 40
1.5
 40
2.0
 40
2.0
 40
2.0
 40
2.0
 10
183.0259714747535
 20
23.7865829170878
 10
183.0259714747535
 20
23.7865829170878
 10
183.0259714747535
 20
26.65189981905041
 10
183.0259714747535
 20
26.65189981905041
 10
183.0259714747535
 20
26.65189981905041
 10
182.8095488112321
 20
26.65189981905041
 10
182.5931261477126
 20
26.65189981905041
 97
        0
 72
     4
 94
        3
 73
     0
 74
     0
 95
       11
 96
        7
 40
9.5
 40
9.5
 40
9.5
 40
9.5
 40
10.0
 40
10.0
 40
10.0
 40
10.5
 40
10.5
 40
10.5
 40
10.5
 10
182.5931261477126
 20
26.65189981905041
 10
182.3767034841839
 20
26.65189981905041
 10
182.1602808206735
 20
26.65189981905041
 10
182.1602808206735
 20
26.65189981905041
 10
182.1602808206735
 20
26.65189981905041
 10
182.1602808206735
 20
25.86496752034509
 10
182.1602808206735
 20
25.07803522164522
 97
        0
 72
     4
 94
        3
 73
     0
 74
     0
 95
       11
 96
        7
 40
8.0
 40
8.0
 40
8.0
 40
8.0
 40
8.5
 40
8.5
 40
8.5
 40
9.5
 40
9.5
 40
9.5
 40
9.5
 10
182.1602808206735
 20
25.07803522164522
 10
182.1602808206735
 20
24.29110292294445
 10
182.1602808206735
 20
23.50417062424185
 10
182.1602808206735
 20
23.50417062424185
 10
182.1602808206735
 20
22.24371996987884
 10
182.9705874280735
 20
21.61693455182285
 10
184.189506173243
 20
21.61693455182285
 97
        0
 72
     4
 94
        3
 73
     0
 74
     0
 95
        8
 96
        4
 40
7.0
 40
7.0
 40
7.0
 40
7.0
 40
8.0
 40
8.0
 40
8.0
 40
8.0
 10
184.189506173243
 20
21.61693455182285
 10
185.4084249184034
 20
21.61693455182285
 10
186.2187315258033
 20
22.24371996987884
 10
186.2187315258033
 20
23.50417062424185
 97
        0
 72
     4
 94
        3
 73
     0
 74
     0
 95
       11
 96
        7
 40
5.5
 40
5.5
 40
5.5
 40
5.5
 40
6.5
 40
6.5
 40
6.5
 40
7.0
 40
7.0
 40
7.0
 40
7.0
 10
186.2187315258033
 20
23.50417062424185
 10
186.2187315258033
 20
23.50417062424185
 10
186.2187315258033
 20
26.65189981905041
 10
186.2187315258033
 20
26.65189981905041
 10
186.2187315258033
 20
26.65189981905041
 10
186.0022981868624
 20
26.65189981905041
 10
185.7858648479341
 20
26.65189981905041
 97
        0
 72
     4
 94
        3
 73
     0
 74
     0
 95
       11
 96
        7
 40
4.5
 40
4.5
 40
4.5
 40
4.5
 40
5.0
 40
5.0
 40
5.0
 40
5.5
 40
5.5
 40
5.5
 40
5.5
 10
185.7858648479341
 20
26.65189981905041
 10
185.5694315089949
 20
26.65189981905041
 10
185.352998170063
 20
26.65189981905041
 10
185.352998170063
 20
26.65189981905041
 10
185.352998170063
 20
26.65189981905041
 10
185.352998170063
 20
25.93557059355863
 10
185.352998170063
 20
25.21924136806684
 97
        0
 72
     4
 94
        3
 73
     0
 74
     0
 95
       11
 96
        7
 40
3.0
 40
3.0
 40
3.0
 40
3.0
 40
3.5
 40
3.5
 40
3.5
 40
4.5
 40
4.5
 40
4.5
 40
4.5
 10
185.352998170063
 20
25.21924136806684
 10
185.352998170063
 20
24.50291214257595
 10
185.352998170063
 20
23.7865829170878
 10
185.352998170063
 20
23.7865829170878
 10
185.352998170063
 20
23.12535593971188
 10
185.311449459643
 20
22.36080428436799
 10
184.189506173243
 20
22.36080428436799
 97
        0
 72
     4
 94
        3
 73
     0
 74
     0
 95
        8
 96
        4
 40
2.0
 40
2.0
 40
2.0
 40
2.0
 40
3.0
 40
3.0
 40
3.0
 40
3.0
 10
184.189506173243
 20
22.36080428436799
 10
183.0675201851736
 20
22.36080428436799
 10
183.0259714747535
 20
23.12535593971188
 10
183.0259714747535
 20
23.7865829170878
 97
        0
 97
        0
 92
        5
 93
        1
 72
     4
 94
        3
 73
     0
 74
     0
 95
       17
 96
       13
 40
0.0
 40
0.0
 40
0.0
 40
0.0
 40
1.0
 40
1.0
 40
1.0
 40
2.0
 40
2.0
 40
2.0
 40
3.0
 40
3.0
 40
3.0
 40
4.0
 40
4.0
 40
4.0
 40
4.0
 10
192.3678992645236
 20
24.18925632654828
 10
192.3678992645236
 20
22.78946043566612
 10
191.4933489929735
 20
21.62298853910306
 10
190.0312155235933
 20
21.62298853910306
 10
188.5690820542131
 20
21.62298853910306
 10
187.694531782663
 20
22.78946043566612
 10
187.694531782663
 20
24.18925632654828
 10
187.694531782663
 20
25.58903106385606
 10
188.5690820542131
 20
26.75552411399622
 10
190.0312155235933
 20
26.75552411399622
 10
191.4933489929735
 20
26.75552411399622
 10
192.3678992645236
 20
25.58903106385606
 10
192.3678992645236
 20
24.18925632654828
 97
        0
 97
        0
 92
       20
 93
        4
 72
     4
 94
        3
 73
     0
 74
     0
 95
        8
 96
        4
 40
2.0
 40
2.0
 40
2.0
 40
2.0
 40
3.0
 40
3.0
 40
3.0
 40
3.0
 10
190.0312155235933
 20
26.05563674534642
 10
191.0765895596232
 20
26.05563674534642
 10
191.5138646954055
 20
25.12930029607196
 10
191.5138646954055
 20
24.18925632654828
 97
        0
 72
     4
 94
        3
 73
     0
 74
     0
 95
        8
 96
        4
 40
1.0
 40
1.0
 40
1.0
 40
1.0
 40
2.0
 40
2.0
 40
2.0
 40
2.0
 10
191.5138646954055
 20
24.18925632654828
 10
191.5138646954055
 20
23.2491912034493
 10
191.0765895596232
 20
22.32287590775923
 10
190.0312155235933
 20
22.32287590775923
 97
        0
 72
     4
 94
        3
 73
     0
 74
     0
 95
        8
 96
        4
 40
0.0
 40
0.0
 40
0.0
 40
0.0
 40
1.0
 40
1.0
 40
1.0
 40
1.0
 10
190.0312155235933
 20
22.32287590775923
 10
188.9858836142557
 20
22.32287590775923
 10
188.5486084784843
 20
23.2491912034493
 10
188.5486084784843
 20
24.18925632654828
 97
        0
 72
     4
 94
        3
 73
     0
 74
     0
 95
        8
 96
        4
 40
3.0
 40
3.0
 40
3.0
 40
3.0
 40
4.0
 40
4.0
 40
4.0
 40
4.0
 10
188.5486084784843
 20
24.18925632654828
 10
188.5486084784843
 20
25.12930029607196
 10
188.9858836142557
 20
26.05563674534642
 10
190.0312155235933
 20
26.05563674534642
 97
        0
 97
        0
 92
        5
 93
       31
 72
     4
 94
        3
 73
     0
 74
     0
 95
        8
 96
        4
 40
1.0
 40
1.0
 40
1.0
 40
1.0
 40
2.0
 40
2.0
 40
2.0
 40
2.0
 10
196.5493333281538
 20
25.17825038768843
 10
196.5493333281538
 20
25.82115656317546
 10
196.2828836614426
 20
26.77470384995559
 10
194.8890464879241
 20
26.77470384995559
 97
        0
 72
     4
 94
        3
 73
     0
 74
     0
 95
       11
 96
        7
 40
6.749964999999997
 40
6.749964999999997
 40
6.749964999999997
 40
6.749964999999997
 40
7.749964999999997
 40
7.749964999999997
 40
7.749964999999997
 40
8.0
 40
8.0
 40
8.0
 40
8.0
 10
194.8890464879241
 20
26.77470384995559
 10
194.8890464879241
 20
26.77470384995559
 10
192.7368493301637
 20
26.77470384995559
 10
192.7368493301637
 20
26.77470384995559
 10
192.7368493301637
 20
26.77470384995559
 10
192.7368493301637
 20
26.45225300153834
 10
192.7368493301637
 20
25.96859930047867
 97
        0
 72
     4
 94
        3
 73
     0
 74
     0
 95
        8
 96
        4
 40
6.499969999999997
 40
6.499969999999997
 40
6.499969999999997
 40
6.499969999999997
 40
6.749964999999997
 40
6.749964999999997
 40
6.749964999999997
 40
6.749964999999997
 10
192.7368493301637
 20
25.96859930047867
 10
192.7368493301637
 20
25.48502297317737
 10
192.7368493301637
 20
24.84029536679282
 10
192.7368493301637
 20
24.19558710127331
 97
        0
 72
     4
 94
        3
 73
     0
 74
     0
 95
        8
 96
        4
 40
6.3749725
 40
6.3749725
 40
6.3749725
 40
6.3749725
 40
6.499969999999997
 40
6.499969999999997
 40
6.499969999999997
 40
6.499969999999997
 10
192.7368493301637
 20
24.19558710127331
 10
192.7368493301637
 20
23.87323296851355
 10
192.7368493301637
 20
23.55088367096414
 10
192.7368493301637
 20
23.24868553613033
 97
        0
 72
     4
 94
        3
 73
     0
 74
     0
 95
        8
 96
        4
 40
6.249974999999997
 40
6.249974999999997
 40
6.249974999999997
 40
6.249974999999997
 40
6.374972499999997
 40
6.374972499999997
 40
6.374972499999997
 40
6.374972499999997
 10
192.7368493301637
 20
23.24868553613033
 10
192.7368493301637
 20
22.94648740129105
 10
192.7368493301637
 20
22.66444042915919
 10
192.7368493301637
 20
22.42269094722997
 97
        0
 72
     4
 94
        3
 73
     0
 74
     0
 95
        8
 96
        4
 40
6.187476249999997
 40
6.187476249999997
 40
6.187476249999997
 40
6.187476249999997
 40
6.249974999999999
 40
6.249974999999999
 40
6.249974999999999
 40
6.249974999999999
 10
192.7368493301637
 20
22.42269094722997
 10
192.7368493301637
 20
22.30181620626627
 10
192.7368493301637
 20
22.19101583785505
 10
192.7368493301637
 20
22.09280813292207
 97
        0
 72
     4
 94
        3
 73
     0
 74
     0
 95
        8
 96
        4
 40
6.124977499999999
 40
6.124977499999999
 40
6.124977499999999
 40
6.124977499999999
 40
6.187476249999997
 40
6.187476249999997
 40
6.187476249999997
 40
6.187476249999997
 10
192.7368493301637
 20
22.09280813292207
 10
192.7368493301637
 20
21.99460042799456
 10
192.7368493301637
 20
21.9089853865562
 10
192.7368493301637
 20
21.83848129953731
 97
        0
 72
     4
 94
        3
 73
     0
 74
     0
 95
        8
 96
        4
 40
6.093728125
 40
6.093728125
 40
6.093728125
 40
6.093728125
 40
6.124977499999999
 40
6.124977499999999
 40
6.124977499999999
 40
6.124977499999999
 10
192.7368493301637
 20
21.83848129953731
 10
192.7368493301637
 20
21.80322925603014
 10
192.7368493301637
 20
21.77175495112533
 10
192.7368493301637
 20
21.74437317120009
 97
        0
 72
     4
 94
        3
 73
     0
 74
     0
 95
        8
 96
        4
 40
6.06247875
 40
6.06247875
 40
6.06247875
 40
6.06247875
 40
6.093728125
 40
6.093728125
 40
6.093728125
 40
6.093728125
 10
192.7368493301637
 20
21.74437317120009
 10
192.7368493301637
 20
21.71699139127213
 10
192.7368493301637
 20
21.69370213631191
 10
192.7368493301637
 20
21.67482019269755
 97
        0
 72
     4
 94
        3
 73
     0
 74
     0
 95
        8
 96
        4
 40
6.046854062499997
 40
6.046854062499997
 40
6.046854062499997
 40
6.046854062499997
 40
6.062478749999997
 40
6.062478749999997
 40
6.062478749999997
 40
6.062478749999997
 10
192.7368493301637
 20
21.67482019269755
 10
192.7368493301637
 20
21.66537922089083
 10
192.7368493301637
 20
21.6570400769142
 10
192.7368493301637
 20
21.64984210907551
 97
        0
 72
     4
 94
        3
 73
     0
 74
     0
 95
        8
 96
        4
 40
6.031229375000001
 40
6.031229375000001
 40
6.031229375000001
 40
6.031229375000001
 40
6.046854062500001
 40
6.046854062500001
 40
6.046854062500001
 40
6.046854062500001
 10
192.7368493301637
 20
21.64984210907551
 10
192.7368493301637
 20
21.64264414123136
 10
192.7368493301637
 20
21.63658734951878
 10
192.7368493301637
 20
21.63171108223014
 97
        0
 72
     4
 94
        3
 73
     0
 74
     0
 95
       11
 96
        7
 40
5.999979147302425
 40
5.999979147302425
 40
5.999979147302425
 40
5.999979147302425
 40
6.0
 40
6.0
 40
6.0
 40
6.000468271484374
 40
6.000468271484374
 40
6.000468271484374
 40
6.000468271484374
 10
192.7368493312751
 20
21.61693455182285
 10
192.7368493305348
 20
21.61693455182285
 10
192.7368493301637
 20
21.61693455182285
 10
192.7368493301637
 20
21.61693455182285
 10
192.7368493301637
 20
21.61693455182285
 10
192.7368493301637
 20
21.61693568281407
 10
192.7368493301637
 20
21.61693794372332
 97
        0
 72
     4
 94
        3
 73
     0
 74
     0
 95
        8
 96
        4
 40
5.49999
 40
5.49999
 40
5.49999
 40
5.49999
 40
5.999979147302425
 40
5.999979147302425
 40
5.999979147302425
 40
5.999979147302425
 10
192.7368493312751
 20
21.61693455182285
 10
192.7368671402128
 20
21.61693455182285
 10
192.9503845838262
 20
21.61693455182285
 10
193.163897757282
 20
21.61693455182285
 97
        0
 72
     4
 94
        3
 73
     0
 74
     0
 95
       11
 96
        7
 40
4.999511717945666
 40
4.999511717945666
 40
4.999511717945666
 40
4.999511717945666
 40
5.499501717945666
 40
5.499501717945666
 40
5.499501717945666
 40
5.499989999999997
 40
5.499989999999997
 40
5.499989999999997
 40
5.499989999999997
 10
193.163897757282
 20
21.61693455182285
 10
193.3774112948631
 20
21.61693455182285
 10
193.5909205622538
 20
21.61693455182285
 10
193.5909205622538
 20
21.61693455182285
 10
193.5909205622538
 20
21.61693455182285
 10
193.5909205622538
 20
21.61693502372964
 10
193.5909205622538
 20
21.61693596708574
 97
        0
 72
     4
 94
        3
 73
     0
 74
     0
 95
        8
 96
        4
 40
4.937501249873328
 40
4.937501249873328
 40
4.937501249873328
 40
4.937501249873328
 40
4.9531259375
 40
4.9531259375
 40
4.9531259375
 40
4.9531259375
 10
193.5909205622538
 20
21.62957357343748
 10
193.5909205622538
 20
21.6323369447091
 10
193.5909205622538
 20
21.63553822775793
 10
193.5909205622538
 20
21.63916232250813
 97
        0
 72
     4
 94
        3
 73
     0
 74
     0
 95
        8
 96
        4
 40
4.906251875000001
 40
4.906251875000001
 40
4.906251875000001
 40
4.906251875000001
 40
4.93750124987333
 40
4.93750124987333
 40
4.93750124987333
 40
4.93750124987333
 10
193.5909205622538
 20
21.63916232250813
 10
193.5909205622538
 20
21.64641051191666
 10
193.5909205622538
 20
21.65534994808877
 10
193.5909205622538
 20
21.66585983044206
 97
        0
 72
     4
 94
        3
 73
     0
 74
     0
 95
        8
 96
        4
 40
4.875002499912453
 40
4.875002499912453
 40
4.875002499912453
 40
4.875002499912453
 40
4.906251875000001
 40
4.906251875000001
 40
4.906251875000001
 40
4.906251875000001
 10
193.5909205622538
 20
21.66585983044206
 10
193.5909205622538
 20
21.67636971286902
 10
193.5909205622538
 20
21.68845004150262
 10
193.5909205622538
 20
21.70198001575773
 97
        0
 72
     4
 94
        3
 73
     0
 74
     0
 95
        8
 96
        4
 40
4.812503749999998
 40
4.812503749999998
 40
4.812503749999998
 40
4.812503749999998
 40
4.875002499912453
 40
4.875002499912453
 40
4.875002499912453
 40
4.875002499912453
 10
193.5909205622538
 20
21.70198001575773
 10
193.5909205622538
 20
21.72903996415789
 10
193.5909205622538
 20
21.76189849500133
 10
193.5909205622538
 20
21.79958920366698
 97
        0
 72
     4
 94
        3
 73
     0
 74
     0
 95
        8
 96
        4
 40
4.750005
 40
4.750005
 40
4.750005
 40
4.750005
 40
4.812503749999998
 40
4.812503749999998
 40
4.812503749999998
 40
4.812503749999998
 10
193.5909205622538
 20
21.79958920366698
 10
193.5909205622538
 20
21.83727991237538
 10
193.5909205622538
 20
21.87980279891326
 10
193.5909205622538
 20
21.92619145864046
 97
        0
 72
     4
 94
        3
 73
     0
 74
     0
 95
        8
 96
        4
 40
4.625007500000001
 40
4.625007500000001
 40
4.625007500000001
 40
4.625007500000001
 40
4.750005000000001
 40
4.750005000000001
 40
4.750005000000001
 40
4.750005000000001
 10
193.5909205622538
 20
21.92619145864046
 10
193.5909205622538
 20
22.01896877808758
 10
193.5909205622538
 20
22.12720919027834
 10
193.5909205622538
 20
22.24318145810412
 97
        0
 72
     4
 94
        3
 73
     0
 74
     0
 95
        8
 96
        4
 40
4.500009999999996
 40
4.500009999999996
 40
4.500009999999996
 40
4.500009999999996
 40
4.625007499999997
 40
4.625007499999997
 40
4.625007499999997
 40
4.625007499999997
 10
193.5909205622538
 20
22.24318145810412
 10
193.5909205622538
 20
22.35915372592808
 10
193.5909205622538
 20
22.48285784937343
 10
193.5909205622538
 20
22.60656259133702
 97
        0
 72
     4
 94
        3
 73
     0
 74
     0
 95
        8
 96
        4
 40
4.250014999999998
 40
4.250014999999998
 40
4.250014999999998
 40
4.250014999999998
 40
4.500009999999996
 40
4.500009999999996
 40
4.500009999999996
 40
4.500009999999996
 10
193.5909205622538
 20
22.60656259133702
 10
193.5909205622538
 20
22.8539720752633
 10
193.5909205622538
 20
23.10138403322889
 10
193.5909205622538
 20
23.28694856831134
 97
        0
 72
     4
 94
        3
 73
     0
 74
     0
 95
       11
 96
        7
 40
3.999287592773436
 40
3.999287592773436
 40
3.999287592773436
 40
3.999287592773436
 40
4.249302592773436
 40
4.249302592773436
 40
4.249302592773436
 40
4.250014999999998
 40
4.250014999999998
 40
4.250014999999998
 40
4.250014999999998
 10
193.5909205622538
 20
23.28694856831134
 10
193.5909205622538
 20
23.47252794885026
 10
193.5909205622538
 20
23.59625001031509
 10
193.5909205622538
 20
23.59625001031509
 10
193.5909205622538
 20
23.59625001031509
 10
193.5909212210845
 20
23.59625001031509
 10
193.5909225378054
 20
23.59625001031509
 97
        0
 72
     4
 94
        3
 73
     0
 74
     0
 95
        8
 96
        4
 40
3.906271874999998
 40
3.906271874999998
 40
3.906271874999998
 40
3.906271874999998
 40
3.937521249747056
 40
3.937521249747056
 40
3.937521249747056
 40
3.937521249747056
 10
193.6054894286335
 20
23.59625001031509
 10
193.6102417040947
 20
23.59625001031509
 10
193.6161032275049
 20
23.59625001031509
 10
193.6229947722822
 20
23.59625001031509
 97
        0
 72
     4
 94
        3
 73
     0
 74
     0
 95
        8
 96
        4
 40
3.875022499912441
 40
3.875022499912441
 40
3.875022499912441
 40
3.875022499912441
 40
3.906271874999998
 40
3.906271874999998
 40
3.906271874999998
 40
3.906271874999998
 10
193.6229947722822
 20
23.59625001031509
 10
193.6298863171541
 20
23.59625001031509
 10
193.6378078834259
 20
23.59625001031509
 10
193.6466802445429
 20
23.59625001031509
 97
        0
 72
     4
 94
        3
 73
     0
 74
     0
 95
        8
 96
        4
 40
3.81252375
 40
3.81252375
 40
3.81252375
 40
3.81252375
 40
3.875022499912441
 40
3.875022499912441
 40
3.875022499912441
 40
3.875022499912441
 10
193.6466802445429
 20
23.59625001031509
 10
193.6644249666951
 20
23.59625001031509
 10
193.6859728681829
 20
23.59625001031509
 10
193.7106901365132
 20
23.59625001031509
 97
        0
 72
     4
 94
        3
 73
     0
 74
     0
 95
        8
 96
        4
 40
3.750024999999998
 40
3.750024999999998
 40
3.750024999999998
 40
3.750024999999998
 40
3.81252375
 40
3.81252375
 40
3.81252375
 40
3.81252375
 10
193.7106901365132
 20
23.59625001031509
 10
193.7354074048762
 20
23.59625001031509
 10
193.7632940400635
 20
23.59625001031509
 10
193.7937162295638
 20
23.59625001031509
 97
        0
 72
     4
 94
        3
 73
     0
 74
     0
 95
        8
 96
        4
 40
3.6250275
 40
3.6250275
 40
3.6250275
 40
3.6250275
 40
3.750024999999998
 40
3.750024999999998
 40
3.750024999999998
 40
3.750024999999998
 10
193.7937162295638
 20
23.59625001031509
 10
193.8545606085736
 20
23.59625001031509
 10
193.9255472048444
 20
23.59625001031509
 10
194.0016055181932
 20
23.59625001031509
 97
        0
 72
     4
 94
        3
 73
     0
 74
     0
 95
        8
 96
        4
 40
3.50003
 40
3.50003
 40
3.50003
 40
3.50003
 40
3.6250275
 40
3.6250275
 40
3.6250275
 40
3.6250275
 10
194.0016055181932
 20
23.59625001031509
 10
194.0776638315546
 20
23.59625001031509
 10
194.1587938620141
 20
23.59625001031509
 10
194.2399251094139
 20
23.59625001031509
 97
        0
 72
     4
 94
        3
 73
     0
 74
     0
 95
        8
 96
        4
 40
3.250035
 40
3.250035
 40
3.250035
 40
3.250035
 40
3.50003
 40
3.50003
 40
3.50003
 40
3.50003
 10
194.2399251094139
 20
23.59625001031509
 10
194.4021876042243
 20
23.59625001031509
 10
194.5644549668141
 20
23.59625001031509
 10
194.6861631959418
 20
23.59625001031509
 97
        0
 72
     4
 94
        3
 73
     0
 74
     0
 95
       11
 96
        7
 40
2.0
 40
2.0
 40
2.0
 40
2.0
 40
2.250035
 40
2.250035
 40
2.250035
 40
3.250035
 40
3.250035
 40
3.250035
 40
3.250035
 10
194.6861631959418
 20
23.59625001031509
 10
194.8078908987645
 20
23.59625001031509
 10
194.8890464879241
 20
23.59625001031509
 10
194.8890464879241
 20
23.59625001031509
 10
196.2828836614426
 20
23.58901233297729
 10
196.5493333281538
 20
24.54255961975923
 10
196.5493333281538
 20
25.17825038768843
 97
        0
 97
        0
 92
       20
 93
       11
 72
     4
 94
        3
 73
     0
 74
     0
 95
        8
 96
        4
 40
3.250015000000001
 40
3.250015000000001
 40
3.250015000000001
 40
3.250015000000001
 40
3.500009999937033
 40
3.500009999937033
 40
3.500009999937033
 40
3.500009999937033
 10
194.2228822986253
 20
26.03788602730219
 10
194.3808743125246
 20
26.03788602730219
 10
194.5388679063035
 20
26.03788602730219
 10
194.6573666564036
 20
26.03788602730219
 97
        0
 72
     4
 94
        3
 73
     0
 74
     0
 95
       11
 96
        7
 40
2.0
 40
2.0
 40
2.0
 40
2.0
 40
2.250015
 40
2.250015
 40
2.250015
 40
3.250015
 40
3.250015
 40
3.250015
 40
3.250015
 10
194.6573666564036
 20
26.03788602730219
 10
194.7758748866236
 20
26.03788602730219
 10
194.8548819535845
 20
26.03788602730219
 10
194.8548819535845
 20
26.03788602730219
 10
195.3058453815938
 20
26.03788602730219
 10
195.6952620960746
 20
25.86449354808974
 10
195.6952620960746
 20
25.185465795249
 97
        0
 72
     4
 94
        3
 73
     0
 74
     0
 95
        8
 96
        4
 40
1.0
 40
1.0
 40
1.0
 40
1.0
 40
2.0
 40
2.0
 40
2.0
 40
2.0
 10
195.6952620960746
 20
25.185465795249
 10
195.6952620960746
 20
24.53534421219683
 10
195.2238252233128
 20
24.33306783297121
 10
194.8412329904131
 20
24.33306783297121
 97
        0
 72
     4
 94
        3
 73
     0
 74
     0
 95
       11
 96
        7
 40
4.49999
 40
4.49999
 40
4.49999
 40
4.49999
 40
5.49999
 40
5.49999
 40
5.49999
 40
6.0
 40
6.0
 40
6.0
 40
6.0
 10
194.8412329904131
 20
24.33306783297121
 10
194.8412329904131
 20
24.33306783297121
 10
193.5909205622538
 20
24.33306783297121
 10
193.5909205622538
 20
24.33306783297121
 10
193.5909205622538
 20
24.33306783297121
 10
193.5909205622538
 20
24.75928942990959
 10
193.5909205622538
 20
25.1855025024106
 97
        0
 72
     4
 94
        3
 73
     0
 74
     0
 95
       11
 96
        7
 40
3.999267592773436
 40
3.999267592773436
 40
3.999267592773436
 40
3.999267592773436
 40
4.499257592773438
 40
4.499257592773438
 40
4.499257592773438
 40
4.49999
 40
4.49999
 40
4.49999
 40
4.49999
 10
193.5909205622538
 20
25.1855025024106
 10
193.5909205622538
 20
25.61169852673174
 10
193.5909205622538
 20
26.03788602730219
 10
193.5909205622538
 20
26.03788602730219
 10
193.5909205622538
 20
26.03788602730219
 10
193.590921240273
 20
26.03788602730219
 10
193.5909225953055
 20
26.03788602730219
 97
        0
 72
     4
 94
        3
 73
     0
 74
     0
 95
        8
 96
        4
 40
3.906251875
 40
3.906251875
 40
3.906251875
 40
3.906251875
 40
3.937501249746713
 40
3.937501249746713
 40
3.937501249746713
 40
3.937501249746713
 10
193.6051148858259
 20
26.03788602730219
 10
193.6097434716848
 20
26.03788602730219
 10
193.6154520625641
 20
26.03788602730219
 10
193.6221635169859
 20
26.03788602730219
 97
        0
 72
     4
 94
        3
 73
     0
 74
     0
 95
        8
 96
        4
 40
3.8750025
 40
3.8750025
 40
3.8750025
 40
3.8750025
 40
3.906251875
 40
3.906251875
 40
3.906251875
 40
3.906251875
 10
193.6221635169859
 20
26.03788602730219
 10
193.6288749714331
 20
26.03788602730219
 10
193.6365892894628
 20
26.03788602730219
 10
193.6452293296242
 20
26.03788602730219
 97
        0
 72
     4
 94
        3
 73
     0
 74
     0
 95
        8
 96
        4
 40
3.812503749999999
 40
3.812503749999999
 40
3.812503749999999
 40
3.812503749999999
 40
3.8750025
 40
3.8750025
 40
3.8750025
 40
3.8750025
 10
193.6452293296242
 20
26.03788602730219
 10
193.6625094099145
 20
26.03788602730219
 10
193.6834923786646
 20
26.03788602730219
 10
193.7075611042546
 20
26.03788602730219
 97
        0
 72
     4
 94
        3
 73
     0
 74
     0
 95
        8
 96
        4
 40
3.750004999953268
 40
3.750004999953268
 40
3.750004999953268
 40
3.750004999953268
 40
3.812503749999999
 40
3.812503749999999
 40
3.812503749999999
 40
3.812503749999999
 10
193.7075611042546
 20
26.03788602730219
 10
193.7316298298629
 20
26.03788602730219
 10
193.7587843123147
 20
26.03788602730219
 10
193.7884074199828
 20
26.03788602730219
 97
        0
 72
     4
 94
        3
 73
     0
 74
     0
 95
        8
 96
        4
 40
3.625007499999998
 40
3.625007499999998
 40
3.625007499999998
 40
3.625007499999998
 40
3.750004999953268
 40
3.750004999953268
 40
3.750004999953268
 40
3.750004999953268
 10
193.7884074199828
 20
26.03788602730219
 10
193.8476536352536
 20
26.03788602730219
 10
193.9167743513753
 20
26.03788602730219
 10
193.9908325154338
 20
26.03788602730219
 97
        0
 72
     4
 94
        3
 73
     0
 74
     0
 95
        8
 96
        4
 40
3.500009999937033
 40
3.500009999937033
 40
3.500009999937033
 40
3.500009999937033
 40
3.625007499999998
 40
3.625007499999998
 40
3.625007499999998
 40
3.625007499999998
 10
193.9908325154338
 20
26.03788602730219
 10
194.0648906795541
 20
26.03788602730219
 10
194.1438862916038
 20
26.03788602730219
 10
194.2228822986253
 20
26.03788602730219
 97
        0
 97
        0
 92
        7
 72
     0
 73
     1
 93
        8
 10
200.8530114957248
 20
26.77470384995559
 10
196.918283392275
 20
26.77470384995559
 10
196.918283392275
 20
25.99452677261434
 10
198.4567916714622
 20
25.99452677261434
 10
198.4567916714622
 20
21.61693455182285
 10
199.3077036437334
 20
21.61693455182285
 10
199.3077036437334
 20
25.99452677261434
 10
200.8530114957248
 20
25.99452677261434
 97
        0
 92
        7
 72
     0
 73
     1
 93
        4
 10
202.0819264162546
 20
26.77470384995559
 10
201.2216859729924
 20
26.77470384995559
 10
201.2216859729924
 20
21.61693455182285
 10
202.0819264162546
 20
21.61693455182285
 97
        0
 92
        5
 93
        9
 72
     4
 94
        3
 73
     0
 74
     0
 95
       11
 96
        7
 40
8.0
 40
8.0
 40
8.0
 40
8.0
 40
8.5
 40
8.5
 40
8.5
 40
9.5
 40
9.5
 40
9.5
 40
9.5
 10
206.4398351566033
 20
25.09223011755694
 10
206.6538446148752
 20
25.09223011755694
 10
206.8678540731635
 20
25.09223011755694
 10
206.8678540731635
 20
25.09223011755694
 10
206.765119399055
 20
26.15411004167891
 10
205.8953582740851
 20
26.76781639384262
 10
204.7927656682423
 20
26.77470384995559
 97
        0
 72
     4
 94
        3
 73
     0
 74
     0
 95
        8
 96
        4
 40
7.0
 40
7.0
 40
7.0
 40
7.0
 40
8.0
 40
8.0
 40
8.0
 40
8.0
 10
204.7927656682423
 20
26.77470384995559
 10
203.3272025492242
 20
26.77470384995559
 10
202.4506008910939
 20
25.60247582489774
 10
202.4506008910939
 20
24.1958192008924
 97
        0
 72
     4
 94
        3
 73
     0
 74
     0
 95
        8
 96
        4
 40
6.0
 40
6.0
 40
6.0
 40
6.0
 40
7.0
 40
7.0
 40
7.0
 40
7.0
 10
202.4506008910939
 20
24.1958192008924
 10
202.4506008910939
 20
22.78914131929923
 10
203.3272025492242
 20
21.61693455182285
 10
204.7927656682423
 20
21.61693455182285
 97
        0
 72
     4
 94
        3
 73
     0
 74
     0
 95
        8
 96
        4
 40
5.0
 40
5.0
 40
5.0
 40
5.0
 40
6.0
 40
6.0
 40
6.0
 40
6.0
 10
204.7927656682423
 20
21.61693455182285
 10
205.9775713486743
 20
21.61693455182285
 10
206.8062048235934
 20
22.43058970718357
 10
206.8746946063257
 20
23.60970518835893
 97
        0
 72
     4
 94
        3
 73
     0
 74
     0
 95
       11
 96
        7
 40
3.0
 40
3.0
 40
3.0
 40
3.0
 40
4.0
 40
4.0
 40
4.0
 40
5.0
 40
5.0
 40
5.0
 40
5.0
 10
206.8746946063257
 20
23.60970518835893
 10
206.8746946063257
 20
23.60970518835893
 10
206.0391783727246
 20
23.60970518835893
 10
206.0391783727246
 20
23.60970518835893
 10
205.9707308155121
 20
22.8925807065416
 10
205.5529515859416
 20
22.32026286382552
 10
204.7927656682423
 20
22.32026286382552
 97
        0
 72
     4
 94
        3
 73
     0
 74
     0
 95
        8
 96
        4
 40
2.0
 40
2.0
 40
2.0
 40
2.0
 40
3.0
 40
3.0
 40
3.0
 40
3.0
 10
204.7927656682423
 20
22.32026286382552
 10
203.7449817787947
 20
22.32026286382552
 10
203.3066809497141
 20
23.25113231866362
 10
203.3066809497141
 20
24.1958192008924
 97
        0
 72
     4
 94
        3
 73
     0
 74
     0
 95
        8
 96
        4
 40
1.0
 40
1.0
 40
1.0
 40
1.0
 40
2.0
 40
2.0
 40
2.0
 40
2.0
 10
203.3066809497141
 20
24.1958192008924
 10
203.3066809497141
 20
25.14048482554335
 10
203.7449817787947
 20
26.07137553795201
 10
204.7927656682423
 20
26.07137553795201
 97
        0
 72
     4
 94
        3
 73
     0
 74
     0
 95
        8
 96
        4
 40
0.0
 40
0.0
 40
0.0
 40
0.0
 40
1.0
 40
1.0
 40
1.0
 40
1.0
 10
204.7927656682423
 20
26.07137553795201
 10
205.5050256282357
 20
26.07137553795201
 10
205.8679961414145
 20
25.65763924657222
 10
206.0118162400449
 20
25.09223011755694
 97
        0
 72
     4
 94
        3
 73
     0
 74
     0
 95
        8
 96
        4
 40
9.5
 40
9.5
 40
9.5
 40
9.5
 40
10.0
 40
10.0
 40
10.0
 40
10.0
 10
206.0118162400449
 20
25.09223011755694
 10
206.0118162400449
 20
25.09223011755694
 10
206.2258256983259
 20
25.09223011755694
 10
206.4398351566033
 20
25.09223011755694
 97
        0
 97
        0
 92
        5
 93
       15
 72
     4
 94
        3
 73
     0
 74
     0
 95
        8
 96
        4
 40
13.0
 40
13.0
 40
13.0
 40
13.0
 40
14.0
 40
14.0
 40
14.0
 40
14.0
 10
209.3198633402644
 20
21.61693455182285
 10
210.3093473111639
 20
21.61693455182285
 10
211.2987883189144
 20
22.0582419252487
 10
211.2987883189144
 20
23.16151035881376
 97
        0
 72
     4
 94
        3
 73
     0
 74
     0
 95
        8
 96
        4
 40
12.0
 40
12.0
 40
12.0
 40
12.0
 40
13.0
 40
13.0
 40
13.0
 40
13.0
 10
211.2987883189144
 20
23.16151035881376
 10
211.2987883189144
 20
23.67175606615729
 10
210.9852433569431
 20
24.22339028294028
 10
210.3302273949539
 20
24.41647288760032
 97
        0
 72
     4
 94
        3
 73
     0
 74
     0
 95
        8
 96
        4
 40
11.0
 40
11.0
 40
11.0
 40
11.0
 40
12.0
 40
12.0
 40
12.0
 40
12.0
 10
210.3302273949539
 20
24.41647288760032
 10
210.0724056195431
 20
24.49231993521335
 10
208.9714752754844
 20
24.77502449972326
 10
208.8948290419757
 20
24.79570812565453
 97
        0
 72
     4
 94
        3
 73
     0
 74
     0
 95
        8
 96
        4
 40
10.0
 40
10.0
 40
10.0
 40
10.0
 40
11.0
 40
11.0
 40
11.0
 40
11.0
 10
208.8948290419757
 20
24.79570812565453
 10
208.5394379861136
 20
24.89226005677574
 10
208.3025392576346
 20
25.08532140386069
 10
208.3025392576346
 20
25.43009810374497
 97
        0
 72
     4
 94
        3
 73
     0
 74
     0
 95
        8
 96
        4
 40
9.0
 40
9.0
 40
9.0
 40
9.0
 40
10.0
 40
10.0
 40
10.0
 40
10.0
 10
208.3025392576346
 20
25.43009810374497
 10
208.3025392576346
 20
25.92656889885166
 10
208.8111798173923
 20
26.07137553795201
 10
209.2153340318928
 20
26.07137553795201
 97
        0
 72
     4
 94
        3
 73
     0
 74
     0
 95
        8
 96
        4
 40
8.0
 40
8.0
 40
8.0
 40
8.0
 40
9.0
 40
9.0
 40
9.0
 40
9.0
 10
209.2153340318928
 20
26.07137553795201
 10
209.8145838441433
 20
26.07137553795201
 10
210.2466211335141
 20
25.83692568142215
 10
210.288424264234
 20
25.20255696091317
 97
        0
 72
     4
 94
        3
 73
     0
 74
     0
 95
       11
 96
        7
 40
6.0
 40
6.0
 40
6.0
 40
6.0
 40
7.0
 40
7.0
 40
7.0
 40
8.0
 40
8.0
 40
8.0
 40
8.0
 10
210.288424264234
 20
25.20255696091317
 10
210.288424264234
 20
25.20255696091317
 10
211.1594588708831
 20
25.20255696091317
 10
211.1594588708831
 20
25.20255696091317
 10
211.1594588708831
 20
26.22995708928556
 10
210.288424264234
 20
26.77470384995559
 10
209.2501771346852
 20
26.77470384995559
 97
        0
 72
     4
 94
        3
 73
     0
 74
     0
 95
        8
 96
        4
 40
5.0
 40
5.0
 40
5.0
 40
5.0
 40
6.0
 40
6.0
 40
6.0
 40
6.0
 10
209.2501771346852
 20
26.77470384995559
 10
208.3513024162948
 20
26.77470384995559
 10
207.4315046509946
 20
26.31271285059848
 10
207.4315046509946
 20
25.32665871650625
 97
        0
 72
     4
 94
        3
 73
     0
 74
     0
 95
        8
 96
        4
 40
4.0
 40
4.0
 40
4.0
 40
4.0
 40
5.0
 40
5.0
 40
5.0
 40
5.0
 10
207.4315046509946
 20
25.32665871650625
 10
207.4315046509946
 20
24.81641300916545
 10
207.6823663984542
 20
24.30614604424409
 10
208.5324779581934
 20
24.0786049014132
 97
        0
 72
     4
 94
        3
 73
     0
 74
     0
 95
        8
 96
        4
 40
3.0
 40
3.0
 40
3.0
 40
3.0
 40
4.0
 40
4.0
 40
4.0
 40
4.0
 10
208.5324779581934
 20
24.0786049014132
 10
209.2153340318928
 20
23.89240975287248
 10
209.6682514050444
 20
23.80276653544388
 10
210.0166824329644
 20
23.67175606615729
 97
        0
 72
     4
 94
        3
 73
     0
 74
     0
 95
        8
 96
        4
 40
2.0
 40
2.0
 40
2.0
 40
2.0
 40
3.0
 40
3.0
 40
3.0
 40
3.0
 10
210.0166824329644
 20
23.67175606615729
 10
210.2187380586547
 20
23.59590901854608
 10
210.4277966753925
 20
23.44421492332367
 10
210.4277966753925
 20
23.06495842769436
 97
        0
 72
     4
 94
        3
 73
     0
 74
     0
 95
        8
 96
        4
 40
1.0
 40
1.0
 40
1.0
 40
1.0
 40
2.0
 40
2.0
 40
2.0
 40
2.0
 10
210.4277966753925
 20
23.06495842769436
 10
210.4277966753925
 20
22.6926106457604
 10
210.1420918251442
 20
22.32026286382552
 10
209.3756294899922
 20
22.32026286382552
 97
        0
 72
     4
 94
        3
 73
     0
 74
     0
 95
        8
 96
        4
 40
0.0
 40
0.0
 40
0.0
 40
0.0
 40
1.0
 40
1.0
 40
1.0
 40
1.0
 10
209.3756294899922
 20
22.32026286382552
 10
208.6788103972922
 20
22.32026286382552
 10
208.1144036878122
 20
22.61676359815101
 10
208.1144036878122
 20
23.37525533183452
 97
        0
 72
     4
 94
        3
 73
     0
 74
     0
 95
        8
 96
        4
 40
15.5
 40
15.5
 40
15.5
 40
15.5
 40
16.0
 40
16.0
 40
16.0
 40
16.0
 10
208.1144036878122
 20
23.37525533183452
 10
208.1144036878122
 20
23.37525533183452
 10
207.896645036155
 20
23.37525533183452
 10
207.6788863844922
 20
23.37525533183452
 97
        0
 72
     4
 94
        3
 73
     0
 74
     0
 95
       11
 96
        7
 40
14.0
 40
14.0
 40
14.0
 40
14.0
 40
14.5
 40
14.5
 40
14.5
 40
15.5
 40
15.5
 40
15.5
 40
15.5
 10
207.6788863844922
 20
23.37525533183452
 10
207.461127732835
 20
23.37525533183452
 10
207.2433690811649
 20
23.37525533183452
 10
207.2433690811649
 20
23.37525533183452
 10
207.264292128104
 20
22.15477259879299
 10
208.1840469302642
 20
21.61693455182285
 10
209.3198633402644
 20
21.61693455182285
 97
        0
 97
        0
 75
     1
 76
     1
 47
0.0244899890509677
 98
       14
 10
168.7701000259258
 20
27.57752061717019
 10
168.7701000259258
 20
27.57752061717019
 10
168.7701000259258
 20
27.57752061717019
 10
168.7701000259258
 20
27.57752061717019
 10
179.6934365530251
 20
26.29522446526244
 10
182.8956691935946
 20
25.52476879360256
 10
190.041386357725
 20
26.5026551392757
 10
190.041386357725
 20
26.5026551392757
 10
194.4889315208129
 20
26.5026551392757
 10
194.4889315208129
 20
26.5026551392757
 10
199.2922789423446
 20
26.4433896794335
 10
201.7829009087436
 20
25.85073195186669
 10
205.1037353283427
 20
26.35448992510374
 10
208.7803720063748
 20
22.08735491245625
450
        0
451
        0
460
0.0
461
0.0
452
        0
462
0.0
453
        2
463
0.0
 63
     5
421
      255
463
1.0
 63
     2
421
 16776960
470
LINEAR
1001
GradientColor1ACI
1070
     5
1001
GradientColor2ACI
1070
     2
1001
ACAD
1010
0.0
1020
0.0
1030
0.0
  0
MTEXT
  5
9B0
330
1F
100
AcDbEntity
  8
6文字层
100
AcDbMText
 10
201.4398604615744
 20
3.756543900079122
 30
0.0
 40
2.5
 41
17.84855769230755
 46
4.283653846153733
 71
     5
 72
     5
  1
{\fSimHei|b1|i0|c134|p49;200041}
 73
     1
 44
1.0
1001
AcDbBlockRepETag
1000

1001
ACAD
1000
ACAD_MTEXT_DEFINED_HEIGHT_BEGIN
1070
    46
1040
4.283653846153733
1000
ACAD_MTEXT_DEFINED_HEIGHT_END
  0
MTEXT
  5
9B1
330
1F
100
AcDbEntity
  8
6文字层
100
AcDbMText
 10
229.0745015352241
 20
11.90264048653148
 30
0.0
 40
2.5
 41
71.44564321082992
 46
4.283653846153733
 71
     5
 72
     5
  1
{\fSimHei|b1|i0|c134|p49;中远红外带通滤光片  中心波长4.68um\A1;  D=10.00mm }
 73
     1
 44
1.0
1001
AcDbBlockRepETag
1000

1001
ACAD
1000
ACAD_MTEXT_DEFINED_HEIGHT_BEGIN
1070
    46
1040
4.283653846153733
1000
ACAD_MTEXT_DEFINED_HEIGHT_END
  0
LINE
  5
9B2
330
1F
100
AcDbEntity
  8
6文字层
 62
     0
100
AcDbLine
 10
130.4812151628939
 20
0.7672034411471032
 30
0.0
 11
10.4812151628339
 21
0.7672034411452842
 31
0.0
  0
MTEXT
  5
9B3
102
{ACAD_XDICTIONARY
360
9B4
102
}
330
1F
100
AcDbEntity
  8
6文字层
100
AcDbMText
 10
4.523815160122467
 20
61.63139022220025
 30
0.0
 40
2.5
 41
114.6703060300538
 46
0.0
 71
     1
 72
     5
  1
\pxqj;{\fSimSun|b1|i0|c134|p49;\C1;注：\P1：本图仅供参考,禁止使用本图加工生产.\P2：图纸细节如有更改不再另行通知.}
  7
标准
 73
     1
 44
1.0
101
Embedded Object
 70
     1
 10
1.0
 20
0.0
 30
0.0
 11
4.523815160122467
 21
61.63139022220025
 31
0.0
 40
114.6703060300538
 41
0.0
 42
63.92857142857143
 43
12.28937728937729
 71
     2
 72
     1
 44
114.6703060300538
 45
1.0
 73
     0
 74
     0
 46
0.0
  0
MTEXT
  5
9B5
330
1F
100
AcDbEntity
  8
6文字层
100
AcDbMText
 10
9.60523333105084
 20
154.5183249723525
 30
0.0
 40
2.5
 41
73.0012707428877
 46
26.01190476190477
 71
     1
 72
     1
  1
\A1;{\fSimSun|b1|i0|c134|p34;\H1x;\W1;\P\H1x;注释： \P1.材料：蓝宝石 \P2.中心波长：4.68±0.05um\P3.半带宽：0.19±0.02um\P4.峰值透过率：≥80%\P5.倒边：保护性倒边\P6.截止吸收：T\H0.7x;\S^ max;\H1.42857x;<1%,T\H0.7x;\S^ avg;\H1.42857x;<0.1%@200~12000nm}
  7
TH-GBD2M
 73
     1
 44
1.0
  0
ACAD_TABLE
  5
9B6
102
{ACAD_XDICTIONARY
360
B88
102
}
330
1F
100
AcDbEntity
  8
2细线层
160
              3872
310
200F000061000000880000001D000000000000000000F03F0000000000000000000000000000000000000F863C131AC00000000000000000000000000000F03F000000000000000054EDECC2BC193A4000000000000000000000000000000000000000000000F03F0000000000000000000000000000000000000000000000
310
000000000000000000000000000000F03F0C00000016000000030000C30C000000170000000F0000000C00000012000000000000000C00000016000000030000C3B400000026000000CAB11CCBB17C4D40A8AAAAAAAAAA11C0000000000000000000000000000000000000000000000000000000000000F03F000000000000
310
F03F00000000000000000000000000000000530031000000000002000000010000000000000000000440000000000000F03F0000000000000000000000000000F03F0000000000000000000000000000000000000000010000000000000001000000220000008B5B534F000000A00000A93F000000000C0000001600000003
310
0000C30C000000170000000F0000000C00000012000000000000000C00000016000000030000C3B400000026000000ACD44AADD4BA5740A8AAAAAAAAAA11C0000000000000000000000000000000000000000000000000000000000000F03F000000000000F03F000000000000000000000000000000005300320000007500
310
02000000010000000000000000000440000000000000F03F0000000000000000000000000000F03F0000000000000000000000000000000000000000010000000000000001000000220000008B5B534F0000000000000000000000000C00000016000000030000C30C000000170000000F0000000C00000012000000000000
310
000C00000016000000030000C3B4000000260000007EF2277FF2C7314038844338848325C0000000000000000000000000000000000000000000000000000000000000F03F000000000000F03F00000000000000000000000000000000625FB6720000000002000000010000000000000000000440000000000000F03F0000
310
000000000000000000000000F03F0000000000000000000000000000000000000000010000000000000001000000220000008B5B534F000000A00000A93F000000000C00000016000000030000C30C000000170000000F0000000C00000012000000000000000C00000016000000030000C3B4000000260000001017711117
310
914C4071088770088725C0000000000000000000000000000000000000000000000000000000000000F03F000000000000F03F00000000000000000000000000000000735E62970000000002000000010000000000000000000440000000000000F03F0000000000000000000000000000F03F000000000000000000000000
310
0000000000000000010000000000000001000000220000008B5B534F000000A00000A93F000000000C00000016000000030000C30C000000170000000F0000000C00000012000000000000000C00000016000000030000C3B400000026000000888BB8888B48574071088770088725C0000000000000000000000000000000
310
000000000000000000000000000000F03F000000000000F03F00000000000000000000000000000000735E62970000000002000000010000000000000000000440000000000000F03F0000000000000000000000000000F03F0000000000000000000000000000000000000000010000000000000001000000220000008B5B
310
534F000000A00000A93F000000000C00000016000000030000C30C000000170000000F0000000C00000012000000000000000C00000016000000030000C3B400000026000000CDDEECCDDE0C3040E11FFEE11F1E31C0000000000000000000000000000000000000000000000000000000000000F03F000000000000F03F00
310
0000000000000000000000000000004951016DA65E000003000000010000000000000000000440000000000000F03F0000000000000000000000000000F03F0000000000000000000000000000000000000000010000000000000001000000220000008B5B534F000000A00000A93F0000826D0C00000016000000030000C3
310
0C000000170000000F0000000C00000012000000000000000C00000016000000030000C3B800000026000000ECCDDEECCD1E4C4054555555551531C0000000000000000000000000000000000000000000000000000000000000F03F000000000000F03F00000000000000000000000000000000380030002D003500300000
310
0005000000010000000000000000000440000000000000F03F0000000000000000000000000000F03F0000000000000000000000000000000000000000010000000000000001000000220000008B5B534F0000A93F00000000000000000C00000016000000030000C30C000000170000000F0000000C000000120000000000
310
00000C00000016000000030000C3B800000026000000F5666FF6660F574054555555551531C0000000000000000000000000000000000000000000000000000000000000F03F000000000000F03F00000000000000000000000000000000380030002D00350030000000050000000100000000000000000004400000000000
310
00F03F0000000000000000000000000000F03F0000000000000000000000000000000000000000010000000000000001000000220000008B5B534F0000000000006500000000000C00000016000000030000C30C000000170000000F0000000C00000012000000000000000C00000016000000030000C3B800000026000000
310
1D01122001922C40E22EEEE22E6E37C0000000000000000000000000000000000000000000000000000000000000F03F000000000000F03F000000000000000000000000000000001A904951E353845F0000000004000000010000000000000000000440000000000000F03F0000000000000000000000000000F03F000000
310
0000000000000000000000000000000000010000000000000001000000220000008B5B534F0000000000000000000000000C00000016000000030000C30C000000170000000F0000000C00000012000000000000000C00000016000000030000C3B400000026000000B7766BB776FB4C40AAAAAAAAAA6A37C0000000000000
310
000000000000000000000000000000000000000000000000F03F000000000000F03F00000000000000000000000000000000390030002500000003000000010000000000000000000440000000000000F03F0000000000000000000000000000F03F0000000000000000000000000000000000000000010000000000000001
310
000000220000008B5B534F000052F900000000000000000C00000016000000030000C30C000000170000000F0000000C00000012000000000000000C00000016000000030000C3B4000000260000005BBBB55BBB7D5740AAAAAAAAAA6A37C0000000000000000000000000000000000000000000000000000000000000F03F
310
000000000000F03F00000000000000000000000000000000390030002500000003000000010000000000000000000440000000000000F03F0000000000000000000000000000F03F0000000000000000000000000000000000000000010000000000000001000000220000008B5B534F0000000000000000000000000C0000
310
0016000000040000C30C000000170000000F0000000C00000012000000000000005400000020000000020000000000000000000000000000000000000000000000000000009999999999A95C400000000000000000000000000000000000000000000000000000000000000000000000000000F03F0C000000160000000400
310
00C30C000000170000000F0000000C0000001200000000000000540000002000000002000000000000000000000054555555555519C000000000000000009999999999A95C4054555555555519C0000000000000000000000000000000000000000000000000000000000000F03F0C00000016000000040000C30C00000017
310
0000000F0000000C0000001200000000000000540000002000000002000000000000000000000054555555555529C000000000000000009999999999A95C4054555555555529C0000000000000000000000000000000000000000000000000000000000000F03F0C00000016000000040000C30C000000170000000F000000
310
0C00000012000000000000005400000020000000020000000000000000000000FFFFFFFFFFFF32C000000000000000009999999999A95C40FFFFFFFFFFFF32C0000000000000000000000000000000000000000000000000000000000000F03F0C00000016000000040000C30C000000170000000F0000000C000000120000
310
0000000000540000002000000002000000000000000000000054555555555539C000000000000000009999999999A95C4054555555555539C0000000000000000000000000000000000000000000000000000000000000F03F0C00000016000000040000C30C000000170000000F0000000C00000012000000000000005400
310
00002000000002000000000000000000000000000000000000000000000000000000000000000000000054555555555539C0000000000000000000000000000000000000000000000000000000000000F03F0C00000016000000040000C30C000000170000000F0000000C0000001200000000000000540000002000000002
310
000000323333333353454000000000000000000000000000000000323333333353454054555555555539C0000000000000000000000000000000000000000000000000000000000000F03F0C00000016000000040000C30C000000170000000F0000000C000000120000000000000054000000200000000200000099999999
310
99A95340000000000000000000000000000000009999999999A9534054555555555539C0000000000000000000000000000000000000000000000000000000000000F03F0C00000016000000040000C30C000000170000000F0000000C00000012000000000000005400000020000000020000009999999999A95C40000000
310
000000000000000000000000009999999999A95C4054555555555539C0000000000000000000000000000000000000000000000000000000000000F03F0C00000016000000080000C30C00000017000000000000000C0000001200000000000000540000002000000002000000000000000000000000000000000000000000
310
00000000000000000000000000000000000000000000000000000000000000000000000000000000000000000000000000000000F03F080000001F000000
100
AcDbBlockReference
  2
*T33
 10
-6.518785566964652
 20
26.10053652080872
 30
0.0
100
AcDbTable
280
     0
342
7F
343
9F9
 11
1.0
 21
0.0
 31
0.0
 90
       22
 91
        4
 92
        3
 93
        3
 94
        0
 95
        0
 96
        0
280
     1
281
     1
141
6.333333333333332
141
6.333333333333332
141
6.333333333333332
141
6.333333333333332
142
42.64999999999999
142
36.0
142
36.0
171
     1
172
     0
173
     0
174
     0
175
     1
176
     1
 91
       48
178
     0
145
0.0
  7
表格
140
2.5
 92
        0
301
CELL_VALUE
 93
        7
 90
        0
 94
        0
300

302

304
ACVALUE_END
171
     1
172
     0
173
     0
174
     0
175
     1
176
     1
 91
   262201
178
     0
145
0.0
170
     5
  7
表格
 64
     3
140
2.5
 92
        0
301
CELL_VALUE
 93
        6
 90
        4
  1
{\fSimSun|b1|i0|c134|p34;S1}
 94
        0
300

302
{\fSimSun|b1|i0|c134|p34;S1}
304
ACVALUE_END
171
     1
172
     0
173
     0
174
     0
175
     1
176
     1
 91
   262201
178
     0
145
0.0
170
     5
  7
表格
 64
     3
140
2.5
 92
        0
301
CELL_VALUE
 93
        6
 90
        4
  1
{\fSimSun|b1|i0|c134|p34;S2}
 94
        0
300

302
{\fSimSun|b1|i0|c134|p34;S2}
304
ACVALUE_END
171
     1
172
     0
173
     0
174
     0
175
     1
176
     1
 91
   262201
178
     0
145
0.0
170
     5
  7
表格
 64
     3
140
2.5
 92
        0
301
CELL_VALUE
 93
        6
 90
        4
  1
{\fSimSun|b1|i0|c134|p34;形状}
 94
        0
300

302
{\fSimSun|b1|i0|c134|p34;形状}
304
ACVALUE_END
171
     1
172
     0
173
     0
174
     0
175
     1
176
     1
 91
   262201
178
     0
145
0.0
170
     5
  7
表格
 64
     3
140
2.5
 92
        0
301
CELL_VALUE
 93
        6
 90
        4
  1
{\fSimSun|b1|i0|c134|p34;平面}
 94
        0
300

302
{\fSimSun|b1|i0|c134|p34;平面}
304
ACVALUE_END
171
     1
172
     0
173
     0
174
     0
175
     1
176
     1
 91
   262201
178
     0
145
0.0
170
     5
  7
表格
 64
     3
140
2.5
 92
        0
301
CELL_VALUE
 93
        6
 90
        4
  1
{\fSimSun|b1|i0|c134|p34;平面}
 94
        0
300

302
{\fSimSun|b1|i0|c134|p34;平面}
304
ACVALUE_END
171
     1
172
     0
173
     0
174
     0
175
     1
176
     1
 91
   262201
178
     0
145
0.0
170
     5
  7
表格
 64
     3
140
2.5
 92
        0
301
CELL_VALUE
 93
        6
 90
        4
  1
{\fSimSun|b1|i0|c134|p34;光洁度}
 94
        0
300

302
{\fSimSun|b1|i0|c134|p34;光洁度}
304
ACVALUE_END
171
     1
172
     0
173
     0
174
     0
175
     1
176
     1
 91
   262201
178
     0
145
0.0
170
     5
  7
表格
 64
     3
140
2.5
 92
        0
301
CELL_VALUE
 93
        6
 90
        4
  1
{\fSimSun|b1|i0|c134|p34;80-50}
 94
        0
300

302
{\fSimSun|b1|i0|c134|p34;80-50}
304
ACVALUE_END
171
     1
172
     0
173
     0
174
     0
175
     1
176
     1
 91
   262201
178
     0
145
0.0
170
     5
  7
表格
 64
     3
140
2.5
 92
        0
301
CELL_VALUE
 93
        6
 90
        4
  1
{\fSimSun|b1|i0|c134|p34;80-50}
 94
        0
300

302
{\fSimSun|b1|i0|c134|p34;80-50}
304
ACVALUE_END
171
     1
172
     0
173
     0
174
     0
175
     1
176
     1
 91
   262201
178
     0
145
0.0
170
     5
  7
表格
 64
     3
140
2.5
 92
        0
301
CELL_VALUE
 93
        6
 90
        4
  1
{\fSimSun|b1|i0|c134|p34;通光口径}
 94
        0
300

302
{\fSimSun|b1|i0|c134|p34;通光口径}
304
ACVALUE_END
171
     1
172
     0
173
     0
174
     0
175
     1
176
     1
 91
   262201
178
     0
145
0.0
170
     5
  7
表格
 64
     3
140
2.5
 92
        0
301
CELL_VALUE
 93
        6
 90
        4
  1
{\fSimSun|b1|i0|c134|p34;90%}
 94
        0
300

302
{\fSimSun|b1|i0|c134|p34;90%}
304
ACVALUE_END
171
     1
172
     0
173
     0
174
     0
175
     1
176
     1
 91
   262201
178
     0
145
0.0
170
     5
  7
表格
 64
     3
140
2.5
 92
        0
301
CELL_VALUE
 93
        6
 90
        4
  1
{\fSimSun|b1|i0|c134|p34;90%}
 94
        0
300

302
{\fSimSun|b1|i0|c134|p34;90%}
304
ACVALUE_END
  0
ARC
  5
9B7
330
1F
100
AcDbEntity
  8
0
  6
Continuous
 62
     7
370
    25
100
AcDbCircle
 10
149.9257118696032
 20
113.6985430398986
 30
0.0
 40
23.99999999999999
100
AcDbArc
 50
0.0
 51
180.0
  0
ARC
  5
9B8
330
1F
100
AcDbEntity
  8
0
  6
Continuous
 62
     7
370
    25
100
AcDbCircle
 10
149.9257118696032
 20
113.6985430398986
 30
0.0
 40
23.99999999999999
100
AcDbArc
 50
180.0
 51
0.0
  0
ARC
  5
9B9
102
{ACAD_REACTORS
330
9CB
330
9D5
102
}
330
1F
100
AcDbEntity
  8
0
  6
Continuous
 62
     7
370
    25
100
AcDbCircle
 10
149.9257118696032
 20
113.6985430398986
 30
0.0
 40
24.99999999999999
100
AcDbArc
 50
0.0
 51
180.0
  0
ARC
  5
9BA
330
1F
100
AcDbEntity
  8
0
  6
Continuous
 62
     7
370
    25
100
AcDbCircle
 10
149.9257118696032
 20
113.6985430398986
 30
0.0
 40
24.99999999999999
100
AcDbArc
 50
180.0
 51
0.0
  0
LINE
  5
9BB
330
1F
100
AcDbEntity
  8
0
  6
Continuous
 62
     7
370
    25
100
AcDbLine
 10
222.6815930577031
 20
138.6985430398985
 30
0.0
 11
221.6815930577031
 21
137.6985430398985
 31
0.0
  0
LINE
  5
9BC
330
1F
100
AcDbEntity
  8
0
  6
Continuous
 62
     7
370
    25
100
AcDbLine
 10
221.6815930577031
 20
89.69854303989858
 30
0.0
 11
222.6815930577031
 21
88.69854303989859
 31
0.0
  0
LINE
  5
9BD
102
{ACAD_REACTORS
330
9DA
102
}
330
1F
100
AcDbEntity
  8
0
  6
Continuous
 62
     7
370
    25
100
AcDbLine
 10
225.6815930577031
 20
138.6985430398985
 30
0.0
 11
222.6815930577031
 21
138.6985430398985
 31
0.0
  0
LINE
  5
9BE
102
{ACAD_REACTORS
330
9DB
102
}
330
1F
100
AcDbEntity
  8
0
  6
Continuous
 62
     7
370
    25
100
AcDbLine
 10
222.6815930577031
 20
88.69854303989859
 30
0.0
 11
225.6815930577031
 21
88.69854303989859
 31
0.0
  0
LINE
  5
9BF
330
1F
100
AcDbEntity
  8
0
  6
Continuous
 62
     7
370
    25
100
AcDbLine
 10
225.6815930577031
 20
88.69854303989859
 30
0.0
 11
226.6815930577032
 21
89.69854303989858
 31
0.0
  0
LINE
  5
9C0
330
1F
100
AcDbEntity
  8
0
  6
Continuous
 62
     7
370
    25
100
AcDbLine
 10
226.6815930577032
 20
137.6985430398985
 30
0.0
 11
225.6815930577031
 21
138.6985430398985
 31
0.0
  0
LINE
  5
9C1
330
1F
100
AcDbEntity
  8
0
  6
Continuous
 62
     7
370
    25
100
AcDbLine
 10
222.6815930577031
 20
138.6985430398985
 30
0.0
 11
222.6815930577031
 21
113.6985430398986
 31
0.0
  0
LINE
  5
9C2
102
{ACAD_REACTORS
330
9E5
330
9E2
102
}
330
1F
100
AcDbEntity
  8
0
  6
Continuous
 62
     7
370
    25
100
AcDbLine
 10
221.6815930577031
 20
113.6985430398986
 30
0.0
 11
221.6815930577031
 21
137.6985430398985
 31
0.0
  0
LINE
  5
9C3
330
1F
100
AcDbEntity
  8
0
  6
Continuous
 62
     7
370
    25
100
AcDbLine
 10
222.6815930577031
 20
113.6985430398986
 30
0.0
 11
222.6815930577031
 21
88.69854303989859
 31
0.0
  0
LINE
  5
9C4
330
1F
100
AcDbEntity
  8
0
  6
Continuous
 62
     7
370
    25
100
AcDbLine
 10
221.6815930577031
 20
89.69854303989858
 30
0.0
 11
221.6815930577031
 21
113.6985430398986
 31
0.0
  0
LINE
  5
9C5
330
1F
100
AcDbEntity
  8
0
  6
Continuous
 62
     7
370
    25
100
AcDbLine
 10
225.6815930577031
 20
113.6985430398986
 30
0.0
 11
225.6815930577031
 21
138.6985430398985
 31
0.0
  0
LINE
  5
9C6
330
1F
100
AcDbEntity
  8
0
  6
Continuous
 62
     7
370
    25
100
AcDbLine
 10
225.6815930577031
 20
88.69854303989859
 30
0.0
 11
225.6815930577031
 21
113.6985430398986
 31
0.0
  0
LINE
  5
9C7
330
1F
100
AcDbEntity
  8
0
  6
Continuous
 62
     7
370
    25
100
AcDbLine
 10
226.6815930577032
 20
113.6985430398986
 30
0.0
 11
226.6815930577032
 21
89.69854303989858
 31
0.0
  0
LINE
  5
9C8
102
{ACAD_REACTORS
330
9E4
330
9E1
102
}
330
1F
100
AcDbEntity
  8
0
  6
Continuous
 62
     7
370
    25
100
AcDbLine
 10
226.6815930577032
 20
137.6985430398985
 30
0.0
 11
226.6815930577032
 21
113.6985430398986
 31
0.0
  0
DIMENSION
  5
9C9
102
{ACAD_XDICTIONARY
360
9CA
102
}
102
{ACAD_REACTORS
330
9CB
102
}
330
1F
100
AcDbEntity
  8
7标注层
100
AcDbDimension
280
     0
  2
*D34
 10
131.6799391311009
 20
96.60785033378171
 30
0.0
 11
188.2989827242083
 21
142.3744365973754
 31
0.0
 70
   163
  1
<> {\H0.7x;\S 0.00^ -0.20;}
 71
     5
 42
9.999999999999966
 73
     0
 74
     0
 75
     0
  3
ISO-25_2.0
100
AcDbDiametricDimension
 15
168.1714846081057
 25
130.7892357460155
 35
0.0
 40
0.0
1001
ACAD_DSTYLE_DIMRADIAL_EXTENSION
1070
   387
1070
     1
1070
   388
1040
0.0
1070
   390
1040
3.141592653589793
  0
DIMENSION
  5
9CC
102
{ACAD_REACTORS
330
9E3
102
}
330
1F
100
AcDbEntity
  8
7标注层
100
AcDbDimension
280
     0
  2
*D35
 10
221.6815930577031
 20
142.2635331342325
 30
0.0
 11
208.8689007500108
 21
144.1693023650017
 31
0.0
 70
    32
  1
<>%%p0.20
 71
     5
 42
1.000000000000022
 73
     0
 74
     0
 75
     0
  3
ISO-25_2.0
100
AcDbAlignedDimension
 13
226.6815930577032
 23
137.6985430398985
 33
0.0
 14
221.6815930577031
 24
137.6985430398985
 34
0.0
 50
359.9999999999999
100
AcDbRotatedDimension
  0
INSERT
  5
9CD
102
{ACAD_REACTORS
330
9D6
102
}
330
1F
100
AcDbEntity
  8
3中心线层
  6
CENTER2
100
AcDbBlockReference
  2
*U32
 10
149.9257118696032
 20
113.6985430398986
 30
0.0
  0
INSERT
  5
9CE
102
{ACAD_REACTORS
330
9DC
102
}
330
1F
100
AcDbEntity
  8
3中心线层
  6
CENTER2
100
AcDbBlockReference
  2
*U31
 10
224.1815930577031
 20
113.6985430398985
 30
0.0
  0
MULTILEADER
  5
9CF
330
1F
100
AcDbEntity
  8
7标注层
160
               712
310
C80200001A0000000C00000016000000030000C30C00000033000000000000000C00000013000000993A00000C00000016000000030000C3BC00000026000000145D1243AEA06A4036DA850A6C2A5F40000000000000000000000000000000000000000000000000000000000000F03F000000000000F03F00000000000000
310
0000000000000000005300310000000000020000000100000000000000000004409A9999999999E93F0000000000000000000000000000F03F000000000000000000000000000000000000000000000000000000000100000022000000430061006C00690062007200690000000000F03F000000000C000000330000000000
310
00000C00000010000000070000000C00000016000000000000C00C00000012000000FF7F00000C00000013000000010000000C0000001400000001000000540000000700000003000000B0E6DF92228F6B408147B95971645D4000000000000000007E803E9CCFB56B409FCDDDEDB46C5C40000000000000000066CD4B5F0D
310
696B403483F3ECF63D5D4000000000000000000C00000014000000010000000C00000013000000891300003C00000006000000020000000BDA15F9177C6B405A65562334515D4000000000000000003EED47CFA40C6B4030DA850A6C0A5F4000000000000000000C00000013000000112700003C0000000600000002000000
310
3EED47CFA40C6B4030DA850A6C0A5F4000000000000000003EED47CFA4FC6A4030DA850A6C0A5F4000000000000000000C00000016000000000000C00C00000012000000FF7F00000C00000017000000000000000C000000130000009A3A00003C00000006000000020000001D0F99142DA46A4030DA850A6C0A5F40000000
310
00000000003EED47CFA4FC6A4030DA850A6C0A5F4000000000000000000C00000016000000000000C00C00000012000000FF7F00000C00000017000000FFFFFFFF0C0000003300000000000000
100
AcDbMLeader
270
     2
300
CONTEXT_DATA{
 40
1.0
 10
213.1305029859003
 20
124.1628443057204
 30
0.0
 41
2.5
140
4.0
145
0.0
174
     5
175
     5
176
     2
177
     0
290
     1
304
S1
 11
0.0
 21
0.0
 31
1.0
340
2CB
 12
215.8951183705156
 22
127.1878443057205
 32
0.0
 13
1.0
 23
0.0
 33
0.0
 42
0.0
 43
0.0
 44
0.0
 45
1.0
170
     1
 90
-1023410173
171
     3
172
     5
 91
-1073741824
141
0.0
 92
        0
291
     0
292
     0
173
     0
293
     0
142
0.0
143
0.0
294
     0
295
     0
296
     0
110
221.5127865930284
120
113.9196817579553
130
0.0
111
1.0
121
0.0
131
0.0
112
0.0
122
1.0
132
0.0
297
     0
302
LEADER{
290
     1
291
     1
 10
216.3951183705157
 20
124.1628443057204
 30
0.0
 11
-1.0
 21
0.0
 31
0.0
 90
        0
 40
0.5
304
LEADER_LINE{
 10
221.6815930577031
 20
113.6985430398986
 30
0.0
 91
        0
305
}
271
     0
303
}
272
     9
273
     9
301
}
340
917
 90
   279552
170
     1
 91
-1073741824
341
14
171
    -2
290
     1
291
     1
 41
0.5
 42
4.0
172
     2
343
2CB
173
     5
 95
        5
174
     1
175
     2
 92
-1023410173
292
     0
 93
-1056964608
 10
1.0
 20
1.0
 30
1.0
 43
0.0
176
     0
293
     0
294
     0
178
     0
179
     3
 45
1.0
271
     0
272
     9
273
     9
295
     0
  0
MULTILEADER
  5
9D0
330
1F
100
AcDbEntity
  8
7标注层
160
               712
310
C80200001A0000000C00000016000000030000C30C00000033000000000000000C00000013000000993A00000C00000016000000030000C3BC00000026000000A5C9CD310A076D405260A7888B1B5F40000000000000000000000000000000000000000000000000000000000000F03F000000000000F03F00000000000000
310
0000000000000000005300320000000000020000000100000000000000000004409A9999999999E93F0000000000000000000000000000F03F000000000000000000000000000000000000000000000000000000000100000022000000430061006C00690062007200690000000000F03F000000000C000000330000000000
310
00000C00000010000000070000000C00000016000000000000C00C00000012000000FF7F00000C00000013000000010000000C0000001400000001000000540000000700000003000000B480292265A26C40DAD0536B383E5D40000000000000000082803E9CCF556C409FCDDDEDB46C5C400000000000000000935D78BA47
310
7C6C40F06FB54C92645D4000000000000000000C00000014000000010000000C00000013000000891300003C000000060000000200000024EF506E568F6C4065A0045C65515D400000000000000000A87B540389FA6C405460A7888BFB5E4000000000000000000C00000013000000122700003C0000000600000002000000
310
A87B540389FA6C405460A7888BFB5E400000000000000000A87B5403890A6D405460A7888BFB5E4000000000000000000C00000016000000000000C00C00000012000000FF7F00000C00000017000000000000000C000000130000009A3A00003C0000000600000002000000A87B5403890A6D405460A7888BFB5E40000000
310
0000000000609AD9EEDA626D405460A7888BFB5E4000000000000000000C00000016000000000000C00C00000012000000FF7F00000C00000017000000FFFFFFFF0C0000003300000000000000
100
AcDbMLeader
270
     2
300
CONTEXT_DATA{
 40
1.0
 10
232.3292252206859
 20
123.9303914675268
 30
0.0
 41
2.5
140
4.0
145
0.0
174
     5
175
     5
176
     2
177
     0
290
     1
304
S2
 11
0.0
 21
0.0
 31
1.0
340
2CB
 12
235.0892252206859
 22
126.9553914675268
 32
0.0
 13
1.0
 23
0.0
 33
0.0
 42
0.0
 43
0.0
 44
0.0
 45
1.0
170
     1
 90
-1023410173
171
     3
172
     5
 91
-1073741824
141
0.0
 92
        0
291
     0
292
     0
173
     0
293
     0
142
0.0
143
0.0
294
     0
295
     0
296
     0
110
244.4083648370328
120
115.0634806566453
130
0.0
111
1.0
121
0.0
131
0.0
112
0.0
122
1.0
132
0.0
297
     0
302
LEADER{
290
     1
291
     1
 10
231.8292252206859
 20
123.9303914675268
 30
0.0
 11
1.0
 21
0.0
 31
0.0
 90
        1
 40
0.5
304
LEADER_LINE{
 10
226.6815930577032
 20
113.6985430398986
 30
0.0
 91
        0
305
}
271
     0
303
}
272
     9
273
     9
301
}
340
917
 90
   279552
170
     1
 91
-1073741824
341
14
171
    -2
290
     1
291
     1
 41
0.5
 42
4.0
172
     2
343
2CB
173
     5
 95
        5
174
     1
175
     2
 92
-1023410173
292
     0
 93
-1056964608
 10
1.0
 20
1.0
 30
1.0
 43
0.0
176
     0
293
     0
294
     0
178
     0
179
     3
 45
1.0
271
     0
272
     9
273
     9
295
     0
  0
ENDSEC
  0
SECTION
  2
OBJECTS
  0
DICTIONARY
  5
C
330
0
100
AcDbDictionary
281
     1
  3
ACAD_ASSOCNETWORK
350
71F
  3
ACAD_CIP_PREVIOUS_PRODUCT_INFO
350
216
  3
ACAD_COLOR
350
6B
  3
ACAD_DETAILVIEWSTYLE
350
21B
  3
ACAD_GROUP
350
D
  3
ACAD_LAYOUT
350
1A
  3
ACAD_MATERIAL
350
6A
  3
ACAD_MLEADERSTYLE
350
12D
  3
ACAD_MLINESTYLE
350
17
  3
ACAD_PLOTSETTINGS
350
19
  3
ACAD_PLOTSTYLENAME
350
E
  3
ACAD_RENDER_ACTIVE_RAPIDRT_SETTINGS
350
50F
  3
ACAD_RENDER_RAPIDRT_SETTINGS
350
508
  3
ACAD_SCALELIST
350
10C
  3
ACAD_SECTIONVIEWSTYLE
350
219
  3
ACAD_TABLESTYLE
350
7E
  3
ACAD_VISUALSTYLE
350
EF
  3
ACDB_RECOMPOSE_DATA
350
B8A
  3
AcDbVariableDictionary
350
5E
  0
DICTIONARY
  5
1FF
330
2
100
AcDbDictionary
280
     1
281
     1
  3
ACAD_LAYERSTATES
360
200
  0
DICTIONARY
  5
13C
330
10
100
AcDbDictionary
280
     1
281
     1
  0
DICTIONARY
  5
2BB
330
2BA
100
AcDbDictionary
280
     1
281
     1
  0
DICTIONARY
  5
2BD
330
2BC
100
AcDbDictionary
280
     1
281
     1
  0
DICTIONARY
  5
2C0
330
2BF
100
AcDbDictionary
280
     1
281
     1
  0
DICTIONARY
  5
2C2
330
2C1
100
AcDbDictionary
280
     1
281
     1
  0
DICTIONARY
  5
2C4
330
2C3
100
AcDbDictionary
280
     1
281
     1
  0
DICTIONARY
  5
2C6
330
2C5
100
AcDbDictionary
280
     1
281
     1
  0
DICTIONARY
  5
2C8
330
2C7
100
AcDbDictionary
280
     1
281
     1
  0
DICTIONARY
  5
1CE
330
1F
100
AcDbDictionary
280
     1
281
     1
  3
ACAD_ASSOCNETWORK
360
8A7
  0
DICTIONARY
  5
706
330
6C1
100
AcDbDictionary
280
     1
281
     1
  3
ACAD_ASSOCNETWORK
360
71D
  0
DICTIONARY
  5
6D0
330
6CF
100
AcDbDictionary
280
     1
281
     1
  0
DICTIONARY
  5
6D2
330
6D1
100
AcDbDictionary
280
     1
281
     1
  3
AcDbContextDataManager
360
6D3
  0
DICTIONARY
  5
9B4
330
9B3
100
AcDbDictionary
280
     1
281
     1
  0
DICTIONARY
  5
B88
330
9B6
100
AcDbDictionary
280
     1
281
     1
  3
ACAD_XREC_ROUNDTRIP
360
B89
  0
DICTIONARY
  5
9CA
330
9C9
100
AcDbDictionary
280
     1
281
     1
  3
ACAD_DIMASSOC
360
9CB
  0
DICTIONARY
  5
71F
102
{ACAD_REACTORS
330
C
102
}
330
C
100
AcDbDictionary
281
     1
  3
ACAD_ASSOCNETWORK
350
720
  0
XRECORD
  5
216
102
{ACAD_REACTORS
330
C
102
}
330
C
100
AcDbXrecord
280
     1
300
ACD
300
2021
300

  0
DICTIONARY
  5
6B
102
{ACAD_REACTORS
330
C
102
}
330
C
100
AcDbDictionary
281
     1
  0
DICTIONARY
  5
21B
102
{ACAD_REACTORS
330
C
102
}
330
C
100
AcDbDictionary
281
     1
  3
Metric50
350
21C
  0
DICTIONARY
  5
D
102
{ACAD_REACTORS
330
C
102
}
330
C
100
AcDbDictionary
281
     1
  0
DICTIONARY
  5
1A
102
{ACAD_REACTORS
330
C
102
}
330
C
100
AcDbDictionary
281
     1
  3
Model
350
22
  3
布局1
350
D3
  3
布局2
350
D7
  0
DICTIONARY
  5
6A
102
{ACAD_REACTORS
330
C
102
}
330
C
100
AcDbDictionary
281
     1
  3
ByBlock
350
ED
  3
ByLayer
350
EC
  3
Global
350
EE
  0
DICTIONARY
  5
12D
102
{ACAD_REACTORS
330
C
102
}
330
C
100
AcDbDictionary
281
     1
  3
Annotative
350
13B
  3
Standard
350
12E
  3
箭头引线标注
350
917
  0
DICTIONARY
  5
17
102
{ACAD_REACTORS
330
C
102
}
330
C
100
AcDbDictionary
281
     1
  3
Standard
350
18
  0
DICTIONARY
  5
19
102
{ACAD_REACTORS
330
C
102
}
330
C
100
AcDbDictionary
281
     1
  0
ACDBDICTIONARYWDFLT
  5
E
102
{ACAD_REACTORS
330
C
102
}
330
C
100
AcDbDictionary
281
     1
  3
Normal
350
F
100
AcDbDictionaryWithDefault
340
F
  0
RAPIDRTRENDERSETTINGS
  5
50F
102
{ACAD_REACTORS
330
C
102
}
330
C
100
AcDbRenderSettings
 90
        2
  1
中
290
     1
290
     0
290
     1
290
     1
  1

  1
应用 5 个渲染级别
 90
        0
100
AcDbRapidRTRenderSettings
 90
        3
 70
     0
 90
        5
 90
        1
 70
     1
 70
     2
 40
3.0
 40
3.0
290
     1
  0
DICTIONARY
  5
508
102
{ACAD_REACTORS
330
C
102
}
330
C
100
AcDbDictionary
281
     1
  3
中
350
50A
  3
低
350
509
  3
午餐质量
350
50D
  3
夜间质量
350
50E
  3
茶歇质量
350
50C
  3
高
350
50B
  0
DICTIONARY
  5
10C
102
{ACAD_REACTORS
330
C
102
}
330
C
100
AcDbDictionary
281
     1
  3
A0
350
10D
  3
A1
350
1BE
  3
A2
350
1BF
  3
A3
350
1C0
  3
A4
350
1C1
  3
A5
350
1C2
  3
A6
350
1C3
  3
A7
350
1C4
  3
A8
350
1C5
  3
A9
350
1C6
  3
B0
350
1C7
  3
B1
350
1C8
  3
B2
350
1C9
  3
B3
350
1CA
  3
B4
350
1CB
  3
B5
350
1CC
  3
B6
350
1CD
  0
DICTIONARY
  5
219
102
{ACAD_REACTORS
330
C
102
}
330
C
100
AcDbDictionary
281
     1
  3
Metric50
350
21A
  0
DICTIONARY
  5
7E
102
{ACAD_REACTORS
330
C
102
}
330
C
100
AcDbDictionary
281
     1
  3
Standard
350
7F
  0
DICTIONARY
  5
EF
102
{ACAD_REACTORS
330
C
102
}
330
C
100
AcDbDictionary
281
     1
  3
2dWireframe
350
F5
  3
Basic
350
F4
  3
Brighten
350
FB
  3
ColorChange
350
FF
  3
Conceptual
350
F8
  3
Dim
350
FA
  3
EdgeColorOff
350
1E6
  3
Facepattern
350
FE
  3
Flat
350
F0
  3
FlatWithEdges
350
F1
  3
Gouraud
350
F2
  3
GouraudWithEdges
350
F3
  3
Hidden
350
F7
  3
JitterOff
350
1E4
  3
Linepattern
350
FD
  3
OverhangOff
350
1E5
  3
Realistic
350
F9
  3
Shaded
350
1F3
  3
Shaded with edges
350
1F2
  3
Shades of Gray
350
1EF
  3
Sketchy
350
1F0
  3
Thicken
350
FC
  3
Wireframe
350
F6
  3
X-Ray
350
1F1
  0
XRECORD
  5
B8A
102
{ACAD_REACTORS
330
C
102
}
330
C
100
AcDbXrecord
280
     1
 90
        1
330
7F
330
70B
330
9B6
330
9E0
  0
DICTIONARY
  5
5E
102
{ACAD_REACTORS
330
C
102
}
330
C
100
AcDbDictionary
281
     1
  3
CANNOSCALE
350
146
  3
CENTEREXE
350
259
  3
CENTERLTYPEFILE
350
25A
  3
CMLEADERSTYLE
350
145
  3
CTABLESTYLE
350
84
  3
CVIEWDETAILSTYLE
350
227
  3
CVIEWSECTIONSTYLE
350
228
  3
DIMASSOC
350
5F
  3
HIDETEXT
350
63
  3
LAYEREVAL
350
1AE
  3
LAYERNOTIFY
350
1AF
  0
DICTIONARY
  5
200
102
{ACAD_REACTORS
330
1FF
102
}
330
1FF
100
AcDbDictionary
281
     1
  0
DICTIONARY
  5
8A7
102
{ACAD_REACTORS
330
1CE
102
}
330
1CE
100
AcDbDictionary
281
     1
  3
ACAD_ASSOCNETWORK
350
8A8
  0
DICTIONARY
  5
71D
102
{ACAD_REACTORS
330
706
102
}
330
706
100
AcDbDictionary
281
     1
  3
ACAD_ASSOCNETWORK
350
71E
  0
DICTIONARY
  5
6D3
102
{ACAD_REACTORS
330
6D2
102
}
330
6D2
100
AcDbDictionary
281
     1
  3
ACDB_ANNOTATIONSCALES
350
6D4
  0
XRECORD
  5
B89
102
{ACAD_REACTORS
330
B88
102
}
330
B88
100
AcDbXrecord
280
     1
102
ACAD_ROUNDTRIP_2008_TABLE_ENTITY
360
B86
 70
     2
 90
        1
 10
0.0
 20
0.0
 30
0.0
 90
        0
 90
        3
361
B87
  0
DIMASSOC
  5
9CB
102
{ACAD_REACTORS
330
9CA
102
}
330
9CA
100
AcDbDimAssoc
330
9C9
 90
        2
 70
     0
 71
     0
  1
AcDbOsnapPointRef
 72
     3
331
9B9
 73
     2
 91
        0
 40
0.0
 10
0.0
 20
0.0
 30
0.0
 75
     0
  0
ACDBASSOCNETWORK
  5
720
102
{ACAD_REACTORS
330
71F
102
}
330
71F
100
AcDbAssocAction
 90
        2
 90
        0
330
0
360
0
 90
        0
 90
        0
 90
        0
 90
        0
 90
        0
 90
        0
 90
        0
100
AcDbAssocNetwork
 90
        0
 90
        5
 90
        2
330
71E
330
8A8
 90
        0
  0
ACDBDETAILVIEWSTYLE
  5
21C
102
{ACAD_REACTORS
330
21B
102
}
330
21B
100
AcDbModelDocViewStyle
 70
     0
  3
Metric50
290
     0
300
Metric50
 90
        0
100
AcDbDetailViewStyle
 70
     0
 71
     0
 90
        3
 71
     1
340
11
 62
   256
 40
5.0
340
0
 62
   256
 40
5.0
300

 40
0.0
280
     1
 71
     2
340
16
 90
       25
 62
   256
 71
     3
340
11
 62
   256
 40
5.0
 90
        0
 40
15.0
 90
        1
300
%<\AcVar ViewDetailId>% (%<\AcVar ViewScale \f "%sn">%)
 71
     4
340
16
 90
       25
 62
   256
340
16
 90
       25
 62
   256
280
     0
  0
LAYOUT
  5
22
102
{ACAD_XDICTIONARY
360
205
102
}
102
{ACAD_REACTORS
330
1A
102
}
330
1A
100
AcDbPlotSettings
  1

  2
none_device
  4
ISO_A4_(210.00_x_297.00_MM)
  6

 40
7.5
 41
20.0
 42
7.5
 43
20.0
 44
210.0
 45
297.0
 46
11.54999923706054
 47
-13.65000009536743
 48
0.0
 49
0.0
140
0.0
141
0.0
142
1.0
143
8.704084754739808
 70
 11952
 72
     1
 73
     0
 74
     0
  7

 75
     0
147
0.1148885871608098
 76
     0
 77
     2
 78
   300
148
0.0
149
0.0
100
AcDbLayout
  1
Model
 70
     1
 71
     0
 10
0.0
 20
0.0
 11
12.0
 21
9.0
 12
0.0
 22
0.0
 32
0.0
 14
0.0
 24
0.0
 34
0.0
 15
0.0
 25
0.0
 35
0.0
146
0.0
 13
0.0
 23
0.0
 33
0.0
 16
1.0
 26
0.0
 36
0.0
 17
0.0
 27
1.0
 37
0.0
 76
     0
330
1F
331
EA
1001
ACAD_PSEXT
1000
None
1000
None
1000
Not applicable
1000
The layout will not be plotted unless a new plotter configuration name is selected.
1070
     0
  0
LAYOUT
  5
D3
102
{ACAD_REACTORS
330
1A
102
}
330
1A
100
AcDbPlotSettings
  1

  2
C:\Documents and Settings\basas\Application Data\Autodesk\AutoCAD 2005\R16.1\enu\plotters\Default Windows System Printer.pc3
  4

  6

 40
0.0
 41
0.0
 42
0.0
 43
0.0
 44
0.0
 45
0.0
 46
0.0
 47
0.0
 48
0.0
 49
0.0
140
0.0
141
0.0
142
1.0
143
1.0
 70
   688
 72
     0
 73
     0
 74
     5
  7

 75
    16
147
1.0
 76
     0
 77
     2
 78
   300
148
0.0
149
0.0
100
AcDbLayout
  1
布局1
 70
     1
 71
     1
 10
0.0
 20
0.0
 11
12.0
 21
9.0
 12
0.0
 22
0.0
 32
0.0
 14
0.0
 24
0.0
 34
0.0
 15
0.0
 25
0.0
 35
0.0
146
0.0
 13
0.0
 23
0.0
 33
0.0
 16
1.0
 26
0.0
 36
0.0
 17
0.0
 27
1.0
 37
0.0
 76
     0
330
D2
  0
LAYOUT
  5
D7
102
{ACAD_REACTORS
330
1A
102
}
330
1A
100
AcDbPlotSettings
  1

  2
C:\Documents and Settings\basas\Application Data\Autodesk\AutoCAD 2005\R16.1\enu\plotters\Default Windows System Printer.pc3
  4

  6

 40
0.0
 41
0.0
 42
0.0
 43
0.0
 44
0.0
 45
0.0
 46
0.0
 47
0.0
 48
0.0
 49
0.0
140
0.0
141
0.0
142
1.0
143
1.0
 70
   688
 72
     0
 73
     0
 74
     5
  7

 75
    16
147
1.0
 76
     0
 77
     2
 78
   300
148
0.0
149
0.0
100
AcDbLayout
  1
布局2
 70
     1
 71
     2
 10
0.0
 20
0.0
 11
12.0
 21
9.0
 12
0.0
 22
0.0
 32
0.0
 14
0.0
 24
0.0
 34
0.0
 15
0.0
 25
0.0
 35
0.0
146
0.0
 13
0.0
 23
0.0
 33
0.0
 16
1.0
 26
0.0
 36
0.0
 17
0.0
 27
1.0
 37
0.0
 76
     0
330
D6
  0
MATERIAL
  5
ED
102
{ACAD_XDICTIONARY
360
1F9
102
}
102
{ACAD_REACTORS
330
6A
102
}
330
6A
100
AcDbMaterial
  1
ByBlock
 94
       63
  0
MATERIAL
  5
EC
102
{ACAD_XDICTIONARY
360
1F7
102
}
102
{ACAD_REACTORS
330
6A
102
}
330
6A
100
AcDbMaterial
  1
ByLayer
 94
       63
  0
MATERIAL
  5
EE
102
{ACAD_XDICTIONARY
360
173
102
}
102
{ACAD_REACTORS
330
6A
102
}
330
6A
100
AcDbMaterial
  1
Global
 43
0.0007999999797903
 43
0.0
 43
0.0
 43
0.0
 43
0.0
 43
0.0007999999797903
 43
0.0
 43
0.0
 43
0.0
 43
0.0
 43
1.0
 43
0.0
 43
0.0
 43
0.0
 43
0.0
 43
1.0
 49
0.0007999999797903
 49
0.0
 49
0.0
 49
0.0
 49
0.0
 49
0.0007999999797903
 49
0.0
 49
0.0
 49
0.0
 49
0.0
 49
1.0
 49
0.0
 49
0.0
 49
0.0
 49
0.0
 49
1.0
142
0.0007999999797903
142
0.0
142
0.0
142
0.0
142
0.0
142
0.0007999999797903
142
0.0
142
0.0
142
0.0
142
0.0
142
1.0
142
0.0
142
0.0
142
0.0
142
0.0
142
1.0
144
0.0007999999797903
144
0.0
144
0.0
144
0.0
144
0.0
144
0.0007999999797903
144
0.0
144
0.0
144
0.0
144
0.0
144
1.0
144
0.0
144
0.0
144
0.0
144
0.0
144
1.0
 94
       63
1001
ACAD
1070
    -1
1070
     3
1070
     0
1000

1071
        0
1070
     0
  0
MLEADERSTYLE
  5
13B
102
{ACAD_REACTORS
330
12D
102
}
330
12D
100
AcDbMLeaderStyle
179
     2
170
     2
171
     1
172
     0
 90
        2
 40
0.0
 41
0.0
173
     1
 91
-1056964608
340
14
 92
       -2
290
     1
 42
2.0
291
     1
 43
8.0
  3
Standard
 44
4.0
300

342
11
174
     1
178
     1
175
     1
176
     0
 93
-1056964608
 45
4.0
292
     0
297
     0
 46
4.0
 94
-1056964608
 47
1.0
 49
1.0
140
1.0
293
     1
141
0.0
294
     1
177
     0
142
1.0
295
     0
296
     1
143
3.75
271
     0
272
     9
273
     9
298
     0
  0
MLEADERSTYLE
  5
12E
102
{ACAD_REACTORS
330
12D
102
}
330
12D
100
AcDbMLeaderStyle
179
     2
170
     2
171
     1
172
     0
 90
        2
 40
0.0
 41
0.0
173
     1
 91
-1056964608
340
14
 92
       -2
290
     1
 42
2.0
291
     1
 43
8.0
  3
Standard
 44
4.0
300

342
11
174
     1
178
     1
175
     1
176
     0
 93
-1056964608
 45
4.0
292
     0
297
     0
 46
4.0
 94
-1056964608
 47
1.0
 49
1.0
140
1.0
293
     1
141
0.0
294
     1
177
     0
142
1.0
295
     0
296
     0
143
3.75
271
     0
272
     9
273
     9
298
     0
  0
MLEADERSTYLE
  5
917
102
{ACAD_REACTORS
330
954
330
955
330
12D
330
9CF
330
9D0
102
}
330
12D
100
AcDbMLeaderStyle
179
     2
170
     2
171
     1
172
     0
 90
        2
 40
0.0
 41
0.0
173
     1
 91
-1073741824
340
14
 92
       -2
290
     1
 42
0.0
291
     1
 43
0.5
  3
Standard
 44
4.0
300

342
2CB
174
     5
178
     5
175
     1
176
     0
 93
-1023410173
 45
2.5
292
     0
297
     1
 46
0.18
 94
-1056964608
 47
1.0
 49
1.0
140
1.0
293
     1
141
0.0
294
     1
177
     0
142
1.0
295
     0
296
     0
143
1.0
271
     0
272
     9
273
     9
298
     0
  0
MLINESTYLE
  5
18
102
{ACAD_REACTORS
330
17
102
}
330
17
100
AcDbMlineStyle
  2
STANDARD
 70
     0
  3

 62
   256
 51
90.0
 52
90.0
 71
     2
 49
0.5
 62
   256
  6
BYLAYER
 49
-0.5
 62
   256
  6
BYLAYER
  0
ACDBPLACEHOLDER
  5
F
102
{ACAD_REACTORS
330
E
102
}
330
E
  0
RAPIDRTRENDERSETTINGS
  5
50A
102
{ACAD_REACTORS
330
508
102
}
330
508
100
AcDbRenderSettings
 90
        2
  1
中
290
     1
290
     0
290
     1
290
     1
  1

  1
应用 5 个渲染级别
 90
        1
100
AcDbRapidRTRenderSettings
 90
        3
 70
     0
 90
        5
 90
        1
 70
     1
 70
     2
 40
3.0
 40
3.0
290
     1
  0
RAPIDRTRENDERSETTINGS
  5
509
102
{ACAD_REACTORS
330
508
102
}
330
508
100
AcDbRenderSettings
 90
        2
  1
低
290
     1
290
     0
290
     1
290
     1
  1

  1
应用 1 个渲染级别
 90
        0
100
AcDbRapidRTRenderSettings
 90
        3
 70
     0
 90
        1
 90
        1
 70
     0
 70
     2
 40
3.0
 40
3.0
290
     1
  0
RAPIDRTRENDERSETTINGS
  5
50D
102
{ACAD_REACTORS
330
508
102
}
330
508
100
AcDbRenderSettings
 90
        2
  1
午餐质量
290
     1
290
     0
290
     1
290
     1
  1

  1
渲染 60 分钟
 90
        4
100
AcDbRapidRTRenderSettings
 90
        3
 70
     1
 90
        1
 90
       60
 70
     2
 70
     2
 40
3.0
 40
3.0
290
     1
  0
RAPIDRTRENDERSETTINGS
  5
50E
102
{ACAD_REACTORS
330
508
102
}
330
508
100
AcDbRenderSettings
 90
        2
  1
夜间质量
290
     1
290
     0
290
     1
290
     1
  1

  1
渲染 12 小时
 90
        5
100
AcDbRapidRTRenderSettings
 90
        3
 70
     1
 90
        1
 90
      720
 70
     2
 70
     2
 40
3.0
 40
3.0
290
     1
  0
RAPIDRTRENDERSETTINGS
  5
50C
102
{ACAD_REACTORS
330
508
102
}
330
508
100
AcDbRenderSettings
 90
        2
  1
茶歇质量
290
     1
290
     0
290
     1
290
     1
  1

  1
渲染 10 分钟
 90
        3
100
AcDbRapidRTRenderSettings
 90
        3
 70
     1
 90
        1
 90
       10
 70
     1
 70
     2
 40
3.0
 40
3.0
290
     1
  0
RAPIDRTRENDERSETTINGS
  5
50B
102
{ACAD_REACTORS
330
508
102
}
330
508
100
AcDbRenderSettings
 90
        2
  1
高
290
     1
290
     0
290
     1
290
     1
  1

  1
应用 10 个渲染级别
 90
        2
100
AcDbRapidRTRenderSettings
 90
        3
 70
     0
 90
       10
 90
        1
 70
     2
 70
     2
 40
3.0
 40
3.0
290
     1
  0
SCALE
  5
10D
102
{ACAD_REACTORS
330
10C
102
}
330
10C
100
AcDbScale
 70
     0
300
1:1
140
1.0
141
1.0
290
     1
  0
SCALE
  5
1BE
102
{ACAD_REACTORS
330
10C
102
}
330
10C
100
AcDbScale
 70
     0
300
1:2
140
1.0
141
2.0
290
     0
  0
SCALE
  5
1BF
102
{ACAD_REACTORS
330
10C
102
}
330
10C
100
AcDbScale
 70
     0
300
1:4
140
1.0
141
4.0
290
     0
  0
SCALE
  5
1C0
102
{ACAD_REACTORS
330
10C
102
}
330
10C
100
AcDbScale
 70
     0
300
1:5
140
1.0
141
5.0
290
     0
  0
SCALE
  5
1C1
102
{ACAD_REACTORS
330
10C
102
}
330
10C
100
AcDbScale
 70
     0
300
1:8
140
1.0
141
8.0
290
     0
  0
SCALE
  5
1C2
102
{ACAD_REACTORS
330
10C
102
}
330
10C
100
AcDbScale
 70
     0
300
1:10
140
1.0
141
10.0
290
     0
  0
SCALE
  5
1C3
102
{ACAD_REACTORS
330
10C
102
}
330
10C
100
AcDbScale
 70
     0
300
1:16
140
1.0
141
16.0
290
     0
  0
SCALE
  5
1C4
102
{ACAD_REACTORS
330
10C
102
}
330
10C
100
AcDbScale
 70
     0
300
1:20
140
1.0
141
20.0
290
     0
  0
SCALE
  5
1C5
102
{ACAD_REACTORS
330
10C
102
}
330
10C
100
AcDbScale
 70
     0
300
1:30
140
1.0
141
30.0
290
     0
  0
SCALE
  5
1C6
102
{ACAD_REACTORS
330
10C
102
}
330
10C
100
AcDbScale
 70
     0
300
1:40
140
1.0
141
40.0
290
     0
  0
SCALE
  5
1C7
102
{ACAD_REACTORS
330
10C
102
}
330
10C
100
AcDbScale
 70
     0
300
1:50
140
1.0
141
50.0
290
     0
  0
SCALE
  5
1C8
102
{ACAD_REACTORS
330
10C
102
}
330
10C
100
AcDbScale
 70
     0
300
1:100
140
1.0
141
100.0
290
     0
  0
SCALE
  5
1C9
102
{ACAD_REACTORS
330
10C
102
}
330
10C
100
AcDbScale
 70
     0
300
2:1
140
2.0
141
1.0
290
     0
  0
SCALE
  5
1CA
102
{ACAD_REACTORS
330
10C
102
}
330
10C
100
AcDbScale
 70
     0
300
4:1
140
4.0
141
1.0
290
     0
  0
SCALE
  5
1CB
102
{ACAD_REACTORS
330
10C
102
}
330
10C
100
AcDbScale
 70
     0
300
8:1
140
8.0
141
1.0
290
     0
  0
SCALE
  5
1CC
102
{ACAD_REACTORS
330
10C
102
}
330
10C
100
AcDbScale
 70
     0
300
10:1
140
10.0
141
1.0
290
     0
  0
SCALE
  5
1CD
102
{ACAD_REACTORS
330
10C
102
}
330
10C
100
AcDbScale
 70
     0
300
100:1
140
100.0
141
1.0
290
     0
  0
ACDBSECTIONVIEWSTYLE
  5
21A
102
{ACAD_REACTORS
330
219
102
}
330
219
100
AcDbModelDocViewStyle
 70
     0
  3
Metric50
290
     0
300
Metric50
 90
        0
100
AcDbSectionViewStyle
 70
     0
 71
     0
 90
      102
 71
     1
340
11
 62
   256
 40
5.0
340
0
340
0
 62
   256
 40
5.0
300
I, O, Q, S, X, Z
 40
10.0
 90
        0
 40
2.5
 90
        0
 71
     2
340
16
 90
       25
 62
   256
340
16
 90
       50
 62
   256
 40
5.0
 40
2.5
 40
5.0
 71
     3
340
11
 62
   256
 40
5.0
 90
        0
 40
15.0
 90
        1
300
%<\AcVar ViewSectionStartId>%-%<\AcVar ViewSectionEndId>% (%<\AcVar ViewScale \f "%sn">%)
 71
     4
 62
   256
 62
   257
300
ANSI31
 40
1.0
 90
        0
290
     0
290
     0
 90
        6
 40
0.0
 40
1.570796326794896
 40
0.2617993877991494
 40
1.308996938995747
 40
-0.2617993877991494
 40
1.832595714594046
  0
TABLESTYLE
  5
7F
102
{ACAD_XDICTIONARY
360
162
102
}
102
{ACAD_REACTORS
330
7E
330
93B
330
9B6
102
}
330
7E
100
AcDbTableStyle
280
     0
  3
Standard
 70
     0
 71
     0
 40
1.5
 41
1.5
280
     0
281
     0
  7
Standard
140
4.5
170
     2
 62
     0
 63
     7
283
     0
 90
      512
 91
        0
  1

274
    -2
284
     1
 64
     0
275
    -2
285
     1
 65
     0
276
    -2
286
     1
 66
     0
277
    -2
287
     1
 67
     0
278
    -2
288
     1
 68
     0
279
    -2
289
     1
 69
     0
  7
Standard
140
6.0
170
     5
 62
     0
 63
     7
283
     0
 90
      512
 91
        0
  1

274
    -2
284
     1
 64
     0
275
    -2
285
     1
 65
     0
276
    -2
286
     1
 66
     0
277
    -2
287
     1
 67
     0
278
    -2
288
     1
 68
     0
279
    -2
289
     1
 69
     0
  7
Standard
140
4.5
170
     5
 62
     0
 63
     7
283
     0
 90
      512
 91
        0
  1

274
    -2
284
     1
 64
     0
275
    -2
285
     1
 65
     0
276
    -2
286
     1
 66
     0
277
    -2
287
     1
 67
     0
278
    -2
288
     1
 68
     0
279
    -2
289
     1
 69
     0
  0
VISUALSTYLE
  5
F5
102
{ACAD_REACTORS
330
EF
102
}
330
EF
100
AcDbVisualStyle
  2
2dWireframe
 70
     4
177
     3
291
     0
 70
    58
 90
        0
176
     1
 90
        2
176
     1
 90
        1
176
     1
 90
        0
176
     1
 40
0.6
176
     1
 40
30.0
176
     1
 62
     7
420
 16777215
176
     1
 90
        1
176
     1
 90
        4
176
     1
 62
     7
176
     1
 62
   257
176
     1
 90
        1
176
     1
 90
        1
176
     1
 40
1.0
176
     1
 90
        0
176
     1
 62
   257
176
     1
 40
1.0
176
     1
 90
        1
176
     1
 90
        6
176
     1
 90
        2
176
     1
 62
     7
176
     1
 90
        5
176
     1
 90
        0
176
     1
 90
        0
176
     1
290
     0
176
     1
 90
        1
176
     1
 40
0.0
176
     1
 90
        0
176
     1
290
     1
176
     1
290
     1
176
     1
290
     0
176
     1
290
     0
176
     1
290
     0
176
     1
290
     0
176
     1
290
     0
176
     1
290
     0
176
     1
290
     0
176
     1
 90
       50
176
     1
 40
0.0
176
     1
 40
1.0
176
     1
 90
        0
176
     1
 62
    18
420
        0
176
     1
 90
       50
176
     1
 90
        3
176
     1
 62
     5
420
      255
176
     1
290
     0
176
     1
 90
       50
176
     1
 90
       50
176
     1
 90
       50
176
     1
290
     0
176
     1
 90
       50
176
     1
 62
   256
176
     0
 40
1.0
176
     0
 90
        2
176
     1
  1
strokes_ogs.tif
176
     1
290
     0
176
     1
 40
1.0
176
     1
 40
1.0
176
     1
  0
VISUALSTYLE
  5
F4
102
{ACAD_REACTORS
330
EF
102
}
330
EF
100
AcDbVisualStyle
  2
Basic
 70
     7
177
     3
291
     1
 70
    58
 90
        1
176
     1
 90
        0
176
     1
 90
        1
176
     1
 90
        0
176
     1
 40
0.6
176
     1
 40
30.0
176
     1
 62
     7
420
 16777215
176
     1
 90
        0
176
     1
 90
        4
176
     1
 62
     7
176
     1
 62
   257
176
     1
 90
        1
176
     1
 90
        1
176
     1
 40
1.0
176
     1
 90
        8
176
     1
 62
     7
176
     1
 40
1.0
176
     1
 90
        1
176
     1
 90
        6
176
     1
 90
        2
176
     1
 62
     7
176
     1
 90
        5
176
     1
 90
        0
176
     1
 90
        0
176
     1
290
     0
176
     1
 90
        1
176
     1
 40
0.0
176
     1
 90
        0
176
     1
290
     0
176
     1
290
     1
176
     1
290
     1
176
     1
290
     0
176
     1
290
     0
176
     1
290
     0
176
     1
290
     0
176
     1
290
     0
176
     1
290
     0
176
     1
 90
       50
176
     1
 40
0.0
176
     1
 40
1.0
176
     1
 90
        0
176
     1
 62
    18
420
        0
176
     1
 90
       50
176
     1
 90
        3
176
     1
 62
     5
420
      255
176
     1
290
     0
176
     1
 90
       50
176
     1
 90
       50
176
     1
 90
       50
176
     1
290
     0
176
     1
 90
       50
176
     1
 62
   256
176
     0
 40
1.0
176
     0
 90
        2
176
     1
  1
strokes_ogs.tif
176
     1
290
     0
176
     1
 40
1.0
176
     1
 40
1.0
176
     1
  0
VISUALSTYLE
  5
FB
102
{ACAD_REACTORS
330
EF
102
}
330
EF
100
AcDbVisualStyle
  2
Brighten
 70
    12
177
     3
291
     1
 70
    58
 90
        2
176
     1
 90
        2
176
     1
 90
        1
176
     1
 90
        0
176
     1
 40
0.6
176
     1
 40
30.0
176
     1
 62
     7
420
 16777215
176
     1
 90
        1
176
     1
 90
        4
176
     1
 62
     7
176
     1
 62
   257
176
     1
 90
        1
176
     1
 90
        1
176
     1
 40
1.0
176
     1
 90
        8
176
     1
 62
     7
176
     1
 40
1.0
176
     1
 90
        1
176
     1
 90
        6
176
     1
 90
        2
176
     1
 62
     7
176
     1
 90
        5
176
     1
 90
        0
176
     1
 90
        0
176
     1
290
     0
176
     1
 90
        1
176
     1
 40
50.0
176
     1
 90
        0
176
     1
290
     0
176
     1
290
     1
176
     1
290
     1
176
     1
290
     0
176
     1
290
     0
176
     1
290
     0
176
     1
290
     0
176
     1
290
     0
176
     1
290
     0
176
     1
 90
       50
176
     1
 40
0.0
176
     1
 40
1.0
176
     1
 90
        0
176
     1
 62
    18
420
        0
176
     1
 90
       50
176
     1
 90
        3
176
     1
 62
     5
420
      255
176
     1
290
     0
176
     1
 90
       50
176
     1
 90
       50
176
     1
 90
       50
176
     1
290
     0
176
     1
 90
       50
176
     1
 62
   256
176
     0
 40
1.0
176
     0
 90
        2
176
     1
  1
strokes_ogs.tif
176
     1
290
     0
176
     1
 40
1.0
176
     1
 40
1.0
176
     1
  0
VISUALSTYLE
  5
FF
102
{ACAD_REACTORS
330
EF
102
}
330
EF
100
AcDbVisualStyle
  2
ColorChange
 70
    16
177
     3
291
     1
 70
    58
 90
        2
176
     1
 90
        2
176
     1
 90
        3
176
     1
 90
        0
176
     1
 40
0.6
176
     1
 40
30.0
176
     1
 62
     8
420
  8421504
176
     1
 90
        1
176
     1
 90
        4
176
     1
 62
     7
176
     1
 62
   257
176
     1
 90
        1
176
     1
 90
        1
176
     1
 40
1.0
176
     1
 90
        8
176
     1
 62
     8
420
  8421504
176
     1
 40
1.0
176
     1
 90
        1
176
     1
 90
        6
176
     1
 90
        2
176
     1
 62
     7
176
     1
 90
        5
176
     1
 90
        0
176
     1
 90
        0
176
     1
290
     0
176
     1
 90
        1
176
     1
 40
0.0
176
     1
 90
        0
176
     1
290
     0
176
     1
290
     1
176
     1
290
     1
176
     1
290
     0
176
     1
290
     0
176
     1
290
     0
176
     1
290
     0
176
     1
290
     0
176
     1
290
     0
176
     1
 90
       50
176
     1
 40
0.0
176
     1
 40
1.0
176
     1
 90
        0
176
     1
 62
    18
420
        0
176
     1
 90
       50
176
     1
 90
        3
176
     1
 62
     5
420
      255
176
     1
290
     0
176
     1
 90
       50
176
     1
 90
       50
176
     1
 90
       50
176
     1
290
     0
176
     1
 90
       50
176
     1
 62
   256
176
     0
 40
1.0
176
     0
 90
        2
176
     1
  1
strokes_ogs.tif
176
     1
290
     0
176
     1
 40
1.0
176
     1
 40
1.0
176
     1
  0
VISUALSTYLE
  5
F8
102
{ACAD_REACTORS
330
EF
102
}
330
EF
100
AcDbVisualStyle
  2
Conceptual
 70
     9
177
     3
291
     0
 70
    58
 90
        3
176
     1
 90
        2
176
     1
 90
        1
176
     1
 90
        0
176
     1
 40
0.6
176
     1
 40
30.0
176
     1
 62
     7
420
 16777215
176
     1
 90
        2
176
     1
 90
        2
176
     1
 62
     7
176
     1
 62
   257
176
     1
 90
        1
176
     1
 90
        1
176
     1
 40
40.0
176
     1
 90
        8
176
     1
 62
     7
176
     1
 40
1.0
176
     1
 90
        1
176
     1
 90
        6
176
     1
 90
        2
176
     1
 62
     7
176
     1
 90
        3
176
     1
 90
        0
176
     1
 90
        0
176
     1
290
     0
176
     1
 90
        1
176
     1
 40
0.0
176
     1
 90
        0
176
     1
290
     0
176
     1
290
     1
176
     1
290
     1
176
     1
290
     0
176
     1
290
     0
176
     1
290
     0
176
     1
290
     0
176
     1
290
     0
176
     1
290
     0
176
     1
 90
       50
176
     1
 40
0.0
176
     1
 40
1.0
176
     1
 90
        0
176
     1
 62
    18
420
        0
176
     1
 90
       50
176
     1
 90
        3
176
     1
 62
     5
420
      255
176
     1
290
     0
176
     1
 90
       50
176
     1
 90
       50
176
     1
 90
       50
176
     1
290
     0
176
     1
 90
       50
176
     1
 62
   256
176
     0
 40
1.0
176
     0
 90
        2
176
     1
  1
strokes_ogs.tif
176
     1
290
     0
176
     1
 40
1.0
176
     1
 40
1.0
176
     1
  0
VISUALSTYLE
  5
FA
102
{ACAD_REACTORS
330
EF
102
}
330
EF
100
AcDbVisualStyle
  2
Dim
 70
    11
177
     3
291
     1
 70
    58
 90
        2
176
     1
 90
        2
176
     1
 90
        1
176
     1
 90
        0
176
     1
 40
0.6
176
     1
 40
30.0
176
     1
 62
     7
420
 16777215
176
     1
 90
        1
176
     1
 90
        4
176
     1
 62
     7
176
     1
 62
   257
176
     1
 90
        1
176
     1
 90
        1
176
     1
 40
1.0
176
     1
 90
        8
176
     1
 62
     7
176
     1
 40
1.0
176
     1
 90
        1
176
     1
 90
        6
176
     1
 90
        2
176
     1
 62
     7
176
     1
 90
        5
176
     1
 90
        0
176
     1
 90
        0
176
     1
290
     0
176
     1
 90
        1
176
     1
 40
-50.0
176
     1
 90
        0
176
     1
290
     0
176
     1
290
     1
176
     1
290
     1
176
     1
290
     0
176
     1
290
     0
176
     1
290
     0
176
     1
290
     0
176
     1
290
     0
176
     1
290
     0
176
     1
 90
       50
176
     1
 40
0.0
176
     1
 40
1.0
176
     1
 90
        0
176
     1
 62
    18
420
        0
176
     1
 90
       50
176
     1
 90
        3
176
     1
 62
     5
420
      255
176
     1
290
     0
176
     1
 90
       50
176
     1
 90
       50
176
     1
 90
       50
176
     1
290
     0
176
     1
 90
       50
176
     1
 62
   256
176
     0
 40
1.0
176
     0
 90
        2
176
     1
  1
strokes_ogs.tif
176
     1
290
     0
176
     1
 40
1.0
176
     1
 40
1.0
176
     1
  0
VISUALSTYLE
  5
1E6
102
{ACAD_REACTORS
330
EF
102
}
330
EF
100
AcDbVisualStyle
  2
EdgeColorOff
 70
    22
177
     3
291
     1
 70
    58
 90
        2
176
     0
 90
        2
176
     0
 90
        0
176
     0
 90
        0
176
     0
 40
0.6
176
     0
 40
30.0
176
     0
 62
     7
420
 16777215
176
     0
 90
        1
176
     0
 90
        4
176
     0
 62
     7
176
     0
 62
   257
176
     0
 90
        1
176
     0
 90
        1
176
     0
 40
1.0
176
     0
 90
        8
176
     2
 62
     7
176
     0
 40
1.0
176
     0
 90
        1
176
     0
 90
        6
176
     0
 90
        2
176
     0
 62
     7
176
     0
 90
        5
176
     0
 90
        0
176
     0
 90
        0
176
     0
290
     0
176
     0
 90
        1
176
     0
 40
0.0
176
     0
 90
        0
176
     0
290
     0
176
     1
290
     1
176
     1
290
     1
176
     1
290
     0
176
     1
290
     0
176
     1
290
     0
176
     1
290
     0
176
     1
290
     0
176
     1
290
     0
176
     1
 90
       50
176
     1
 40
0.0
176
     1
 40
1.0
176
     1
 90
        0
176
     1
 62
    18
420
        0
176
     1
 90
       50
176
     1
 90
        3
176
     1
 62
     5
420
      255
176
     1
290
     0
176
     1
 90
       50
176
     1
 90
       50
176
     1
 90
       50
176
     1
290
     0
176
     1
 90
       50
176
     1
 62
   256
176
     0
 40
1.0
176
     0
 90
        2
176
     1
  1
strokes_ogs.tif
176
     1
290
     0
176
     1
 40
1.0
176
     1
 40
1.0
176
     1
  0
VISUALSTYLE
  5
FE
102
{ACAD_REACTORS
330
EF
102
}
330
EF
100
AcDbVisualStyle
  2
Facepattern
 70
    15
177
     3
291
     1
 70
    58
 90
        2
176
     1
 90
        2
176
     1
 90
        1
176
     1
 90
        0
176
     1
 40
0.6
176
     1
 40
30.0
176
     1
 62
     7
420
 16777215
176
     1
 90
        1
176
     1
 90
        4
176
     1
 62
     7
176
     1
 62
   257
176
     1
 90
        1
176
     1
 90
        1
176
     1
 40
1.0
176
     1
 90
        8
176
     1
 62
     7
176
     1
 40
1.0
176
     1
 90
        1
176
     1
 90
        6
176
     1
 90
        2
176
     1
 62
     7
176
     1
 90
        5
176
     1
 90
        0
176
     1
 90
        0
176
     1
290
     0
176
     1
 90
        1
176
     1
 40
0.0
176
     1
 90
        0
176
     1
290
     0
176
     1
290
     1
176
     1
290
     1
176
     1
290
     0
176
     1
290
     0
176
     1
290
     0
176
     1
290
     0
176
     1
290
     0
176
     1
290
     0
176
     1
 90
       50
176
     1
 40
0.0
176
     1
 40
1.0
176
     1
 90
        0
176
     1
 62
    18
420
        0
176
     1
 90
       50
176
     1
 90
        3
176
     1
 62
     5
420
      255
176
     1
290
     0
176
     1
 90
       50
176
     1
 90
       50
176
     1
 90
       50
176
     1
290
     0
176
     1
 90
       50
176
     1
 62
   256
176
     0
 40
1.0
176
     0
 90
        2
176
     1
  1
strokes_ogs.tif
176
     1
290
     0
176
     1
 40
1.0
176
     1
 40
1.0
176
     1
  0
VISUALSTYLE
  5
F0
102
{ACAD_REACTORS
330
EF
102
}
330
EF
100
AcDbVisualStyle
  2
Flat
 70
     0
177
     3
291
     1
 70
    58
 90
        2
176
     1
 90
        1
176
     1
 90
        1
176
     1
 90
        2
176
     1
 40
0.6
176
     1
 40
30.0
176
     1
 62
     7
420
 16777215
176
     1
 90
        0
176
     1
 90
        0
176
     1
 62
     7
176
     1
 62
   257
176
     1
 90
        1
176
     1
 90
        1
176
     1
 40
1.0
176
     1
 90
        8
176
     1
 62
     7
176
     1
 40
1.0
176
     1
 90
        1
176
     1
 90
        6
176
     1
 90
        2
176
     1
 62
     7
176
     1
 90
        5
176
     1
 90
        0
176
     1
 90
        0
176
     1
290
     0
176
     1
 90
       13
176
     1
 40
0.0
176
     1
 90
        0
176
     1
290
     0
176
     1
290
     1
176
     1
290
     1
176
     1
290
     0
176
     1
290
     0
176
     1
290
     0
176
     1
290
     0
176
     1
290
     0
176
     1
290
     0
176
     1
 90
       50
176
     1
 40
0.0
176
     1
 40
1.0
176
     1
 90
        0
176
     1
 62
    18
420
        0
176
     1
 90
       50
176
     1
 90
        3
176
     1
 62
     5
420
      255
176
     1
290
     0
176
     1
 90
       50
176
     1
 90
       50
176
     1
 90
       50
176
     1
290
     0
176
     1
 90
       50
176
     1
 62
   256
176
     0
 40
1.0
176
     0
 90
        2
176
     1
  1
strokes_ogs.tif
176
     1
290
     0
176
     1
 40
1.0
176
     1
 40
1.0
176
     1
  0
VISUALSTYLE
  5
F1
102
{ACAD_REACTORS
330
EF
102
}
330
EF
100
AcDbVisualStyle
  2
FlatWithEdges
 70
     1
177
     3
291
     1
 70
    58
 90
        2
176
     1
 90
        1
176
     1
 90
        1
176
     1
 90
        2
176
     1
 40
0.6
176
     1
 40
30.0
176
     1
 62
     7
420
 16777215
176
     1
 90
        1
176
     1
 90
        0
176
     1
 62
     7
176
     1
 62
   257
176
     1
 90
        1
176
     1
 90
        1
176
     1
 40
1.0
176
     1
 90
        0
176
     1
 62
   257
176
     1
 40
1.0
176
     1
 90
        1
176
     1
 90
        6
176
     1
 90
        2
176
     1
 62
     7
176
     1
 90
        5
176
     1
 90
        0
176
     1
 90
        0
176
     1
290
     0
176
     1
 90
       13
176
     1
 40
0.0
176
     1
 90
        0
176
     1
290
     0
176
     1
290
     1
176
     1
290
     1
176
     1
290
     0
176
     1
290
     0
176
     1
290
     0
176
     1
290
     0
176
     1
290
     0
176
     1
290
     0
176
     1
 90
       50
176
     1
 40
0.0
176
     1
 40
1.0
176
     1
 90
        0
176
     1
 62
    18
420
        0
176
     1
 90
       50
176
     1
 90
        3
176
     1
 62
     5
420
      255
176
     1
290
     0
176
     1
 90
       50
176
     1
 90
       50
176
     1
 90
       50
176
     1
290
     0
176
     1
 90
       50
176
     1
 62
   256
176
     0
 40
1.0
176
     0
 90
        2
176
     1
  1
strokes_ogs.tif
176
     1
290
     0
176
     1
 40
1.0
176
     1
 40
1.0
176
     1
  0
VISUALSTYLE
  5
F2
102
{ACAD_REACTORS
330
EF
102
}
330
EF
100
AcDbVisualStyle
  2
Gouraud
 70
     2
177
     3
291
     1
 70
    58
 90
        2
176
     1
 90
        2
176
     1
 90
        1
176
     1
 90
        2
176
     1
 40
0.6
176
     1
 40
30.0
176
     1
 62
     7
420
 16777215
176
     1
 90
        0
176
     1
 90
        0
176
     1
 62
     7
176
     1
 62
   257
176
     1
 90
        1
176
     1
 90
        1
176
     1
 40
1.0
176
     1
 90
        0
176
     1
 62
     7
176
     1
 40
1.0
176
     1
 90
        1
176
     1
 90
        6
176
     1
 90
        2
176
     1
 62
     7
176
     1
 90
        5
176
     1
 90
        0
176
     1
 90
        0
176
     1
290
     0
176
     1
 90
       13
176
     1
 40
0.0
176
     1
 90
        0
176
     1
290
     0
176
     1
290
     1
176
     1
290
     1
176
     1
290
     0
176
     1
290
     0
176
     1
290
     0
176
     1
290
     0
176
     1
290
     0
176
     1
290
     0
176
     1
 90
       50
176
     1
 40
0.0
176
     1
 40
1.0
176
     1
 90
        0
176
     1
 62
    18
420
        0
176
     1
 90
       50
176
     1
 90
        3
176
     1
 62
     5
420
      255
176
     1
290
     0
176
     1
 90
       50
176
     1
 90
       50
176
     1
 90
       50
176
     1
290
     0
176
     1
 90
       50
176
     1
 62
   256
176
     0
 40
1.0
176
     0
 90
        2
176
     1
  1
strokes_ogs.tif
176
     1
290
     0
176
     1
 40
1.0
176
     1
 40
1.0
176
     1
  0
VISUALSTYLE
  5
F3
102
{ACAD_REACTORS
330
EF
102
}
330
EF
100
AcDbVisualStyle
  2
GouraudWithEdges
 70
     3
177
     3
291
     1
 70
    58
 90
        2
176
     1
 90
        2
176
     1
 90
        1
176
     1
 90
        2
176
     1
 40
0.6
176
     1
 40
30.0
176
     1
 62
     7
420
 16777215
176
     1
 90
        1
176
     1
 90
        0
176
     1
 62
     7
176
     1
 62
   257
176
     1
 90
        1
176
     1
 90
        1
176
     1
 40
1.0
176
     1
 90
        0
176
     1
 62
   257
176
     1
 40
1.0
176
     1
 90
        1
176
     1
 90
        6
176
     1
 90
        2
176
     1
 62
     7
176
     1
 90
        5
176
     1
 90
        0
176
     1
 90
        0
176
     1
290
     0
176
     1
 90
       13
176
     1
 40
0.0
176
     1
 90
        0
176
     1
290
     0
176
     1
290
     1
176
     1
290
     1
176
     1
290
     0
176
     1
290
     0
176
     1
290
     0
176
     1
290
     0
176
     1
290
     0
176
     1
290
     0
176
     1
 90
       50
176
     1
 40
0.0
176
     1
 40
1.0
176
     1
 90
        0
176
     1
 62
    18
420
        0
176
     1
 90
       50
176
     1
 90
        3
176
     1
 62
     5
420
      255
176
     1
290
     0
176
     1
 90
       50
176
     1
 90
       50
176
     1
 90
       50
176
     1
290
     0
176
     1
 90
       50
176
     1
 62
   256
176
     0
 40
1.0
176
     0
 90
        2
176
     1
  1
strokes_ogs.tif
176
     1
290
     0
176
     1
 40
1.0
176
     1
 40
1.0
176
     1
  0
VISUALSTYLE
  5
F7
102
{ACAD_REACTORS
330
EF
102
}
330
EF
100
AcDbVisualStyle
  2
Hidden
 70
     6
177
     3
291
     0
 70
    58
 90
        1
176
     1
 90
        2
176
     1
 90
        2
176
     1
 90
        0
176
     1
 40
0.6
176
     1
 40
30.0
176
     1
 62
     7
420
 16777215
176
     1
 90
        2
176
     1
 90
        2
176
     1
 62
     7
176
     1
 62
   257
176
     1
 90
        2
176
     1
 90
        1
176
     1
 40
40.0
176
     1
 90
        0
176
     1
 62
   257
176
     1
 40
1.0
176
     1
 90
        1
176
     1
 90
        6
176
     1
 90
        2
176
     1
 62
     7
176
     1
 90
        3
176
     1
 90
        0
176
     1
 90
        0
176
     1
290
     0
176
     1
 90
        1
176
     1
 40
0.0
176
     1
 90
        0
176
     1
290
     0
176
     1
290
     1
176
     1
290
     1
176
     1
290
     0
176
     1
290
     0
176
     1
290
     0
176
     1
290
     0
176
     1
290
     0
176
     1
290
     0
176
     1
 90
       50
176
     1
 40
0.0
176
     1
 40
1.0
176
     1
 90
        0
176
     1
 62
    18
420
        0
176
     1
 90
       50
176
     1
 90
        3
176
     1
 62
     5
420
      255
176
     1
290
     0
176
     1
 90
       50
176
     1
 90
       50
176
     1
 90
       50
176
     1
290
     0
176
     1
 90
       50
176
     1
 62
   256
176
     0
 40
1.0
176
     0
 90
        2
176
     1
  1
strokes_ogs.tif
176
     1
290
     0
176
     1
 40
1.0
176
     1
 40
1.0
176
     1
  0
VISUALSTYLE
  5
1E4
102
{ACAD_REACTORS
330
EF
102
}
330
EF
100
AcDbVisualStyle
  2
JitterOff
 70
    20
177
     3
291
     1
 70
    58
 90
        2
176
     0
 90
        2
176
     0
 90
        0
176
     0
 90
        0
176
     0
 40
0.6
176
     0
 40
30.0
176
     0
 62
     7
420
 16777215
176
     0
 90
        1
176
     0
 90
        4
176
     0
 62
     7
176
     0
 62
   257
176
     0
 90
        1
176
     0
 90
        1
176
     0
 40
1.0
176
     0
 90
       10
176
     2
 62
     7
176
     0
 40
1.0
176
     0
 90
        1
176
     0
 90
        6
176
     0
 90
        2
176
     0
 62
     7
176
     0
 90
        5
176
     0
 90
        0
176
     0
 90
        0
176
     0
290
     0
176
     0
 90
        1
176
     0
 40
0.0
176
     0
 90
        0
176
     0
290
     0
176
     1
290
     1
176
     1
290
     1
176
     1
290
     0
176
     1
290
     0
176
     1
290
     0
176
     1
290
     0
176
     1
290
     0
176
     1
290
     0
176
     1
 90
       50
176
     1
 40
0.0
176
     1
 40
1.0
176
     1
 90
        0
176
     1
 62
    18
420
        0
176
     1
 90
       50
176
     1
 90
        3
176
     1
 62
     5
420
      255
176
     1
290
     0
176
     1
 90
       50
176
     1
 90
       50
176
     1
 90
       50
176
     1
290
     0
176
     1
 90
       50
176
     1
 62
   256
176
     0
 40
1.0
176
     0
 90
        2
176
     1
  1
strokes_ogs.tif
176
     1
290
     0
176
     1
 40
1.0
176
     1
 40
1.0
176
     1
  0
VISUALSTYLE
  5
FD
102
{ACAD_REACTORS
330
EF
102
}
330
EF
100
AcDbVisualStyle
  2
Linepattern
 70
    14
177
     3
291
     1
 70
    58
 90
        2
176
     1
 90
        2
176
     1
 90
        1
176
     1
 90
        0
176
     1
 40
0.6
176
     1
 40
30.0
176
     1
 62
     7
420
 16777215
176
     1
 90
        1
176
     1
 90
        4
176
     1
 62
     7
176
     1
 62
   257
176
     1
 90
        7
176
     1
 90
        7
176
     1
 40
1.0
176
     1
 90
        8
176
     1
 62
     7
176
     1
 40
1.0
176
     1
 90
        1
176
     1
 90
        6
176
     1
 90
        2
176
     1
 62
     7
176
     1
 90
        5
176
     1
 90
        0
176
     1
 90
        0
176
     1
290
     0
176
     1
 90
        1
176
     1
 40
0.0
176
     1
 90
        0
176
     1
290
     0
176
     1
290
     1
176
     1
290
     1
176
     1
290
     0
176
     1
290
     0
176
     1
290
     0
176
     1
290
     0
176
     1
290
     0
176
     1
290
     0
176
     1
 90
       50
176
     1
 40
0.0
176
     1
 40
1.0
176
     1
 90
        0
176
     1
 62
    18
420
        0
176
     1
 90
       50
176
     1
 90
        3
176
     1
 62
     5
420
      255
176
     1
290
     0
176
     1
 90
       50
176
     1
 90
       50
176
     1
 90
       50
176
     1
290
     0
176
     1
 90
       50
176
     1
 62
   256
176
     0
 40
1.0
176
     0
 90
        2
176
     1
  1
strokes_ogs.tif
176
     1
290
     0
176
     1
 40
1.0
176
     1
 40
1.0
176
     1
  0
VISUALSTYLE
  5
1E5
102
{ACAD_REACTORS
330
EF
102
}
330
EF
100
AcDbVisualStyle
  2
OverhangOff
 70
    21
177
     3
291
     1
 70
    58
 90
        2
176
     0
 90
        2
176
     0
 90
        0
176
     0
 90
        0
176
     0
 40
0.6
176
     0
 40
30.0
176
     0
 62
     7
420
 16777215
176
     0
 90
        1
176
     0
 90
        4
176
     0
 62
     7
176
     0
 62
   257
176
     0
 90
        1
176
     0
 90
        1
176
     0
 40
1.0
176
     0
 90
        9
176
     2
 62
     7
176
     0
 40
1.0
176
     0
 90
        1
176
     0
 90
        6
176
     0
 90
        2
176
     0
 62
     7
176
     0
 90
        5
176
     0
 90
        0
176
     0
 90
        0
176
     0
290
     0
176
     0
 90
        1
176
     0
 40
0.0
176
     0
 90
        0
176
     0
290
     0
176
     1
290
     1
176
     1
290
     1
176
     1
290
     0
176
     1
290
     0
176
     1
290
     0
176
     1
290
     0
176
     1
290
     0
176
     1
290
     0
176
     1
 90
       50
176
     1
 40
0.0
176
     1
 40
1.0
176
     1
 90
        0
176
     1
 62
    18
420
        0
176
     1
 90
       50
176
     1
 90
        3
176
     1
 62
     5
420
      255
176
     1
290
     0
176
     1
 90
       50
176
     1
 90
       50
176
     1
 90
       50
176
     1
290
     0
176
     1
 90
       50
176
     1
 62
   256
176
     0
 40
1.0
176
     0
 90
        2
176
     1
  1
strokes_ogs.tif
176
     1
290
     0
176
     1
 40
1.0
176
     1
 40
1.0
176
     1
  0
VISUALSTYLE
  5
F9
102
{ACAD_REACTORS
330
EF
102
}
330
EF
100
AcDbVisualStyle
  2
Realistic
 70
     8
177
     3
291
     0
 70
    58
 90
        2
176
     1
 90
        3
176
     1
 90
        0
176
     1
 90
        2
176
     1
 40
0.6
176
     1
 40
30.0
176
     1
 62
     7
420
 16777215
176
     1
 90
        0
176
     1
 90
        0
176
     1
 62
     7
176
     1
 62
   257
176
     1
 90
        1
176
     1
 90
        1
176
     1
 40
1.0
176
     1
 90
        8
176
     1
 62
   257
176
     1
 40
1.0
176
     1
 90
        1
176
     1
 90
        6
176
     1
 90
        2
176
     1
 62
     7
176
     1
 90
        3
176
     1
 90
        0
176
     1
 90
        0
176
     1
290
     0
176
     1
 90
       13
176
     1
 40
0.0
176
     1
 90
        0
176
     1
290
     0
176
     1
290
     1
176
     1
290
     1
176
     1
290
     0
176
     1
290
     0
176
     1
290
     0
176
     1
290
     0
176
     1
290
     0
176
     1
290
     0
176
     1
 90
       50
176
     1
 40
0.0
176
     1
 40
1.0
176
     1
 90
        0
176
     1
 62
    18
420
        0
176
     1
 90
       50
176
     1
 90
        3
176
     1
 62
     5
420
      255
176
     1
290
     0
176
     1
 90
       50
176
     1
 90
       50
176
     1
 90
       50
176
     1
290
     0
176
     1
 90
       50
176
     1
 62
   256
176
     0
 40
1.0
176
     0
 90
        2
176
     1
  1
strokes_ogs.tif
176
     1
290
     0
176
     1
 40
1.0
176
     1
 40
1.0
176
     1
  0
VISUALSTYLE
  5
1F3
102
{ACAD_REACTORS
330
EF
102
}
330
EF
100
AcDbVisualStyle
  2
Shaded
 70
    27
177
     3
291
     0
 70
    58
 90
        2
176
     1
 90
        2
176
     1
 90
        1
176
     1
 90
        2
176
     1
 40
0.6
176
     1
 40
30.0
176
     1
 62
     7
420
 16777215
176
     1
 90
        0
176
     1
 90
        4
176
     1
 62
     7
176
     1
 62
   257
176
     1
 90
        1
176
     1
 90
        1
176
     1
 40
1.0
176
     1
 90
        8
176
     1
 62
   257
176
     1
 40
1.0
176
     1
 90
        1
176
     1
 90
        6
176
     1
 90
        2
176
     1
 62
     8
420
  7895160
176
     1
 90
        3
176
     1
 90
        0
176
     1
 90
        0
176
     1
290
     0
176
     1
 90
        5
176
     1
 40
0.0
176
     1
 90
        0
176
     1
290
     0
176
     1
290
     1
176
     1
290
     1
176
     1
290
     0
176
     1
290
     0
176
     1
290
     0
176
     1
290
     0
176
     1
290
     0
176
     1
290
     0
176
     1
 90
       50
176
     1
 40
0.0
176
     1
 40
1.0
176
     1
 90
        0
176
     1
 62
    18
420
        0
176
     1
 90
       50
176
     1
 90
        3
176
     1
 62
     5
420
      255
176
     1
290
     0
176
     1
 90
       50
176
     1
 90
       50
176
     1
 90
       50
176
     1
290
     0
176
     1
 90
       50
176
     1
 62
   256
176
     0
 40
1.0
176
     0
 90
        2
176
     1
  1
strokes_ogs.tif
176
     1
290
     0
176
     1
 40
1.0
176
     1
 40
1.0
176
     1
  0
VISUALSTYLE
  5
1F2
102
{ACAD_REACTORS
330
EF
102
}
330
EF
100
AcDbVisualStyle
  2
Shaded with edges
 70
    26
177
     3
291
     0
 70
    58
 90
        2
176
     1
 90
        2
176
     1
 90
        1
176
     1
 90
        2
176
     1
 40
0.6
176
     1
 40
30.0
176
     1
 62
     7
420
 16777215
176
     1
 90
        1
176
     1
 90
        2
176
     1
 62
     7
176
     1
 62
   257
176
     1
 90
        2
176
     1
 90
        1
176
     1
 40
1.0
176
     1
 90
        8
176
     1
 62
   257
176
     1
 40
1.0
176
     1
 90
        1
176
     1
 90
        6
176
     1
 90
        2
176
     1
 62
     7
176
     1
 90
        3
176
     1
 90
        0
176
     1
 90
        0
176
     1
290
     0
176
     1
 90
        5
176
     1
 40
0.0
176
     1
 90
        0
176
     1
290
     0
176
     1
290
     1
176
     1
290
     1
176
     1
290
     0
176
     1
290
     0
176
     1
290
     0
176
     1
290
     0
176
     1
290
     0
176
     1
290
     0
176
     1
 90
       50
176
     1
 40
0.0
176
     1
 40
1.0
176
     1
 90
        0
176
     1
 62
    18
420
        0
176
     1
 90
       50
176
     1
 90
        3
176
     1
 62
     5
420
      255
176
     1
290
     0
176
     1
 90
       50
176
     1
 90
       50
176
     1
 90
       50
176
     1
290
     0
176
     1
 90
       50
176
     1
 62
   256
176
     0
 40
1.0
176
     0
 90
        2
176
     1
  1
strokes_ogs.tif
176
     1
290
     0
176
     1
 40
1.0
176
     1
 40
1.0
176
     1
  0
VISUALSTYLE
  5
1EF
102
{ACAD_REACTORS
330
EF
102
}
330
EF
100
AcDbVisualStyle
  2
Shades of Gray
 70
    23
177
     3
291
     0
 70
    58
 90
        2
176
     1
 90
        2
176
     1
 90
        3
176
     1
 90
        0
176
     1
 40
0.6
176
     1
 40
30.0
176
     1
 62
     7
420
 16777215
176
     1
 90
        2
176
     1
 90
        2
176
     1
 62
     7
176
     1
 62
     7
176
     1
 90
        1
176
     1
 90
        1
176
     1
 40
40.0
176
     1
 90
        8
176
     1
 62
     7
176
     1
 40
1.0
176
     1
 90
        1
176
     1
 90
        6
176
     1
 90
        2
176
     1
 62
     7
176
     1
 90
        3
176
     1
 90
        0
176
     1
 90
        0
176
     1
290
     0
176
     1
 90
        1
176
     1
 40
0.0
176
     1
 90
        0
176
     1
290
     0
176
     1
290
     1
176
     1
290
     1
176
     1
290
     0
176
     1
290
     0
176
     1
290
     0
176
     1
290
     0
176
     1
290
     0
176
     1
290
     0
176
     1
 90
       50
176
     1
 40
0.0
176
     1
 40
1.0
176
     1
 90
        0
176
     1
 62
    18
420
        0
176
     1
 90
       50
176
     1
 90
        3
176
     1
 62
     5
420
      255
176
     1
290
     0
176
     1
 90
       50
176
     1
 90
       50
176
     1
 90
       50
176
     1
290
     0
176
     1
 90
       50
176
     1
 62
   256
176
     0
 40
1.0
176
     0
 90
        2
176
     1
  1
strokes_ogs.tif
176
     1
290
     0
176
     1
 40
1.0
176
     1
 40
1.0
176
     1
  0
VISUALSTYLE
  5
1F0
102
{ACAD_REACTORS
330
EF
102
}
330
EF
100
AcDbVisualStyle
  2
Sketchy
 70
    24
177
     3
291
     0
 70
    58
 90
        1
176
     1
 90
        2
176
     1
 90
        2
176
     1
 90
        0
176
     1
 40
0.6
176
     1
 40
30.0
176
     1
 62
     7
420
 16777215
176
     1
 90
        2
176
     1
 90
        2
176
     1
 62
     7
176
     1
 62
     7
176
     1
 90
        1
176
     1
 90
        1
176
     1
 40
40.0
176
     1
 90
       11
176
     1
 62
     7
176
     1
 40
1.0
176
     1
 90
        1
176
     1
 90
        6
176
     1
 90
        2
176
     1
 62
     7
176
     1
 90
        6
176
     1
 90
        0
176
     1
 90
        0
176
     1
290
     0
176
     1
 90
        1
176
     1
 40
0.0
176
     1
 90
        0
176
     1
290
     0
176
     1
290
     1
176
     1
290
     1
176
     1
290
     0
176
     1
290
     0
176
     1
290
     0
176
     1
290
     0
176
     1
290
     0
176
     1
290
     0
176
     1
 90
       50
176
     1
 40
0.0
176
     1
 40
1.0
176
     1
 90
        0
176
     1
 62
    18
420
        0
176
     1
 90
       50
176
     1
 90
        3
176
     1
 62
     5
420
      255
176
     1
290
     0
176
     1
 90
       50
176
     1
 90
       50
176
     1
 90
       50
176
     1
290
     0
176
     1
 90
       50
176
     1
 62
   256
176
     0
 40
1.0
176
     0
 90
        2
176
     1
  1
strokes_ogs.tif
176
     1
290
     0
176
     1
 40
1.0
176
     1
 40
1.0
176
     1
  0
VISUALSTYLE
  5
FC
102
{ACAD_REACTORS
330
EF
102
}
330
EF
100
AcDbVisualStyle
  2
Thicken
 70
    13
177
     3
291
     1
 70
    58
 90
        2
176
     1
 90
        2
176
     1
 90
        1
176
     1
 90
        0
176
     1
 40
0.6
176
     1
 40
30.0
176
     1
 62
     7
420
 16777215
176
     1
 90
        1
176
     1
 90
        4
176
     1
 62
     7
176
     1
 62
   257
176
     1
 90
        1
176
     1
 90
        1
176
     1
 40
1.0
176
     1
 90
       12
176
     1
 62
     7
176
     1
 40
1.0
176
     1
 90
        1
176
     1
 90
        6
176
     1
 90
        2
176
     1
 62
     7
176
     1
 90
        5
176
     1
 90
        0
176
     1
 90
        0
176
     1
290
     0
176
     1
 90
        1
176
     1
 40
0.0
176
     1
 90
        0
176
     1
290
     0
176
     1
290
     1
176
     1
290
     1
176
     1
290
     0
176
     1
290
     0
176
     1
290
     0
176
     1
290
     0
176
     1
290
     0
176
     1
290
     0
176
     1
 90
       50
176
     1
 40
0.0
176
     1
 40
1.0
176
     1
 90
        0
176
     1
 62
    18
420
        0
176
     1
 90
       50
176
     1
 90
        3
176
     1
 62
     5
420
      255
176
     1
290
     0
176
     1
 90
       50
176
     1
 90
       50
176
     1
 90
       50
176
     1
290
     0
176
     1
 90
       50
176
     1
 62
   256
176
     0
 40
1.0
176
     0
 90
        2
176
     1
  1
strokes_ogs.tif
176
     1
290
     0
176
     1
 40
1.0
176
     1
 40
1.0
176
     1
  0
VISUALSTYLE
  5
F6
102
{ACAD_REACTORS
330
EF
102
}
330
EF
100
AcDbVisualStyle
  2
Wireframe
 70
     5
177
     3
291
     0
 70
    58
 90
        0
176
     1
 90
        2
176
     1
 90
        0
176
     1
 90
        0
176
     1
 40
0.6
176
     1
 40
30.0
176
     1
 62
     7
420
 16777215
176
     1
 90
        1
176
     1
 90
        4
176
     1
 62
     7
176
     1
 62
   257
176
     1
 90
        1
176
     1
 90
        1
176
     1
 40
1.0
176
     1
 90
        0
176
     1
 62
   257
176
     1
 40
1.0
176
     1
 90
        1
176
     1
 90
        6
176
     1
 90
        2
176
     1
 62
     7
176
     1
 90
        3
176
     1
 90
        0
176
     1
 90
        0
176
     1
290
     0
176
     1
 90
        1
176
     1
 40
0.0
176
     1
 90
        0
176
     1
290
     0
176
     1
290
     1
176
     1
290
     1
176
     1
290
     0
176
     1
290
     0
176
     1
290
     0
176
     1
290
     0
176
     1
290
     0
176
     1
290
     0
176
     1
 90
       50
176
     1
 40
0.0
176
     1
 40
1.0
176
     1
 90
        0
176
     1
 62
    18
420
        0
176
     1
 90
       50
176
     1
 90
        3
176
     1
 62
     5
420
      255
176
     1
290
     0
176
     1
 90
       50
176
     1
 90
       50
176
     1
 90
       50
176
     1
290
     0
176
     1
 90
       50
176
     1
 62
   256
176
     0
 40
1.0
176
     0
 90
        2
176
     1
  1
strokes_ogs.tif
176
     1
290
     0
176
     1
 40
1.0
176
     1
 40
1.0
176
     1
  0
VISUALSTYLE
  5
1F1
102
{ACAD_REACTORS
330
EF
102
}
330
EF
100
AcDbVisualStyle
  2
X-Ray
 70
    25
177
     3
291
     0
 70
    58
 90
        2
176
     1
 90
        2
176
     1
 90
        1
176
     1
 90
        1
176
     1
 40
0.5
176
     1
 40
30.0
176
     1
 62
     7
420
 16777215
176
     1
 90
        1
176
     1
 90
        0
176
     1
 62
     7
176
     1
 62
   257
176
     1
 90
        1
176
     1
 90
        1
176
     1
 40
1.0
176
     1
 90
        8
176
     1
 62
     7
176
     1
 40
1.0
176
     1
 90
        1
176
     1
 90
        6
176
     1
 90
        2
176
     1
 62
     7
176
     1
 90
        3
176
     1
 90
        0
176
     1
 90
        0
176
     1
290
     0
176
     1
 90
       13
176
     1
 40
0.0
176
     1
 90
        0
176
     1
290
     0
176
     1
290
     1
176
     1
290
     1
176
     1
290
     0
176
     1
290
     0
176
     1
290
     0
176
     1
290
     0
176
     1
290
     0
176
     1
290
     0
176
     1
 90
       50
176
     1
 40
0.0
176
     1
 40
1.0
176
     1
 90
        0
176
     1
 62
    18
420
        0
176
     1
 90
       50
176
     1
 90
        3
176
     1
 62
     5
420
      255
176
     1
290
     0
176
     1
 90
       50
176
     1
 90
       50
176
     1
 90
       50
176
     1
290
     0
176
     1
 90
       50
176
     1
 62
   256
176
     0
 40
1.0
176
     0
 90
        2
176
     1
  1
strokes_ogs.tif
176
     1
290
     0
176
     1
 40
1.0
176
     1
 40
1.0
176
     1
  0
DICTIONARYVAR
  5
146
102
{ACAD_REACTORS
330
5E
102
}
330
5E
100
DictionaryVariables
280
     0
  1
1:1
  0
DICTIONARYVAR
  5
259
102
{ACAD_REACTORS
330
5E
102
}
330
5E
100
DictionaryVariables
280
     0
  1
3.500000
  0
DICTIONARYVAR
  5
25A
102
{ACAD_REACTORS
330
5E
102
}
330
5E
100
DictionaryVariables
280
     0
  1
acadiso.lin
  0
DICTIONARYVAR
  5
145
102
{ACAD_REACTORS
330
5E
102
}
330
5E
100
DictionaryVariables
280
     0
  1
STANDARD
  0
DICTIONARYVAR
  5
84
102
{ACAD_REACTORS
330
5E
102
}
330
5E
100
DictionaryVariables
280
     0
  1
STANDARD
  0
DICTIONARYVAR
  5
227
102
{ACAD_REACTORS
330
5E
102
}
330
5E
100
DictionaryVariables
280
     0
  1
Metric50
  0
DICTIONARYVAR
  5
228
102
{ACAD_REACTORS
330
5E
102
}
330
5E
100
DictionaryVariables
280
     0
  1
Metric50
  0
DICTIONARYVAR
  5
5F
102
{ACAD_REACTORS
330
5E
102
}
330
5E
100
DictionaryVariables
280
     0
  1
2
  0
DICTIONARYVAR
  5
63
102
{ACAD_REACTORS
330
5E
102
}
330
5E
100
DictionaryVariables
280
     0
  1
1
  0
DICTIONARYVAR
  5
1AE
102
{ACAD_REACTORS
330
5E
102
}
330
5E
100
DictionaryVariables
280
     0
  1
0
  0
DICTIONARYVAR
  5
1AF
102
{ACAD_REACTORS
330
5E
102
}
330
5E
100
DictionaryVariables
280
     0
  1
0
  0
ACDBASSOCNETWORK
  5
8A8
102
{ACAD_REACTORS
330
8A7
102
}
330
8A7
100
AcDbAssocAction
 90
        2
 90
        0
330
720
360
0
 90
        4
 90
        0
 90
        0
 90
        0
 90
        0
 90
        0
 90
        0
100
AcDbAssocNetwork
 90
        0
 90
        7
 90
        3
360
9D3
360
9D8
360
9DF
 90
        0
  0
ACDBASSOCNETWORK
  5
71E
102
{ACAD_REACTORS
330
71D
102
}
330
71D
100
AcDbAssocAction
 90
        2
 90
        0
330
720
360
0
 90
        1
 90
        0
 90
        0
 90
        0
 90
        0
 90
        0
 90
        0
100
AcDbAssocNetwork
 90
        0
 90
        8
 90
        4
360
70B
360
71A
360
71B
360
71C
 90
        0
  0
DICTIONARY
  5
6D4
102
{ACAD_REACTORS
330
6D3
102
}
330
6D3
100
AcDbDictionary
281
     1
  0
TABLECONTENT
  5
B86
330
B89
100
AcDbLinkedData
  1

300

100
AcDbLinkedTableData
 90
        3
300
COLUMN
  1
LINKEDTABLEDATACOLUMN_BEGIN
300

 91
        0
301
CUSTOMDATA
  1
DATAMAP_BEGIN
 90
        0
309
DATAMAP_END
309
LINKEDTABLEDATACOLUMN_END
  1
FORMATTEDTABLEDATACOLUMN_BEGIN
300
COLUMNTABLEFORMAT
  1
TABLEFORMAT_BEGIN
 90
        3
170
     0
309
TABLEFORMAT_END
309
FORMATTEDTABLEDATACOLUMN_END
  1
TABLECOLUMN_BEGIN
 90
        0
 40
42.64999999999999
309
TABLECOLUMN_END
300
COLUMN
  1
LINKEDTABLEDATACOLUMN_BEGIN
300

 91
        0
301
CUSTOMDATA
  1
DATAMAP_BEGIN
 90
        0
309
DATAMAP_END
309
LINKEDTABLEDATACOLUMN_END
  1
FORMATTEDTABLEDATACOLUMN_BEGIN
300
COLUMNTABLEFORMAT
  1
TABLEFORMAT_BEGIN
 90
        3
170
     0
309
TABLEFORMAT_END
309
FORMATTEDTABLEDATACOLUMN_END
  1
TABLECOLUMN_BEGIN
 90
        0
 40
36.0
309
TABLECOLUMN_END
300
COLUMN
  1
LINKEDTABLEDATACOLUMN_BEGIN
300

 91
        0
301
CUSTOMDATA
  1
DATAMAP_BEGIN
 90
        0
309
DATAMAP_END
309
LINKEDTABLEDATACOLUMN_END
  1
FORMATTEDTABLEDATACOLUMN_BEGIN
300
COLUMNTABLEFORMAT
  1
TABLEFORMAT_BEGIN
 90
        3
170
     0
309
TABLEFORMAT_END
309
FORMATTEDTABLEDATACOLUMN_END
  1
TABLECOLUMN_BEGIN
 90
        0
 40
36.0
309
TABLECOLUMN_END
 91
        4
301
ROW
  1
LINKEDTABLEDATAROW_BEGIN
 90
        3
300
CELL
  1
LINKEDTABLEDATACELL_BEGIN
 90
        0
300

 91
        0
301
CUSTOMDATA
  1
DATAMAP_BEGIN
 90
        1
300
ACAD_ROUNDTRIP_2008_CELL_CHECKSUM
301
DATAMAP_VALUE
 93
        2
 90
        2
140
0.0
 94
        0
300

302

304
ACVALUE_END
309
DATAMAP_END
 92
        0
 95
        1
302
CONTENT
  1
CELLCONTENT_BEGIN
 90
        1
300
VALUE
 93
        7
 90
        0
 94
        0
300

302

304
ACVALUE_END
 91
        0
309
CELLCONTENT_END
  1
FORMATTEDCELLCONTENT_BEGIN
170
     1
300
CONTENTFORMAT
  1
CONTENTFORMAT_BEGIN
 90
      192
 91
        0
 92
      512
 93
        0
300

 40
0.0
140
1.0
 94
        1
 62
     0
340
915
144
2.5
309
CONTENTFORMAT_END
309
FORMATTEDCELLCONTENT_END
309
LINKEDTABLEDATACELL_END
  1
FORMATTEDTABLEDATACELL_BEGIN
300
CELLTABLEFORMAT
  1
TABLEFORMAT_BEGIN
 90
        1
170
     1
 91
        0
 92
        0
 62
   257
 93
        1
300
CONTENTFORMAT
  1
CONTENTFORMAT_BEGIN
 90
        0
 91
        0
 92
      512
 93
        0
300

 40
0.0
140
1.0
 94
        1
 62
     0
340
0
144
0.18
309
CONTENTFORMAT_END
171
     1
301
MARGIN
  1
CELLMARGIN_BEGIN
 40
1.5
 40
1.5
 40
1.5
 40
1.5
 40
0.18
 40
0.18
309
CELLMARGIN_END
 94
        6
 95
        1
302
GRIDFORMAT
  1
GRIDFORMAT_BEGIN
 90
       37
 91
        1
 62
     0
 92
       -2
340
14
 93
        0
 40
1.125
309
GRIDFORMAT_END
 95
        2
302
GRIDFORMAT
  1
GRIDFORMAT_BEGIN
 90
       37
 91
        1
 62
     0
 92
       -2
340
14
 93
        0
 40
1.125
309
GRIDFORMAT_END
 95
        4
302
GRIDFORMAT
  1
GRIDFORMAT_BEGIN
 90
       37
 91
        1
 62
     0
 92
       -2
340
14
 93
        0
 40
1.125
309
GRIDFORMAT_END
 95
        8
302
GRIDFORMAT
  1
GRIDFORMAT_BEGIN
 90
       37
 91
        1
 62
     0
 92
       -2
340
14
 93
        0
 40
1.125
309
GRIDFORMAT_END
 95
       16
302
GRIDFORMAT
  1
GRIDFORMAT_BEGIN
 90
       37
 91
        1
 62
     0
 92
       -2
340
14
 93
        0
 40
1.125
309
GRIDFORMAT_END
 95
       32
302
GRIDFORMAT
  1
GRIDFORMAT_BEGIN
 90
       37
 91
        1
 62
     0
 92
       -2
340
14
 93
        0
 40
1.125
309
GRIDFORMAT_END
309
TABLEFORMAT_END
309
FORMATTEDTABLEDATACELL_END
  1
TABLECELL_BEGIN
 90
        0
 91
        0
309
TABLECELL_END
300
CELL
  1
LINKEDTABLEDATACELL_BEGIN
 90
        0
300

 91
        0
301
CUSTOMDATA
  1
DATAMAP_BEGIN
 90
        1
300
ACAD_ROUNDTRIP_2008_CELL_CHECKSUM
301
DATAMAP_VALUE
 93
        2
 90
        2
140
33842.0
 94
        0
300

302

304
ACVALUE_END
309
DATAMAP_END
 92
        0
 95
        1
302
CONTENT
  1
CELLCONTENT_BEGIN
 90
        1
300
VALUE
 93
        6
 90
        4
  1
{\fSimSun|b1|i0|c134|p34;S1}
 94
        0
300

302
{\fSimSun|b1|i0|c134|p34;S1}
304
ACVALUE_END
 91
        0
309
CELLCONTENT_END
  1
FORMATTEDCELLCONTENT_BEGIN
170
     1
300
CONTENTFORMAT
  1
CONTENTFORMAT_BEGIN
 90
      227
 91
        0
 92
        4
 93
        0
300

 40
0.0
140
1.0
 94
        1
 62
     3
340
915
144
2.5
309
CONTENTFORMAT_END
309
FORMATTEDCELLCONTENT_END
309
LINKEDTABLEDATACELL_END
  1
FORMATTEDTABLEDATACELL_BEGIN
300
CELLTABLEFORMAT
  1
TABLEFORMAT_BEGIN
 90
        1
170
     1
 91
       16
 92
        0
 62
   257
 93
        1
300
CONTENTFORMAT
  1
CONTENTFORMAT_BEGIN
 90
        0
 91
        0
 92
      512
 93
        0
300

 40
0.0
140
1.0
 94
        5
 62
     0
340
0
144
0.18
309
CONTENTFORMAT_END
171
     1
301
MARGIN
  1
CELLMARGIN_BEGIN
 40
1.5
 40
1.5
 40
1.5
 40
1.5
 40
0.18
 40
0.18
309
CELLMARGIN_END
 94
        5
 95
        1
302
GRIDFORMAT
  1
GRIDFORMAT_BEGIN
 90
       37
 91
        1
 62
     0
 92
       -2
340
14
 93
        0
 40
1.125
309
GRIDFORMAT_END
 95
        2
302
GRIDFORMAT
  1
GRIDFORMAT_BEGIN
 90
       37
 91
        1
 62
     0
 92
       -2
340
14
 93
        0
 40
1.125
309
GRIDFORMAT_END
 95
        4
302
GRIDFORMAT
  1
GRIDFORMAT_BEGIN
 90
       37
 91
        1
 62
     0
 92
       -2
340
14
 93
        0
 40
1.125
309
GRIDFORMAT_END
 95
       16
302
GRIDFORMAT
  1
GRIDFORMAT_BEGIN
 90
       37
 91
        1
 62
     0
 92
       -2
340
14
 93
        0
 40
1.125
309
GRIDFORMAT_END
 95
       32
302
GRIDFORMAT
  1
GRIDFORMAT_BEGIN
 90
       37
 91
        1
 62
     0
 92
       -2
340
14
 93
        0
 40
1.125
309
GRIDFORMAT_END
309
TABLEFORMAT_END
309
FORMATTEDTABLEDATACELL_END
  1
TABLECELL_BEGIN
 90
        0
 91
        0
309
TABLECELL_END
300
CELL
  1
LINKEDTABLEDATACELL_BEGIN
 90
        0
300

 91
        0
301
CUSTOMDATA
  1
DATAMAP_BEGIN
 90
        1
300
ACAD_ROUNDTRIP_2008_CELL_CHECKSUM
301
DATAMAP_VALUE
 93
        2
 90
        2
140
33869.0
 94
        0
300

302

304
ACVALUE_END
309
DATAMAP_END
 92
        0
 95
        1
302
CONTENT
  1
CELLCONTENT_BEGIN
 90
        1
300
VALUE
 93
        6
 90
        4
  1
{\fSimSun|b1|i0|c134|p34;S2}
 94
        0
300

302
{\fSimSun|b1|i0|c134|p34;S2}
304
ACVALUE_END
 91
        0
309
CELLCONTENT_END
  1
FORMATTEDCELLCONTENT_BEGIN
170
     1
300
CONTENTFORMAT
  1
CONTENTFORMAT_BEGIN
 90
      227
 91
        0
 92
        4
 93
        0
300

 40
0.0
140
1.0
 94
        1
 62
     3
340
915
144
2.5
309
CONTENTFORMAT_END
309
FORMATTEDCELLCONTENT_END
309
LINKEDTABLEDATACELL_END
  1
FORMATTEDTABLEDATACELL_BEGIN
300
CELLTABLEFORMAT
  1
TABLEFORMAT_BEGIN
 90
        1
170
     1
 91
       16
 92
        0
 62
   257
 93
        1
300
CONTENTFORMAT
  1
CONTENTFORMAT_BEGIN
 90
        0
 91
        0
 92
      512
 93
        0
300

 40
0.0
140
1.0
 94
        5
 62
     0
340
0
144
0.18
309
CONTENTFORMAT_END
171
     1
301
MARGIN
  1
CELLMARGIN_BEGIN
 40
1.5
 40
1.5
 40
1.5
 40
1.5
 40
0.18
 40
0.18
309
CELLMARGIN_END
 94
        5
 95
        1
302
GRIDFORMAT
  1
GRIDFORMAT_BEGIN
 90
       37
 91
        1
 62
     0
 92
       -2
340
14
 93
        0
 40
1.125
309
GRIDFORMAT_END
 95
        2
302
GRIDFORMAT
  1
GRIDFORMAT_BEGIN
 90
       37
 91
        1
 62
     0
 92
       -2
340
14
 93
        0
 40
1.125
309
GRIDFORMAT_END
 95
        4
302
GRIDFORMAT
  1
GRIDFORMAT_BEGIN
 90
       37
 91
        1
 62
     0
 92
       -2
340
14
 93
        0
 40
1.125
309
GRIDFORMAT_END
 95
       16
302
GRIDFORMAT
  1
GRIDFORMAT_BEGIN
 90
       37
 91
        1
 62
     0
 92
       -2
340
14
 93
        0
 40
1.125
309
GRIDFORMAT_END
 95
       32
302
GRIDFORMAT
  1
GRIDFORMAT_BEGIN
 90
       37
 91
        1
 62
     0
 92
       -2
340
14
 93
        0
 40
1.125
309
GRIDFORMAT_END
309
TABLEFORMAT_END
309
FORMATTEDTABLEDATACELL_END
  1
TABLECELL_BEGIN
 90
        0
 91
        0
309
TABLECELL_END
 91
        0
301
CUSTOMDATA
  1
DATAMAP_BEGIN
 90
        0
309
DATAMAP_END
309
LINKEDTABLEDATAROW_END
  1
FORMATTEDTABLEDATAROW_BEGIN
300
ROWTABLEFORMAT
  1
TABLEFORMAT_BEGIN
 90
        2
170
     0
309
TABLEFORMAT_END
309
FORMATTEDTABLEDATAROW_END
  1
TABLEROW_BEGIN
 90
        3
 40
6.333333333333332
309
TABLEROW_END
301
ROW
  1
LINKEDTABLEDATAROW_BEGIN
 90
        3
300
CELL
  1
LINKEDTABLEDATACELL_BEGIN
 90
        0
300

 91
        0
301
CUSTOMDATA
  1
DATAMAP_BEGIN
 90
        1
300
ACAD_ROUNDTRIP_2008_CELL_CHECKSUM
301
DATAMAP_VALUE
 93
        2
 90
        2
140
1458111.0
 94
        0
300

302

304
ACVALUE_END
309
DATAMAP_END
 92
        0
 95
        1
302
CONTENT
  1
CELLCONTENT_BEGIN
 90
        1
300
VALUE
 93
        6
 90
        4
  1
{\fSimSun|b1|i0|c134|p34;形状}
 94
        0
300

302
{\fSimSun|b1|i0|c134|p34;形状}
304
ACVALUE_END
 91
        0
309
CELLCONTENT_END
  1
FORMATTEDCELLCONTENT_BEGIN
170
     1
300
CONTENTFORMAT
  1
CONTENTFORMAT_BEGIN
 90
      227
 91
        0
 92
        4
 93
        0
300

 40
0.0
140
1.0
 94
        1
 62
     3
340
915
144
2.5
309
CONTENTFORMAT_END
309
FORMATTEDCELLCONTENT_END
309
LINKEDTABLEDATACELL_END
  1
FORMATTEDTABLEDATACELL_BEGIN
300
CELLTABLEFORMAT
  1
TABLEFORMAT_BEGIN
 90
        1
170
     1
 91
       16
 92
        0
 62
   257
 93
        1
300
CONTENTFORMAT
  1
CONTENTFORMAT_BEGIN
 90
        0
 91
        0
 92
      512
 93
        0
300

 40
0.0
140
1.0
 94
        5
 62
     0
340
0
144
0.18
309
CONTENTFORMAT_END
171
     1
301
MARGIN
  1
CELLMARGIN_BEGIN
 40
1.5
 40
1.5
 40
1.5
 40
1.5
 40
0.18
 40
0.18
309
CELLMARGIN_END
 94
        5
 95
        2
302
GRIDFORMAT
  1
GRIDFORMAT_BEGIN
 90
       37
 91
        1
 62
     0
 92
       -2
340
14
 93
        0
 40
1.125
309
GRIDFORMAT_END
 95
        4
302
GRIDFORMAT
  1
GRIDFORMAT_BEGIN
 90
       37
 91
        1
 62
     0
 92
       -2
340
14
 93
        0
 40
1.125
309
GRIDFORMAT_END
 95
        8
302
GRIDFORMAT
  1
GRIDFORMAT_BEGIN
 90
       37
 91
        1
 62
     0
 92
       -2
340
14
 93
        0
 40
1.125
309
GRIDFORMAT_END
 95
       16
302
GRIDFORMAT
  1
GRIDFORMAT_BEGIN
 90
       37
 91
        1
 62
     0
 92
       -2
340
14
 93
        0
 40
1.125
309
GRIDFORMAT_END
 95
       32
302
GRIDFORMAT
  1
GRIDFORMAT_BEGIN
 90
       37
 91
        1
 62
     0
 92
       -2
340
14
 93
        0
 40
1.125
309
GRIDFORMAT_END
309
TABLEFORMAT_END
309
FORMATTEDTABLEDATACELL_END
  1
TABLECELL_BEGIN
 90
        0
 91
        0
309
TABLECELL_END
300
CELL
  1
LINKEDTABLEDATACELL_BEGIN
 90
        0
300

 91
        0
301
CUSTOMDATA
  1
DATAMAP_BEGIN
 90
        1
300
ACAD_ROUNDTRIP_2008_CELL_CHECKSUM
301
DATAMAP_VALUE
 93
        2
 90
        2
140
1705373.0
 94
        0
300

302

304
ACVALUE_END
309
DATAMAP_END
 92
        0
 95
        1
302
CONTENT
  1
CELLCONTENT_BEGIN
 90
        1
300
VALUE
 93
        6
 90
        4
  1
{\fSimSun|b1|i0|c134|p34;平面}
 94
        0
300

302
{\fSimSun|b1|i0|c134|p34;平面}
304
ACVALUE_END
 91
        0
309
CELLCONTENT_END
  1
FORMATTEDCELLCONTENT_BEGIN
170
     1
300
CONTENTFORMAT
  1
CONTENTFORMAT_BEGIN
 90
      227
 91
        0
 92
        4
 93
        0
300

 40
0.0
140
1.0
 94
        1
 62
     3
340
915
144
2.5
309
CONTENTFORMAT_END
309
FORMATTEDCELLCONTENT_END
309
LINKEDTABLEDATACELL_END
  1
FORMATTEDTABLEDATACELL_BEGIN
300
CELLTABLEFORMAT
  1
TABLEFORMAT_BEGIN
 90
        1
170
     1
 91
       16
 92
        0
 62
   257
 93
        1
300
CONTENTFORMAT
  1
CONTENTFORMAT_BEGIN
 90
        0
 91
        0
 92
      512
 93
        0
300

 40
0.0
140
1.0
 94
        5
 62
     0
340
0
144
0.18
309
CONTENTFORMAT_END
171
     1
301
MARGIN
  1
CELLMARGIN_BEGIN
 40
1.5
 40
1.5
 40
1.5
 40
1.5
 40
0.18
 40
0.18
309
CELLMARGIN_END
 94
        4
 95
        2
302
GRIDFORMAT
  1
GRIDFORMAT_BEGIN
 90
       37
 91
        1
 62
     0
 92
       -2
340
14
 93
        0
 40
1.125
309
GRIDFORMAT_END
 95
        4
302
GRIDFORMAT
  1
GRIDFORMAT_BEGIN
 90
       37
 91
        1
 62
     0
 92
       -2
340
14
 93
        0
 40
1.125
309
GRIDFORMAT_END
 95
       16
302
GRIDFORMAT
  1
GRIDFORMAT_BEGIN
 90
       37
 91
        1
 62
     0
 92
       -2
340
14
 93
        0
 40
1.125
309
GRIDFORMAT_END
 95
       32
302
GRIDFORMAT
  1
GRIDFORMAT_BEGIN
 90
       37
 91
        1
 62
     0
 92
       -2
340
14
 93
        0
 40
1.125
309
GRIDFORMAT_END
309
TABLEFORMAT_END
309
FORMATTEDTABLEDATACELL_END
  1
TABLECELL_BEGIN
 90
        0
 91
        0
309
TABLECELL_END
300
CELL
  1
LINKEDTABLEDATACELL_BEGIN
 90
        0
300

 91
        0
301
CUSTOMDATA
  1
DATAMAP_BEGIN
 90
        1
300
ACAD_ROUNDTRIP_2008_CELL_CHECKSUM
301
DATAMAP_VALUE
 93
        2
 90
        2
140
1705373.0
 94
        0
300

302

304
ACVALUE_END
309
DATAMAP_END
 92
        0
 95
        1
302
CONTENT
  1
CELLCONTENT_BEGIN
 90
        1
300
VALUE
 93
        6
 90
        4
  1
{\fSimSun|b1|i0|c134|p34;平面}
 94
        0
300

302
{\fSimSun|b1|i0|c134|p34;平面}
304
ACVALUE_END
 91
        0
309
CELLCONTENT_END
  1
FORMATTEDCELLCONTENT_BEGIN
170
     1
300
CONTENTFORMAT
  1
CONTENTFORMAT_BEGIN
 90
      227
 91
        0
 92
        4
 93
        0
300

 40
0.0
140
1.0
 94
        1
 62
     3
340
915
144
2.5
309
CONTENTFORMAT_END
309
FORMATTEDCELLCONTENT_END
309
LINKEDTABLEDATACELL_END
  1
FORMATTEDTABLEDATACELL_BEGIN
300
CELLTABLEFORMAT
  1
TABLEFORMAT_BEGIN
 90
        1
170
     1
 91
       16
 92
        0
 62
   257
 93
        1
300
CONTENTFORMAT
  1
CONTENTFORMAT_BEGIN
 90
        0
 91
        0
 92
      512
 93
        0
300

 40
0.0
140
1.0
 94
        5
 62
     0
340
0
144
0.18
309
CONTENTFORMAT_END
171
     1
301
MARGIN
  1
CELLMARGIN_BEGIN
 40
1.5
 40
1.5
 40
1.5
 40
1.5
 40
0.18
 40
0.18
309
CELLMARGIN_END
 94
        4
 95
        2
302
GRIDFORMAT
  1
GRIDFORMAT_BEGIN
 90
       37
 91
        1
 62
     0
 92
       -2
340
14
 93
        0
 40
1.125
309
GRIDFORMAT_END
 95
        4
302
GRIDFORMAT
  1
GRIDFORMAT_BEGIN
 90
       37
 91
        1
 62
     0
 92
       -2
340
14
 93
        0
 40
1.125
309
GRIDFORMAT_END
 95
       16
302
GRIDFORMAT
  1
GRIDFORMAT_BEGIN
 90
       37
 91
        1
 62
     0
 92
       -2
340
14
 93
        0
 40
1.125
309
GRIDFORMAT_END
 95
       32
302
GRIDFORMAT
  1
GRIDFORMAT_BEGIN
 90
       37
 91
        1
 62
     0
 92
       -2
340
14
 93
        0
 40
1.125
309
GRIDFORMAT_END
309
TABLEFORMAT_END
309
FORMATTEDTABLEDATACELL_END
  1
TABLECELL_BEGIN
 90
        0
 91
        0
309
TABLECELL_END
 91
        0
301
CUSTOMDATA
  1
DATAMAP_BEGIN
 90
        0
309
DATAMAP_END
309
LINKEDTABLEDATAROW_END
  1
FORMATTEDTABLEDATAROW_BEGIN
300
ROWTABLEFORMAT
  1
TABLEFORMAT_BEGIN
 90
        2
170
     0
309
TABLEFORMAT_END
309
FORMATTEDTABLEDATAROW_END
  1
TABLEROW_BEGIN
 90
        3
 40
6.333333333333332
309
TABLEROW_END
301
ROW
  1
LINKEDTABLEDATAROW_BEGIN
 90
        3
300
CELL
  1
LINKEDTABLEDATACELL_BEGIN
 90
        0
300

 91
        0
301
CUSTOMDATA
  1
DATAMAP_BEGIN
 90
        1
300
ACAD_ROUNDTRIP_2008_CELL_CHECKSUM
301
DATAMAP_VALUE
 93
        2
 90
        2
140
2003395.0
 94
        0
300

302

304
ACVALUE_END
309
DATAMAP_END
 92
        0
 95
        1
302
CONTENT
  1
CELLCONTENT_BEGIN
 90
        1
300
VALUE
 93
        6
 90
        4
  1
{\fSimSun|b1|i0|c134|p34;光洁度}
 94
        0
300

302
{\fSimSun|b1|i0|c134|p34;光洁度}
304
ACVALUE_END
 91
        0
309
CELLCONTENT_END
  1
FORMATTEDCELLCONTENT_BEGIN
170
     1
300
CONTENTFORMAT
  1
CONTENTFORMAT_BEGIN
 90
      227
 91
        0
 92
        4
 93
        0
300

 40
0.0
140
1.0
 94
        1
 62
     3
340
915
144
2.5
309
CONTENTFORMAT_END
309
FORMATTEDCELLCONTENT_END
309
LINKEDTABLEDATACELL_END
  1
FORMATTEDTABLEDATACELL_BEGIN
300
CELLTABLEFORMAT
  1
TABLEFORMAT_BEGIN
 90
        1
170
     1
 91
       16
 92
        0
 62
   257
 93
        1
300
CONTENTFORMAT
  1
CONTENTFORMAT_BEGIN
 90
        0
 91
        0
 92
      512
 93
        0
300

 40
0.0
140
1.0
 94
        5
 62
     0
340
0
144
0.18
309
CONTENTFORMAT_END
171
     1
301
MARGIN
  1
CELLMARGIN_BEGIN
 40
1.5
 40
1.5
 40
1.5
 40
1.5
 40
0.18
 40
0.18
309
CELLMARGIN_END
 94
        5
 95
        2
302
GRIDFORMAT
  1
GRIDFORMAT_BEGIN
 90
       37
 91
        1
 62
     0
 92
       -2
340
14
 93
        0
 40
1.125
309
GRIDFORMAT_END
 95
        4
302
GRIDFORMAT
  1
GRIDFORMAT_BEGIN
 90
       37
 91
        1
 62
     0
 92
       -2
340
14
 93
        0
 40
1.125
309
GRIDFORMAT_END
 95
        8
302
GRIDFORMAT
  1
GRIDFORMAT_BEGIN
 90
       37
 91
        1
 62
     0
 92
       -2
340
14
 93
        0
 40
1.125
309
GRIDFORMAT_END
 95
       16
302
GRIDFORMAT
  1
GRIDFORMAT_BEGIN
 90
       37
 91
        1
 62
     0
 92
       -2
340
14
 93
        0
 40
1.125
309
GRIDFORMAT_END
 95
       32
302
GRIDFORMAT
  1
GRIDFORMAT_BEGIN
 90
       37
 91
        1
 62
     0
 92
       -2
340
14
 93
        0
 40
1.125
309
GRIDFORMAT_END
309
TABLEFORMAT_END
309
FORMATTEDTABLEDATACELL_END
  1
TABLECELL_BEGIN
 90
        0
 91
        0
309
TABLECELL_END
300
CELL
  1
LINKEDTABLEDATACELL_BEGIN
 90
        0
300

 91
        0
301
CUSTOMDATA
  1
DATAMAP_BEGIN
 90
        1
300
ACAD_ROUNDTRIP_2008_CELL_CHECKSUM
301
DATAMAP_VALUE
 93
        2
 90
        2
140
37725.0
 94
        0
300

302

304
ACVALUE_END
309
DATAMAP_END
 92
        0
 95
        1
302
CONTENT
  1
CELLCONTENT_BEGIN
 90
        1
300
VALUE
 93
        6
 90
        4
  1
{\fSimSun|b1|i0|c134|p34;80-50}
 94
        0
300

302
{\fSimSun|b1|i0|c134|p34;80-50}
304
ACVALUE_END
 91
        0
309
CELLCONTENT_END
  1
FORMATTEDCELLCONTENT_BEGIN
170
     1
300
CONTENTFORMAT
  1
CONTENTFORMAT_BEGIN
 90
      227
 91
        0
 92
        4
 93
        0
300

 40
0.0
140
1.0
 94
        1
 62
     3
340
915
144
2.5
309
CONTENTFORMAT_END
309
FORMATTEDCELLCONTENT_END
309
LINKEDTABLEDATACELL_END
  1
FORMATTEDTABLEDATACELL_BEGIN
300
CELLTABLEFORMAT
  1
TABLEFORMAT_BEGIN
 90
        1
170
     1
 91
       16
 92
        0
 62
   257
 93
        1
300
CONTENTFORMAT
  1
CONTENTFORMAT_BEGIN
 90
        0
 91
        0
 92
      512
 93
        0
300

 40
0.0
140
1.0
 94
        5
 62
     0
340
0
144
0.18
309
CONTENTFORMAT_END
171
     1
301
MARGIN
  1
CELLMARGIN_BEGIN
 40
1.5
 40
1.5
 40
1.5
 40
1.5
 40
0.18
 40
0.18
309
CELLMARGIN_END
 94
        4
 95
        2
302
GRIDFORMAT
  1
GRIDFORMAT_BEGIN
 90
       37
 91
        1
 62
     0
 92
       -2
340
14
 93
        0
 40
1.125
309
GRIDFORMAT_END
 95
        4
302
GRIDFORMAT
  1
GRIDFORMAT_BEGIN
 90
       37
 91
        1
 62
     0
 92
       -2
340
14
 93
        0
 40
1.125
309
GRIDFORMAT_END
 95
       16
302
GRIDFORMAT
  1
GRIDFORMAT_BEGIN
 90
       37
 91
        1
 62
     0
 92
       -2
340
14
 93
        0
 40
1.125
309
GRIDFORMAT_END
 95
       32
302
GRIDFORMAT
  1
GRIDFORMAT_BEGIN
 90
       37
 91
        1
 62
     0
 92
       -2
340
14
 93
        0
 40
1.125
309
GRIDFORMAT_END
309
TABLEFORMAT_END
309
FORMATTEDTABLEDATACELL_END
  1
TABLECELL_BEGIN
 90
        0
 91
        0
309
TABLECELL_END
300
CELL
  1
LINKEDTABLEDATACELL_BEGIN
 90
        0
300

 91
        0
301
CUSTOMDATA
  1
DATAMAP_BEGIN
 90
        1
300
ACAD_ROUNDTRIP_2008_CELL_CHECKSUM
301
DATAMAP_VALUE
 93
        2
 90
        2
140
37725.0
 94
        0
300

302

304
ACVALUE_END
309
DATAMAP_END
 92
        0
 95
        1
302
CONTENT
  1
CELLCONTENT_BEGIN
 90
        1
300
VALUE
 93
        6
 90
        4
  1
{\fSimSun|b1|i0|c134|p34;80-50}
 94
        0
300

302
{\fSimSun|b1|i0|c134|p34;80-50}
304
ACVALUE_END
 91
        0
309
CELLCONTENT_END
  1
FORMATTEDCELLCONTENT_BEGIN
170
     1
300
CONTENTFORMAT
  1
CONTENTFORMAT_BEGIN
 90
      227
 91
        0
 92
        4
 93
        0
300

 40
0.0
140
1.0
 94
        1
 62
     3
340
915
144
2.5
309
CONTENTFORMAT_END
309
FORMATTEDCELLCONTENT_END
309
LINKEDTABLEDATACELL_END
  1
FORMATTEDTABLEDATACELL_BEGIN
300
CELLTABLEFORMAT
  1
TABLEFORMAT_BEGIN
 90
        1
170
     1
 91
       16
 92
        0
 62
   257
 93
        1
300
CONTENTFORMAT
  1
CONTENTFORMAT_BEGIN
 90
        0
 91
        0
 92
      512
 93
        0
300

 40
0.0
140
1.0
 94
        5
 62
     0
340
0
144
0.18
309
CONTENTFORMAT_END
171
     1
301
MARGIN
  1
CELLMARGIN_BEGIN
 40
1.5
 40
1.5
 40
1.5
 40
1.5
 40
0.18
 40
0.18
309
CELLMARGIN_END
 94
        4
 95
        2
302
GRIDFORMAT
  1
GRIDFORMAT_BEGIN
 90
       37
 91
        1
 62
     0
 92
       -2
340
14
 93
        0
 40
1.125
309
GRIDFORMAT_END
 95
        4
302
GRIDFORMAT
  1
GRIDFORMAT_BEGIN
 90
       37
 91
        1
 62
     0
 92
       -2
340
14
 93
        0
 40
1.125
309
GRIDFORMAT_END
 95
       16
302
GRIDFORMAT
  1
GRIDFORMAT_BEGIN
 90
       37
 91
        1
 62
     0
 92
       -2
340
14
 93
        0
 40
1.125
309
GRIDFORMAT_END
 95
       32
302
GRIDFORMAT
  1
GRIDFORMAT_BEGIN
 90
       37
 91
        1
 62
     0
 92
       -2
340
14
 93
        0
 40
1.125
309
GRIDFORMAT_END
309
TABLEFORMAT_END
309
FORMATTEDTABLEDATACELL_END
  1
TABLECELL_BEGIN
 90
        0
 91
        0
309
TABLECELL_END
 91
        0
301
CUSTOMDATA
  1
DATAMAP_BEGIN
 90
        0
309
DATAMAP_END
309
LINKEDTABLEDATAROW_END
  1
FORMATTEDTABLEDATAROW_BEGIN
300
ROWTABLEFORMAT
  1
TABLEFORMAT_BEGIN
 90
        2
170
     0
309
TABLEFORMAT_END
309
FORMATTEDTABLEDATAROW_END
  1
TABLEROW_BEGIN
 90
        3
 40
6.333333333333332
309
TABLEROW_END
301
ROW
  1
LINKEDTABLEDATAROW_BEGIN
 90
        3
300
CELL
  1
LINKEDTABLEDATACELL_BEGIN
 90
        0
300

 91
        0
301
CUSTOMDATA
  1
DATAMAP_BEGIN
 90
        1
300
ACAD_ROUNDTRIP_2008_CELL_CHECKSUM
301
DATAMAP_VALUE
 93
        2
 90
        2
140
2862002.0
 94
        0
300

302

304
ACVALUE_END
309
DATAMAP_END
 92
        0
 95
        1
302
CONTENT
  1
CELLCONTENT_BEGIN
 90
        1
300
VALUE
 93
        6
 90
        4
  1
{\fSimSun|b1|i0|c134|p34;通光口径}
 94
        0
300

302
{\fSimSun|b1|i0|c134|p34;通光口径}
304
ACVALUE_END
 91
        0
309
CELLCONTENT_END
  1
FORMATTEDCELLCONTENT_BEGIN
170
     1
300
CONTENTFORMAT
  1
CONTENTFORMAT_BEGIN
 90
      227
 91
        0
 92
        4
 93
        0
300

 40
0.0
140
1.0
 94
        1
 62
     3
340
915
144
2.5
309
CONTENTFORMAT_END
309
FORMATTEDCELLCONTENT_END
309
LINKEDTABLEDATACELL_END
  1
FORMATTEDTABLEDATACELL_BEGIN
300
CELLTABLEFORMAT
  1
TABLEFORMAT_BEGIN
 90
        1
170
     1
 91
       16
 92
        0
 62
   257
 93
        1
300
CONTENTFORMAT
  1
CONTENTFORMAT_BEGIN
 90
        0
 91
        0
 92
      512
 93
        0
300

 40
0.0
140
1.0
 94
        5
 62
     0
340
0
144
0.18
309
CONTENTFORMAT_END
171
     1
301
MARGIN
  1
CELLMARGIN_BEGIN
 40
1.5
 40
1.5
 40
1.5
 40
1.5
 40
0.18
 40
0.18
309
CELLMARGIN_END
 94
        5
 95
        2
302
GRIDFORMAT
  1
GRIDFORMAT_BEGIN
 90
       37
 91
        1
 62
     0
 92
       -2
340
14
 93
        0
 40
1.125
309
GRIDFORMAT_END
 95
        4
302
GRIDFORMAT
  1
GRIDFORMAT_BEGIN
 90
       37
 91
        1
 62
     0
 92
       -2
340
14
 93
        0
 40
1.125
309
GRIDFORMAT_END
 95
        8
302
GRIDFORMAT
  1
GRIDFORMAT_BEGIN
 90
       37
 91
        1
 62
     0
 92
       -2
340
14
 93
        0
 40
1.125
309
GRIDFORMAT_END
 95
       16
302
GRIDFORMAT
  1
GRIDFORMAT_BEGIN
 90
       37
 91
        1
 62
     0
 92
       -2
340
14
 93
        0
 40
1.125
309
GRIDFORMAT_END
 95
       32
302
GRIDFORMAT
  1
GRIDFORMAT_BEGIN
 90
       37
 91
        1
 62
     0
 92
       -2
340
14
 93
        0
 40
1.125
309
GRIDFORMAT_END
309
TABLEFORMAT_END
309
FORMATTEDTABLEDATACELL_END
  1
TABLECELL_BEGIN
 90
        0
 91
        0
309
TABLECELL_END
300
CELL
  1
LINKEDTABLEDATACELL_BEGIN
 90
        0
300

 91
        0
301
CUSTOMDATA
  1
DATAMAP_BEGIN
 90
        1
300
ACAD_ROUNDTRIP_2008_CELL_CHECKSUM
301
DATAMAP_VALUE
 93
        2
 90
        2
140
34300.0
 94
        0
300

302

304
ACVALUE_END
309
DATAMAP_END
 92
        0
 95
        1
302
CONTENT
  1
CELLCONTENT_BEGIN
 90
        1
300
VALUE
 93
        6
 90
        4
  1
{\fSimSun|b1|i0|c134|p34;90%}
 94
        0
300

302
{\fSimSun|b1|i0|c134|p34;90%}
304
ACVALUE_END
 91
        0
309
CELLCONTENT_END
  1
FORMATTEDCELLCONTENT_BEGIN
170
     1
300
CONTENTFORMAT
  1
CONTENTFORMAT_BEGIN
 90
      227
 91
        0
 92
        4
 93
        0
300

 40
0.0
140
1.0
 94
        1
 62
     3
340
915
144
2.5
309
CONTENTFORMAT_END
309
FORMATTEDCELLCONTENT_END
309
LINKEDTABLEDATACELL_END
  1
FORMATTEDTABLEDATACELL_BEGIN
300
CELLTABLEFORMAT
  1
TABLEFORMAT_BEGIN
 90
        1
170
     1
 91
       16
 92
        0
 62
   257
 93
        1
300
CONTENTFORMAT
  1
CONTENTFORMAT_BEGIN
 90
        0
 91
        0
 92
      512
 93
        0
300

 40
0.0
140
1.0
 94
        5
 62
     0
340
0
144
0.18
309
CONTENTFORMAT_END
171
     1
301
MARGIN
  1
CELLMARGIN_BEGIN
 40
1.5
 40
1.5
 40
1.5
 40
1.5
 40
0.18
 40
0.18
309
CELLMARGIN_END
 94
        4
 95
        2
302
GRIDFORMAT
  1
GRIDFORMAT_BEGIN
 90
       37
 91
        1
 62
     0
 92
       -2
340
14
 93
        0
 40
1.125
309
GRIDFORMAT_END
 95
        4
302
GRIDFORMAT
  1
GRIDFORMAT_BEGIN
 90
       37
 91
        1
 62
     0
 92
       -2
340
14
 93
        0
 40
1.125
309
GRIDFORMAT_END
 95
       16
302
GRIDFORMAT
  1
GRIDFORMAT_BEGIN
 90
       37
 91
        1
 62
     0
 92
       -2
340
14
 93
        0
 40
1.125
309
GRIDFORMAT_END
 95
       32
302
GRIDFORMAT
  1
GRIDFORMAT_BEGIN
 90
       37
 91
        1
 62
     0
 92
       -2
340
14
 93
        0
 40
1.125
309
GRIDFORMAT_END
309
TABLEFORMAT_END
309
FORMATTEDTABLEDATACELL_END
  1
TABLECELL_BEGIN
 90
        0
 91
        0
309
TABLECELL_END
300
CELL
  1
LINKEDTABLEDATACELL_BEGIN
 90
        0
300

 91
        0
301
CUSTOMDATA
  1
DATAMAP_BEGIN
 90
        1
300
ACAD_ROUNDTRIP_2008_CELL_CHECKSUM
301
DATAMAP_VALUE
 93
        2
 90
        2
140
34300.0
 94
        0
300

302

304
ACVALUE_END
309
DATAMAP_END
 92
        0
 95
        1
302
CONTENT
  1
CELLCONTENT_BEGIN
 90
        1
300
VALUE
 93
        6
 90
        4
  1
{\fSimSun|b1|i0|c134|p34;90%}
 94
        0
300

302
{\fSimSun|b1|i0|c134|p34;90%}
304
ACVALUE_END
 91
        0
309
CELLCONTENT_END
  1
FORMATTEDCELLCONTENT_BEGIN
170
     1
300
CONTENTFORMAT
  1
CONTENTFORMAT_BEGIN
 90
      227
 91
        0
 92
        4
 93
        0
300

 40
0.0
140
1.0
 94
        1
 62
     3
340
915
144
2.5
309
CONTENTFORMAT_END
309
FORMATTEDCELLCONTENT_END
309
LINKEDTABLEDATACELL_END
  1
FORMATTEDTABLEDATACELL_BEGIN
300
CELLTABLEFORMAT
  1
TABLEFORMAT_BEGIN
 90
        1
170
     1
 91
       16
 92
        0
 62
   257
 93
        1
300
CONTENTFORMAT
  1
CONTENTFORMAT_BEGIN
 90
        0
 91
        0
 92
      512
 93
        0
300

 40
0.0
140
1.0
 94
        5
 62
     0
340
0
144
0.18
309
CONTENTFORMAT_END
171
     1
301
MARGIN
  1
CELLMARGIN_BEGIN
 40
1.5
 40
1.5
 40
1.5
 40
1.5
 40
0.18
 40
0.18
309
CELLMARGIN_END
 94
        4
 95
        2
302
GRIDFORMAT
  1
GRIDFORMAT_BEGIN
 90
       37
 91
        1
 62
     0
 92
       -2
340
14
 93
        0
 40
1.125
309
GRIDFORMAT_END
 95
        4
302
GRIDFORMAT
  1
GRIDFORMAT_BEGIN
 90
       37
 91
        1
 62
     0
 92
       -2
340
14
 93
        0
 40
1.125
309
GRIDFORMAT_END
 95
       16
302
GRIDFORMAT
  1
GRIDFORMAT_BEGIN
 90
       37
 91
        1
 62
     0
 92
       -2
340
14
 93
        0
 40
1.125
309
GRIDFORMAT_END
 95
       32
302
GRIDFORMAT
  1
GRIDFORMAT_BEGIN
 90
       37
 91
        1
 62
     0
 92
       -2
340
14
 93
        0
 40
1.125
309
GRIDFORMAT_END
309
TABLEFORMAT_END
309
FORMATTEDTABLEDATACELL_END
  1
TABLECELL_BEGIN
 90
        0
 91
        0
309
TABLECELL_END
 91
        0
301
CUSTOMDATA
  1
DATAMAP_BEGIN
 90
        0
309
DATAMAP_END
309
LINKEDTABLEDATAROW_END
  1
FORMATTEDTABLEDATAROW_BEGIN
300
ROWTABLEFORMAT
  1
TABLEFORMAT_BEGIN
 90
        2
170
     0
309
TABLEFORMAT_END
309
FORMATTEDTABLEDATAROW_END
  1
TABLEROW_BEGIN
 90
        3
 40
6.333333333333332
309
TABLEROW_END
 92
        0
100
AcDbFormattedTableData
300
TABLEFORMAT
  1
TABLEFORMAT_BEGIN
 90
        4
170
     0
309
TABLEFORMAT_END
 90
        0
100
AcDbTableContent
340
7F
  0
TABLEGEOMETRY
  5
B87
330
B89
100
AcDbTableGeometry
 90
        4
 91
        3
 92
       12
 93
        3
 40
3.0
 41
5.5
330
0
 94
        1
 10
21.325
 20
-1.5
 30
0.0
 11
21.325
 21
-1.5
 31
0.0
 43
0.0
 44
2.5
 45
0.0
 46
2.5
 95
        0
 93
        3
 40
6.176923076923077
 41
5.5
330
0
 94
        1
 10
16.41153846153846
 20
-1.916666666666664
 30
0.0
 11
18.0
 21
-3.166666666666664
 31
0.0
 43
3.176923076923077
 44
2.5
 45
3.176923076923077
 46
2.5
 95
        0
 93
        3
 40
6.286813186813187
 41
5.5
330
0
 94
        1
 10
16.3565934065934
 20
-1.916666666666664
 30
0.0
 11
18.0
 21
-3.166666666666664
 31
0.0
 43
3.286813186813187
 44
2.5
 45
3.286813186813187
 46
2.5
 95
        0
 93
        3
 40
9.858241758241756
 41
6.20054945054945
330
0
 94
        1
 10
17.89587912087911
 20
-1.566391941391941
 30
0.0
 11
21.325
 21
-3.166666666666667
 31
0.0
 43
6.858241758241757
 44
3.20054945054945
 45
6.858241758241757
 46
3.20054945054945
 95
        0
 93
        3
 40
9.913186813186813
 41
6.186813186813187
330
0
 94
        1
 10
14.54340659340659
 20
-1.573260073260072
 30
0.0
 11
18.0
 21
-3.166666666666667
 31
0.0
 43
6.913186813186813
 44
3.186813186813187
 45
6.913186813186813
 46
3.186813186813187
 95
        0
 93
        3
 40
9.913186813186813
 41
6.186813186813187
330
0
 94
        1
 10
14.5434065934066
 20
-1.573260073260072
 30
0.0
 11
18.0
 21
-3.166666666666667
 31
0.0
 43
6.913186813186813
 44
3.186813186813187
 45
6.913186813186813
 46
3.186813186813187
 95
        0
 93
        3
 40
13.34725274725275
 41
6.255494505494505
330
0
 94
        1
 10
16.15137362637362
 20
-1.538919413919414
 30
0.0
 11
21.325
 21
-3.166666666666666
 31
0.0
 43
10.34725274725275
 44
3.255494505494505
 45
10.34725274725275
 46
3.255494505494505
 95
        0
 93
        3
 40
11.64395604395604
 41
5.5
330
0
 94
        1
 10
13.67802197802197
 20
-1.916666666666666
 30
0.0
 11
18.0
 21
-3.166666666666666
 31
0.0
 43
8.643956043956045
 44
2.5
 45
8.643956043956045
 46
2.5
 95
        0
 93
        3
 40
11.64395604395604
 41
5.5
330
0
 94
        1
 10
13.67802197802199
 20
-1.916666666666666
 30
0.0
 11
18.0
 21
-3.166666666666666
 31
0.0
 43
8.643956043956045
 44
2.5
 45
8.643956043956045
 46
2.5
 95
        0
 93
        3
 40
16.93241758241758
 41
6.214285714285714
330
0
 94
        1
 10
14.3587912087912
 20
-1.559523809523808
 30
0.0
 11
21.325
 21
-3.166666666666666
 31
0.0
 43
13.93241758241758
 44
3.214285714285714
 45
13.93241758241758
 46
3.214285714285714
 95
        0
 93
        3
 40
8.196153846153844
 41
5.5
330
0
 94
        1
 10
15.40192307692307
 20
-1.916666666666666
 30
0.0
 11
18.0
 21
-3.166666666666666
 31
0.0
 43
5.196153846153845
 44
2.5
 45
5.196153846153845
 46
2.5
 95
        0
 93
        3
 40
8.196153846153844
 41
5.5
330
0
 94
        1
 10
15.40192307692307
 20
-1.916666666666666
 30
0.0
 11
18.0
 21
-3.166666666666666
 31
0.0
 43
5.196153846153845
 44
2.5
 45
5.196153846153845
 46
2.5
 95
        0
  0
DICTIONARY
  5
205
330
22
100
AcDbDictionary
280
     1
281
     1
  0
DICTIONARY
  5
1F9
330
ED
100
AcDbDictionary
280
     1
281
     1
  3
FBXASSET
360
1FA
  0
DICTIONARY
  5
1F7
330
EC
100
AcDbDictionary
280
     1
281
     1
  3
FBXASSET
360
1F8
  0
DICTIONARY
  5
173
330
EE
100
AcDbDictionary
280
     1
281
     1
  3
BUMPTILE
360
175
  3
DIFFUSETILE
360
174
  3
FBXASSET
360
1FB
  3
OPACITYTILE
360
176
  3
REFLECTIONTILE
360
177
  0
DICTIONARY
  5
162
330
7F
100
AcDbDictionary
280
     1
281
     1
  3
ACAD_ROUNDTRIP_2008_TABLESTYLE_CELLSTYLEMAP
360
B85
  0
ACDBASSOCACTION
  5
9D3
330
8A8
100
AcDbAssocAction
 90
        2
 90
        0
330
8A8
360
9D4
 90
        5
 90
        2
 90
        2
360
9D5
360
9D6
 90
        0
 90
        1
360
9D7
 90
        0
 90
       16
 90
        0
  1
HorizontalStartExtension
 90
        0
 90
        1
 40
1.000000000000000E+60
330
0
330
0
 90
        0
  1
HorizontalEndExtension
 90
        0
 90
        1
 40
1.000000000000000E+60
330
0
330
0
 90
        0
  1
VerticalStartExtension
 90
        0
 90
        1
 40
1.000000000000000E+60
330
0
330
0
 90
        0
  1
VerticalEndExtension
 90
        0
 90
        1
 40
1.000000000000000E+60
330
0
330
0
 90
        0
  1
HorizontalStartOvershoot
 90
        0
 90
        1
 40
3.5
330
0
330
0
 90
        0
  1
HorizontalEndOvershoot
 90
        0
 90
        1
 40
3.5
330
0
330
0
 90
        0
  1
VerticalStartOvershoot
 90
        0
 90
        1
 40
3.5
330
0
330
0
 90
        0
  1
VerticalEndOvershoot
 90
        0
 90
        1
 40
3.5
330
0
330
0
 90
        0
  1
CrossHairLengthExpression
 90
        0
 90
        1
  1
0.1x
330
0
330
0
 90
        0
  1
CrossHairGapExpression
 90
        0
 90
        1
  1
0.05x
330
0
330
0
 90
        0
  1
CenterDepId
 90
        0
 90
        1
330
9D6
330
0
330
0
 90
        0
  1
CachedCircleRadius
 90
        0
 90
        1
 40
24.99999999999999
330
0
330
0
 90
        0
  1
SubentLineType
 90
        0
 90
        1
  1
CENTER2
330
0
330
0
 90
        0
  1
SubentLineWeight
 90
        0
 90
        1
 40
-1.0
330
0
330
0
 90
        0
  1
SubentLinetypeScale
 90
        0
 90
        1
 40
1.0
330
0
330
0
 90
        0
  1
CachedAssociateStatus
 90
        0
 90
        1
 40
1.0
330
0
330
0
  0
ACDBASSOCACTION
  5
9D8
330
8A8
100
AcDbAssocAction
 90
        2
 90
        0
330
8A8
360
9D9
 90
        6
 90
        3
 90
        3
360
9DA
360
9DB
360
9DC
 90
        0
 90
        2
360
9DD
360
9DE
 90
        0
 90
       14
 90
        0
  1
StartExtLength
 90
        0
 90
        1
 40
1.000000000000000E+60
330
0
330
0
 90
        0
  1
EndExtLength
 90
        0
 90
        1
 40
1.000000000000000E+60
330
0
330
0
 90
        0
  1
StartOvershoot
 90
        0
 90
        1
 40
3.5
330
0
330
0
 90
        0
  1
EndOvershoot
 90
        0
 90
        1
 40
3.5
330
0
330
0
 90
        0
  1
EdgeRefDirectionEnding
 90
        0
 90
        2
 90
        0
330
0
 90
        1
330
0
330
0
 90
        0
  1
CenterDepId
 90
        0
 90
        1
330
9DC
330
0
330
0
 90
        0
  1
CachedCenterLineLength
 90
        0
 90
        1
 40
3.0
330
0
330
0
 90
        0
  1
CachedCenterLineDirectionX
 90
        0
 90
        1
 40
-1.0
330
0
330
0
 90
        0
  1
CachedCenterLineDirectionY
 90
        0
 90
        1
 40
0.0
330
0
330
0
 90
        0
  1
CachedCenterLineDirectionZ
 90
        0
 90
        1
 40
0.0
330
0
330
0
 90
        0
  1
SubentLineType
 90
        0
 90
        1
  1
CENTER2
330
0
330
0
 90
        0
  1
SubentLineWeight
 90
        0
 90
        1
 40
-1.0
330
0
330
0
 90
        0
  1
SubentLinetypeScale
 90
        0
 90
        1
 40
1.0
330
0
330
0
 90
        0
  1
CachedAssociateStatus
 90
        0
 90
        1
 40
1.0
330
0
330
0
  0
ACDBASSOCACTION
  5
9DF
330
8A8
100
AcDbAssocAction
 90
        2
 90
        0
330
8A8
360
9E0
 90
        7
 90
        5
 90
        5
360
9E1
360
9E2
360
9E3
360
9E4
360
9E5
 90
        0
 90
        4
360
9E6
360
9E8
360
9EA
360
9EB
 90
        0
 90
        2
 90
        0
  1
RotAng0
 90
        2
 90
        1
 40
1.570796326794896
330
0
330
0
 90
        0
  1
RotAng1
 90
        2
 90
        1
 40
4.712388980384688
330
0
330
0
  0
ACDBASSOC2DCONSTRAINTGROUP
  5
70B
330
71E
100
AcDbAssocAction
 90
        2
 90
        0
330
71E
360
0
 90
        2
 90
       11
 90
        0
 90
        0
 90
        0
 90
        0
 90
        0
 90
        2
 70
     0
 10
-2836.851136785773
 20
-1401.099790188468
 30
0.0
 10
1.0
 20
0.0
 30
0.0
 10
0.0
 20
1.0
 30
0.0
360
0
 90
       11
360
718
360
710
360
714
360
711
360
715
360
716
360
717
360
713
360
70C
360
70D
360
70E
 90
       36
 90
        0
 90
        0
290
     0
 90
       35
  1
AcConstrainedBoundedLine
 90
        1
  1
AcConstrainedImplicitPoint
 90
        2
  1
AcPointCurveConstraint
 90
        3
  1
AcConstrainedImplicitPoint
 90
        4
  1
AcPointCurveConstraint
 90
        5
  1
AcConstrainedBoundedLine
 90
        6
  1
AcConstrainedImplicitPoint
 90
        7
  1
AcPointCurveConstraint
 90
        8
  1
AcConstrainedImplicitPoint
 90
        9
  1
AcPointCurveConstraint
 90
       10
  1
AcPointCoincidenceConstraint
 90
       11
  1
AcDistanceConstraint
 90
       12
  1
AcConstrainedBoundedLine
 90
       13
  1
AcConstrainedImplicitPoint
 90
       14
  1
AcPointCurveConstraint
 90
       15
  1
AcConstrainedImplicitPoint
 90
       16
  1
AcPointCurveConstraint
 90
       17
  1
AcPointCoincidenceConstraint
 90
       18
  1
AcConstrainedDatumLine
 90
       19
  1
AcHorizontalConstraint
 90
       21
  1
AcConstrainedBoundedLine
 90
       22
  1
AcConstrainedImplicitPoint
 90
       23
  1
AcPointCurveConstraint
 90
       24
  1
AcConstrainedImplicitPoint
 90
       25
  1
AcPointCurveConstraint
 90
       26
  1
AcPointCoincidenceConstraint
 90
       27
  1
AcPointCoincidenceConstraint
 90
       28
  1
AcConstrainedDatumLine
 90
       29
  1
AcVerticalConstraint
 90
       30
  1
AcHorizontalConstraint
 90
       31
  1
AcDistanceConstraint
 90
       32
  1
AcConstrainedCircle
 90
       33
  1
AcConstrainedImplicitPoint
 90
       34
  1
AcCenterPointConstraint
 90
       35
  1
AcRadiusDiameterConstraint
 90
       36
 90
        1
 90
        3
 90
        3
 90
        5
 90
       31
 70
     1
330
713
 90
        0
 10
2929.600215056291
 20
1453.171572930938
 30
0.0
 10
1.0
 20
0.0
 30
0.0
290
     0
 10
2929.600215056291
 20
1453.171572930938
 30
0.0
 11
2930.600215056291
 21
1453.171572930938
 31
0.0
 90
        2
 90
        4
 90
        3
 90
       11
 90
       12
 90
       32
 70
     1
330
0
 90
        0
280
     0
 90
       -1
 90
        1
 90
        3
 90
        2
 90
        2
 90
        1
 70
     0
 90
        0
290
     1
290
     1
 90
        4
 90
        3
 90
        5
 90
       27
 90
       32
 70
     1
330
0
 90
        0
280
     1
 90
       -1
 90
        1
 90
        5
 90
        2
 90
        4
 90
        1
 70
     0
 90
        0
290
     1
290
     1
 90
        6
 90
        2
 90
        8
 90
       10
 70
     1
330
716
 90
        0
 10
2929.600215056291
 20
1443.171572930938
 30
0.0
 10
0.0
 20
1.0
 30
0.0
290
     0
 10
2929.600215056291
 20
1443.171572930938
 30
0.0
 11
2929.600215056291
 21
1453.171572930938
 31
0.0
 90
        7
 90
        3
 90
        8
 90
       12
 90
       18
 70
     1
330
0
 90
        0
280
     0
 90
       -1
 90
        6
 90
        8
 90
        2
 90
        7
 90
        6
 70
     0
 90
        0
290
     1
290
     1
 90
        9
 90
        2
 90
       10
 90
       11
 70
     1
330
0
 90
        0
280
     1
 90
       -1
 90
        6
 90
       10
 90
        2
 90
        9
 90
        6
 70
     0
 90
        0
290
     1
290
     1
 90
       11
 90
        2
 90
        2
 90
        9
 70
     0
 90
        0
290
     1
290
     1
 90
       12
 90
        2
 90
        2
 90
        7
 70
     0
 90
        0
290
     0
290
     1
340
715
340
718
280
     1
 10
0.0
 20
1.0
 30
0.0
 90
       13
 90
        3
 90
       15
 90
       17
 90
       21
 70
     1
330
714
 90
        0
 10
2930.600215056291
 20
1443.171572930938
 30
0.0
 10
-1.0
 20
0.0
 30
0.0
290
     0
 10
2930.600215056291
 20
1443.171572930938
 30
0.0
 11
2929.600215056291
 21
1443.171572930938
 31
0.0
 90
       14
 90
        2
 90
       15
 90
       28
 70
     1
330
0
 90
        0
280
     0
 90
       -1
 90
       13
 90
       15
 90
        2
 90
       14
 90
       13
 70
     0
 90
        0
290
     1
290
     1
 90
       16
 90
        2
 90
       17
 90
       18
 70
     1
330
0
 90
        0
280
     1
 90
       -1
 90
       13
 90
       17
 90
        2
 90
       16
 90
       13
 70
     0
 90
        0
290
     1
290
     1
 90
       18
 90
        2
 90
        7
 90
       16
 70
     0
 90
        0
290
     1
290
     1
 90
       19
 90
        0
 70
     0
330
0
 90
        0
 10
0.0
 20
0.0
 30
0.0
 10
1.0
 20
0.0
 30
0.0
 90
       21
 90
        1
 90
       13
 70
     0
 90
        0
290
     0
290
     1
 90
       19
 90
       22
 90
        3
 90
       24
 90
       26
 90
       30
 70
     1
330
70C
 90
        0
 10
2930.600215056291
 20
1453.171572930938
 30
0.0
 10
0.0
 20
-1.0
 30
0.0
290
     0
 10
2930.600215056291
 20
1453.171572930938
 30
0.0
 11
2930.600215056291
 21
1443.171572930938
 31
0.0
 90
       23
 90
        2
 90
       24
 90
       27
 70
     1
330
0
 90
        0
280
     0
 90
       -1
 90
       22
 90
       24
 90
        2
 90
       23
 90
       22
 70
     0
 90
        0
290
     1
290
     1
 90
       25
 90
        2
 90
       26
 90
       28
 70
     1
330
0
 90
        0
280
     1
 90
       -1
 90
       22
 90
       26
 90
        2
 90
       25
 90
       22
 70
     0
 90
        0
290
     1
290
     1
 90
       27
 90
        2
 90
        4
 90
       23
 70
     0
 90
        0
290
     1
290
     1
 90
       28
 90
        2
 90
       14
 90
       25
 70
     0
 90
        0
290
     1
290
     1
 90
       29
 90
        0
 70
     0
330
0
 90
        0
 10
0.0
 20
0.0
 30
0.0
 10
0.0
 20
1.0
 30
0.0
 90
       30
 90
        1
 90
       22
 70
     0
 90
        0
290
     0
290
     1
 90
       29
 90
       31
 90
        1
 90
        1
 70
     0
 90
        0
290
     0
290
     1
 90
       19
 90
       32
 90
        2
 90
        2
 90
        4
 70
     0
 90
        0
290
     0
290
     1
340
70D
340
711
280
     1
 10
-1.0
 20
0.0
 30
0.0
 90
       33
 90
        2
 90
       35
 90
       36
 70
     1
330
710
 90
        0
 10
2893.803881072098
 20
1448.171572930939
 30
0.0
 10
0.0
 20
0.0
 30
1.0
 10
1.0
 20
0.0
 30
0.0
 40
5.0
 40
0.0
 40
6.283185307179586
 40
0.0
 90
       34
 90
        1
 90
       35
 70
     1
330
0
 90
        0
280
     3
 90
       -1
 90
       33
 90
       35
 90
        2
 90
       34
 90
       33
 70
     0
 90
        0
290
     1
290
     1
 90
       36
 90
        1
 90
       33
 70
     0
 90
        0
290
     0
290
     1
340
717
340
70E
280
     1
  0
ACDBASSOCVARIABLE
  5
71A
102
{ACAD_REACTORS
330
715
102
}
330
71E
100
AcDbAssocAction
 90
        2
 90
        0
330
71E
360
0
 90
        1
 90
        0
 90
        0
 90
        0
 90
        0
 90
        0
 90
        0
100
AcDbAssocVariable
 90
        2
  1
d1
  1
10
  1
AcDbCalc:1.0
  1

 90
       10
290
     0
290
     0
 90
        0
  0
ACDBASSOCVARIABLE
  5
71B
102
{ACAD_REACTORS
330
70D
102
}
330
71E
100
AcDbAssocAction
 90
        2
 90
        0
330
71E
360
0
 90
        3
 90
        0
 90
        0
 90
        0
 90
        0
 90
        0
 90
        0
100
AcDbAssocVariable
 90
        2
  1
d2
  1
1.0
  1
AcDbCalc:1.0
  1

 40
1.0
290
     0
290
     0
 90
        0
  0
ACDBASSOCVARIABLE
  5
71C
102
{ACAD_REACTORS
330
717
102
}
330
71E
100
AcDbAssocAction
 90
        2
 90
        0
330
71E
360
0
 90
        4
 90
        0
 90
        0
 90
        0
 90
        0
 90
        0
 90
        0
100
AcDbAssocVariable
 90
        2
  1
直径1
  1
10
  1
AcDbCalc:1.0
  1

 90
       10
290
     0
290
     0
 90
        0
  0
XRECORD
  5
1FA
102
{ACAD_REACTORS
330
1F9
102
}
330
1F9
100
AcDbXrecord
280
     1
 70
     1
 90
429727718
  1
D62C5603-E3A1-4AEA-B7FB-FE5D8D0755AF
310
504B03040A0000080000CC70623B3DEE336E79000000790000001B0000006175746F6465736B2D64657369676E2D7061636B6167652E786D6C3C3F786D6C2076657273696F6E3D22312E302220656E636F64696E673D227574662D3822203F3E3C666F726D6174733E3C666F726D61743E687474703A2F2F736368656D612E
310
6175746F6465736B2E636F6D2F64657369676E2D7061636B6167652F323030393C2F666F726D61743E3C2F666F726D6174733E504B0304140006080800CC70623BD486FD9CA0000000F4000000130000005B436F6E74656E745F54797065735D2E786D6C7D8EC10E82300C865F65E91D8A1E8C310C0EEA1BF002731658846E
310
D98AC1B77784ABF1D8FE5FBFBF75BBCE937A534CCEB38643598122B6FEE978D0B0485F9C41B54DDD7D022595594E1A469170414C76A4D9A4D207E29CF43ECE46F218070CC6BECC4078ACAA135ACF422C856C0E68EA1BF5669944DDD7BCDE7B1F8E415D77AECB980613C2E4AC91FC167A2B244592486606FC29C8FD7F045B9A
310
EF7053A7E60B504B0304140006080800CC70623B853B8169EB0000007C01000008000000636F72652E786D6C8D90416EC3201045AF62CDB6C206821CC7C244919D9CA01740401C94182C03558F5F9C3852BBEB6A467FFE9B197D7EFC9E1EC5975982F5AE035262288C535E5B377690E21535501C055FBC8FBF6C503839990E
310
5619041F179FE64D52DE45E362569DD7661365082642A11EB9E920A89B99642953CC8E702F67A9EE7234257977194EC9EAE275C4EABCCF5EAD5940D4AC6F0E35A568B8F43562CD7046CD199FD07E60174276A7BE677B5EADB0E0D14EEFFB6A31321A0D82627C4084204C3F096B71DD52F6819B16635EADF63F509AF53FA164
310
5DDCD1EDDD17164090FCC8732078B56691CB33A85CD7DCC40F504B0304140006080800CC70623B55019EA25F0000007C00000007000000636E782E786D6C4DCB3B0E80201045D1AD90E915ED2CF8AC45050C11660C8261F98AB1B07AC9C97D42D718D865D3E909258CFD00CCE24AC6E326A164D74DC0B4128928FF32603847
310
2BA13128B1252AC747C6BAB984FC68F0B87FE8960A5C09FE86CFB69FBA01504B0304140006080800CC70623BDBABAAF470010000D40300000C0000006662782F636F72652E786D6CC553D16E823014FD95A6AF4B694182CC941A83FA05FB810A9511A125A5257EFE2E82712ECEB8A7F100CD39F7F69E734AF9FADC366850B6
310
AF8DCE7018308C942E4C59EB2AC3DE1D498AD15A706B8CFB56869196ADCAF00863C12B6B7C374385D14E6907A836A59A41D9F7CA615434B0C8705F7CAA5606D23BA8E84F41278B93AC54100640439DE0BDB320004D43C63716C7C399D30917DCFBBA9CD9BA8469F5B156168B24CED3F7248AC8769F27244EB73B92EED8862C
310
B7F13E0C179B3C8F979C8ECD82BBBABDAA2BAC924E9558448CBD9330242CFA08E3154B5651FCC6D215639C8EE5774DBE2B5F6CF2B5768B68963BB5F5588420E442FC700B1139D4CB01F450C1E918227C2E09DF070D8140C84E1E9AAB8F1340832A9CB13130A5F1376A908D57309505ECF2A0DF179C4E9D30F5B239B87E3823
310
7A79C6F31DE1A8A5AEC08474B03C7837EAE4938639B44E5932B833D2C6B6B279CDC613877FA26EE21F4A2A4C63EC7F29A2F301D1F9F7A0E37D145F504B0304140006080800CC70623B9C113CC27E0000009D0000000B0000006662782F636E782E786D6C4DCCDF0A83201C86E15B91DFB94BFB330DD428C8FB886521330DA7
310
6397BF1A1DECE883878F57749FCDA1B7892F1BBC047A23808C7F84D9FA55424E0BE6803A256208E9EF06C84F9B91703228B1C690F78B66B34CD9A5439DF5CF0BFBF65E35BCA1B8D6A5C6F540381E886698B5741C695F9503EBA150A2F8958E3DC3EA0B504B0304140006080800CC70623B7DF2F77C2A010000120200003100
310
00006662782F41393633353835312D344632462D344230382D423046372D3739314545314133324237412F636F72652E786D6C8D51DB8EC22014FC15C2939B0D2DB4B45643319AE817EC0F6041255A68B86CFCFC856D4D76DF7CE190393373060EDB3DC707F856CE6B6B7A480A0C81328395DA5C7B18C3057510EC3873D686
310
3F34088C18550F330C39BB3A1BA7051AAC09CA84841A2BD5020AEF55806078A44B0FFD7053A328440C89E1EFC52486BBB8AA8214A99D789CF9E05200300FC927E4FB4D5B375D43103D5527440FB843077C5AA3F5861C8F645F5787F59E95B390B318B55CE45AA638FAA2957BD7248B390B7A7CC51F9C124149C82B8C378810
310
84AB2F42B7B8DD56F413775B8C5999E9FF4471926F8AA236A1AE96B8B3CC434E5839373893369E1FAF30EA395917409EB7F26AF8801C171837A4A6AC9C89E9F9C9B1A58BA30FD6A5EF5DDDCF894B9AD9B6A59C957943A9FCAE2FD5BC4DFE03504B0304140006080800CC70623BAD7543B64E01000033030000300000006662
310
782F41393633353835312D344632462D344230382D423046372D3739314545314133324237412F636E782E786D6CD593CD6EC32010845F0571AD6CE3D48AD20813A9873E410FBD12D82434182C7EAAE6EDBB2424CD25871E7B41D6EC30B3FA84F9E67BB2E40B4234DE8DB46F1925E094D7C6ED479AD3AE5951B2113C789FEE
310
6C943839C1488B4C05DF079FE72A69D8C96C13AAD6B8631503449F83828872B949AC57D26200B826A308D316B4064D6E46FCDA41C05550DC9E483A00797BFD207EFB092A45DE9514C1BBD22178396BD39D891265658C238DEA00936C654E5E433CB65A26D9F6EDB5EBC14EBF49A45CB856E66048291F6939A9A81BB5C89177
310
38143CA680F4AA299D66A042CEB3354A2684DC9D8D178FE0D9B8B41CAAD720F880EE7EF93C0C18769E099ECC04D5A102C8049A8A05632F4DDF376CF1DE0F6BB65C2F8627B65A33C6BB62177CEBBDAD973006829F89F22E814B54F4BC2BE347F8AA8F681390B50FA73F804400B5F542E796F19FF974E7F78DB802FE05E20750
310
4B0304140006080800CC70623BE75B7789680500003C100000340000006662782F41393633353835312D344632462D344230382D423046372D3739314545314133324237412F6F626A656374732E786D6CAD575B8F9B3818FD2B887D06C22499CB8AA1CA655245D5B455A356FB305264C061D8018C6C3393D95FBFC7600890
310
A4CD5EF210B0B1BFEBF98E3F7B1FF6596ABC522E1296DF9BAE3D320D9A872C4AF2F8DE2CE5CEBA358D0FBEC719939D65A691938CDE9B6ADAF4BD98B3B2D05311DD91329583D9D5FC0F438434A7A611A644887B5384CF34233629258BA878B12322891DEFF6B66BD70BFB62634E8AE781D082709A4B588AF91C528CDA28B73F
310
1C998EEF39EABBEFA97FBD6A7C7E9553F9D3D79FE442923C3C523610337627CB87ABE99D359D4CC6D6E4FACAB5E6ABF9D2726FC6A3C5F56271377BB88362213924694B38DD99FE47C48627A1E7D49F5A8BB5E1A74C0A599ED3B0F21F1E56366B89112D681E218F0915D0D6F17AD41FBA2A369DCF6335D62ABBD39779D5DDD1
310
11D4D8DE3CBB96B2E04FB8202E41051754A1AA8E8F76B4C6DFE810B580B1547F4B84911149794252234D024EF8BBE963A95AE27B3D310A9D5C215C7960FAEE415ED75694C6AFB17BCACA5D99A60A9AA65F217B0BFC53292ACB92BF283FAD0D3621576592CB5BED907C2FA8E9DF794E35E97BEA31BED21FEB401ABB94C44839
310
DCACBF0E1C5DA8DA5B2F4DFFD32AD86F543D9E565E7056502E157C00AD2671CD534549AB752FCA9CDA00677A313F04E51B22FF19E57B300579E3C97EB29F682D92935CEC18CF901B7B54FD8C51F362B56FC72FE0B3C1EAE335EDCCBF5AEC39ADB17DC238973F804BA5E6F6BFE7AF1FB32E523BE9F3BD571418E3631DCA4D48
310
5250CF639223210A9446CA30052EDF057BD35F8329C1ECD84552BF0DC8D18BE7BCE23BFE6BD960AB4A7DE79923A103BEBD80F911CBAA2C60DB19B01CF164A5583B772EE6D3FFA56666CBCDA74DC97724A48F9A58967497E489C4D979006FD7A05E227A1EBDD0F737C623387A9C844D3709995625106D157315F8B8392CD4E0
310
A0B9A720C4BE9829CEF37EA1E13111214D53925356365ADA634861B52519DD27A00AEB808EAF0628E6F435519D446F45CF2C9CF5214F0A15B2F6D06B79DA3EE3CBF7F56780D2F4E7EF73A0F5E5B02A38D07DC852C6B7C1FBB6664213E0C39E3EBA7FF4E1AD23EA2829407C85E586727488B751B2DB9502BC7B228A3FD68B6E
310
A65A22397E690AA8D158D7E404EC8CDA235CC3B7D1898680131CEC2CDF2638C65196279577750F15884AEE19F94199155B92B13297978469D4F8D358DF0AEF7631E28DC8F0D9F437D5D39A83B2231A1D52D543813A824EF8D44BCFF2FA6A31BD1E8DAD87F1CCB526B3879935BF59CDADD5C37479BB1CDD4CA7B3556B516589
310
EF352754B706114D9C885EC9131DE6EFEB43D99AFE2391C2F958179413D7CFEF6B1B6DB1E7600F00DE6E5C67454A339A4BA2E0FBA85ED26F045D454F463DBFCE484C2F90F2E5E3666003662ED8F755951A7D1BECD5B30B550B2785C8E7320B7292A4838DDA71BBC863ED7613CAF659337A3354231D4FF4A182A54904C2898C
310
98B28C4AD0CE056CCF332A80986E571EE9DBC305BB5FEB7E509220A58D25CF042D712A806AC0AD0C657FDEF80D2D9CEAA2EE4D1C76F60BFE74219A06527D6F82DF6412526107381E55E353090704D085B52408A8913C4ED159D79BDA71BB4BC506F4831350EB6F975CD22D69BF7AC49B91A2C0A9DDA3D5CA36AD20FC478E37
310
E61844E2352865EBCB61A275A65283CAAA9DD27703B4102F5AF51EF5F573B75CBB5AD38BC845F7A49F82A0966A49C2E3EA5EA0ECD326CD965F1DB402C6FA8B51A4658C5C5E2EC9E214602E55810345408596591009A82E7E7FFACA19EEA299B14A0081A705CB3296EBC14CDF658DCD336EA6D1136881AAEB87B81AB9EE53D5
310
F5EB8BC8362082DA24122F98680A4E7930C01A0079749CEA14382A0783E5EBA5A10F8C098456A03D6A4AEB6BB881E2513747552A5DB22C7EDAF83BD5528081A365F7FF06504B0304140006080000CC70623B000000000000000000000000350000006662782F41393633353835312D344632462D344230382D423046372D37
310
39314545314133324237412F76657274696365732E62696E504B0304140006080800CC70623BF270F1330600000004000000360000006662782F41393633353835312D344632462D344230382D423046372D3739314545314133324237412F747269616E676C65732E62696E636660600000504B0304140006080000CC7062
310
3B000000000000000000000000370000006662782F41393633353835312D344632462D344230382D423046372D3739314545314133324237412F617474726962757465732E62696E504B0304140006080800CC70623B08DA0BD19000000041010000360000006662782F41393633353835312D344632462D344230382D4230
310
46372D3739314545314133324237412F6469726563746F72792E786D6C858F410AC3201045AF22B36F53E9A60B35CBEEBAE80D244E44489C6234F4F835464A48035D0DF398FF9F8AF63D0E6CC63039F212F8F9020C7D47C6792B21C5FE7403D62A1188E2E60C98D7234A5830286103A55745067B9D86B8A3CF9C7F90C11DE6
310
07FB144396D7B6A82D282E9A152AD114D5EF2CB866EEE831B8EEA07A7BB5A8D7D61A2BAAEB7FD5F70921FF497D00504B0304140006080800CC70623BEDD1DC58FD000000A00100003B0000006662782F41393633353835312D344632462D344230382D423046372D3739314545314133324237412F7265736F75726365732F
310
636F72652E786D6C8D504B6E833010BD0A9A6D65B00922041947112427E8052C33A156828DFCA97AFC9A40A576D7CDCCE87D344F8F9FBFE667F689CE6B6B3A6039850C8DB2A336530731DC4903D95970676DF82583CCC8193B5861107C72362E3BA4AC096842428D1D7107A5F7182053CF7474E0D507CE32973124857FE48B
310
540F3961CEF244279DE03EB81420DB9EAC1384436FA353E879B1B182C7A8C75DA3C7F453DF353A1075D537A7BA6464B8F535A99AE14A9A2BBD90E350DD183B5CFABE3AF262350B1EF4FC9351399401471025A527C218A1E53BAB5A5AB765F5469B96525EACF23FA6B88CFF34456DC2A1DCE36E360F82A5202F42F062ED2BAD
310
579969AFDD8A6F504B010214000A0000080000CC70623B3DEE336E79000000790000001B00000000000000000000000000000000006175746F6465736B2D64657369676E2D7061636B6167652E786D6C504B01021400140006080800CC70623BD486FD9CA0000000F40000001300000000000000000000000000B20000005B
310
436F6E74656E745F54797065735D2E786D6C504B01021400140006080800CC70623B853B8169EB0000007C010000080000000000000000000000000083010000636F72652E786D6C504B01021400140006080800CC70623B55019EA25F0000007C000000070000000000000000000000000094020000636E782E786D6C504B
310
01021400140006080800CC70623BDBABAAF470010000D40300000C00000000000000000000000000180300006662782F636F72652E786D6C504B01021400140006080800CC70623B9C113CC27E0000009D0000000B00000000000000000000000000B20400006662782F636E782E786D6C504B01021400140006080800CC70
310
623B7DF2F77C2A010000120200003100000000000000000000000000590500006662782F41393633353835312D344632462D344230382D423046372D3739314545314133324237412F636F72652E786D6C504B01021400140006080800CC70623BAD7543B64E010000330300003000000000000000000000000000D2060000
310
6662782F41393633353835312D344632462D344230382D423046372D3739314545314133324237412F636E782E786D6C504B01021400140006080800CC70623BE75B7789680500003C10000034000000000000000000000000006E0800006662782F41393633353835312D344632462D344230382D423046372D3739314545
310
314133324237412F6F626A656374732E786D6C504B01021400140006080000CC70623B0000000000000000000000003500000000000000000000000000280E00006662782F41393633353835312D344632462D344230382D423046372D3739314545314133324237412F76657274696365732E62696E504B01021400140006
310
080800CC70623BF270F133060000000400000036000000000000000000000000007B0E00006662782F41393633353835312D344632462D344230382D423046372D3739314545314133324237412F747269616E676C65732E62696E504B01021400140006080000CC70623B0000000000000000000000003700000000000000
310
000000000000D50E00006662782F41393633353835312D344632462D344230382D423046372D3739314545314133324237412F617474726962757465732E62696E504B01021400140006080800CC70623B08DA0BD1900000004101000036000000000000000000000000002A0F00006662782F41393633353835312D344632
310
462D344230382D423046372D3739314545314133324237412F6469726563746F72792E786D6C504B01021400140006080800CC70623BEDD1DC58FD000000A00100003B000000000000000000000000000E1000006662782F41393633353835312D344632462D344230382D423046372D3739314545314133324237412F7265
310
736F75726365732F636F72652E786D6C504B0506000000000E000E0080040000641100000000
  0
XRECORD
  5
1F8
102
{ACAD_REACTORS
330
1F7
102
}
330
1F7
100
AcDbXrecord
280
     1
 70
     1
 90
429727718
  1
30362254-06B7-45E0-A893-8CFA70E3D6BC
310
504B03040A0000080000CC70623B3DEE336E79000000790000001B0000006175746F6465736B2D64657369676E2D7061636B6167652E786D6C3C3F786D6C2076657273696F6E3D22312E302220656E636F64696E673D227574662D3822203F3E3C666F726D6174733E3C666F726D61743E687474703A2F2F736368656D612E
310
6175746F6465736B2E636F6D2F64657369676E2D7061636B6167652F323030393C2F666F726D61743E3C2F666F726D6174733E504B0304140006080800CC70623BD486FD9CA0000000F4000000130000005B436F6E74656E745F54797065735D2E786D6C7D8EC10E82300C865F65E91D8A1E8C310C0EEA1BF002731658846E
310
D98AC1B77784ABF1D8FE5FBFBF75BBCE937A534CCEB38643598122B6FEE978D0B0485F9C41B54DDD7D022595594E1A469170414C76A4D9A4D207E29CF43ECE46F218070CC6BECC4078ACAA135ACF422C856C0E68EA1BF5669944DDD7BCDE7B1F8E415D77AECB980613C2E4AC91FC167A2B244592486606FC29C8FD7F045B9A
310
EF7053A7E60B504B0304140006080800CC70623B1EC5D7A3EB0000007C01000008000000636F72652E786D6C8D90416EC3201045AF82665B6103C6756C6122AB4D4ED00B204C5C94182C03558F5F9C3852BBEB6A467FFE9B197D71FC9E6FE8CBACC17AD7032D0820E3B41FAD9B7A48F1820F808E52ACDEC75F36404ECDA687
310
4D0629A6D5A76597B477D1B89855E747B38B2A041301E95B6E7A08FAD3CCAA50296647B8168BD2573599823EBB0CA76447F43862C7BCCF5EAC59410E4DDD9C7973C2755553CCCFA4C603E3040F1565ED3B1FDE4E432BCA0D9622DAF9795FAF464533826484B498524CD807E51D79ED187F21878E10516EF63F505AC67F42C9
310
BA58B1FDDD071640D2FCC87D2045B96591CB3DA85CB7DCE40F504B0304140006080800CC70623B55019EA25F0000007C00000007000000636E782E786D6C4DCB3B0E80201045D1AD90E915ED2CF8AC45050C11660C8261F98AB1B07AC9C97D42D718D865D3E909258CFD00CCE24AC6E326A164D74DC0B4128928FF32603847
310
2BA13128B1252AC747C6BAB984FC68F0B87FE8960A5C09FE86CFB69FBA01504B0304140006080800CC70623B8C9102E971010000D40300000C0000006662782F636F72652E786D6CC5535B6E833010BC8AE5DF0A6C08340F1947A84D4ED00B38C6A128602363A31CBFCB234A53A551FA553EC09AD9F5CE8C31DB9E9B1AF5CA
310
7695D1198E428A91D2D214952E33ECDD315861B4E5CC1AE3BE9561A445A3323CC098B3D21ADFCE9034DA29ED00D5A6503328BA4E398C640D8B0C77F253352214DE4145770A5B214FA2546114020D759C75CE8200340D19DE981F0F6746269C33EFAB6266AB02A655C74A59CCF365BADC27CB5D902ED22848F6340DF238A141
310
BE88E2F57B92BFEDF23523433367AE6A2EEAA455C2A902F398D2751045018D3FA264435F3771F242571B4A1919CA6F9A7C5B3CD9E42BED16F12C776AEB308F40C848FC700B1139D4891EF410CEC810227CC6846F8386402064270EF5C5C709A05E49676C024C61FC95EA45ED154CA5211D1FF4FB8291A913A68E9B83EBBB33
310
E2A7673CDE118E5AE8124C0807CB8377834E366998436B950D7A7746DAD846D4CFD978E0F04FD455FC5D49D2D4C6FE9722321F10997F0F32DC47FE05504B0304140006080800CC70623BFFEA85907E0000009D0000000B0000006662782F636E782E786D6C4DCCD10A83201886E15B91FFDC95D95A811AB6F23E625948A6C3
310
E9D8E5AF46073BFAE0E1E365ED67B3E8ADC3CB78C7815C7240DA3DFC64DCC221C519D7805AC182F7F1EF06C88D9BE6703008B6049F9E274D7A1E938DBB5AE3D6131B2589BA0D3D965551E0B2EA732C9B9A624AAEB41E3A557677029960D9AFB4EF11165F504B0304140006080800CC70623B4FEEA4082C0100001202000031
310
0000006662782F39464131463745442D413632322D343644302D413938332D3331353338454246344243312F636F72652E786D6C8D515B6EC32010BC0AE2AB55850DD871ED0813254D72825EC00192A2C460F1A872FC42ED48ED5F7E00CDCECCCEB26C731F6FE05B39AFADE921293004CA082BB5B9F43086336A21D870E6AC
310
0D7F68109861543DCC30E4ECE26C9C164858139409093556AA051CBC570102714B8F1E7AF1A5C6A11862480C7F2DA6415C878B2A4891CA89C7990F2E050073937C42DE1DB7E4F87ED8A36D4329AA9B3D46DBAEAD504556557BD81DEBDD0761E52CE42C462D17B996298E3E6BE59E35C962CE821E1FF18553435012728A7187
310
0841987E927A8D9B35ADDF70BBC6989599FE4F1427F9A4286A132ABAC49D651EF234CD5CE04CDA78BA3DC2A8FB645D00B9DF8B57E215725C60BCA2A463E54C4CE327C7A65E1C7DB02E7DEFCBF594B864C5CA6CDBD49C957943E9FA5D5FBAF336F90F504B0304140006080800CC70623BAD7543B64E01000033030000300000
310
006662782F39464131463745442D413632322D343644302D413938332D3331353338454246344243312F636E782E786D6CD593CD6EC32010845F0571AD6CE3D48AD20813A9873E410FBD12D82434182C7EAAE6EDBB2424CD25871E7B41D6EC30B3FA84F9E67BB2E40B4234DE8DB46F1925E094D7C6ED479AD3AE5951B2113C
310
789FEE6C943839C1488B4C05DF079FE72A69D8C96C13AAD6B8631503449F83828872B949AC57D26200B826A308D316B4064D6E46FCDA41C05550DC9E483A00797BFD207EFB092A45DE9514C1BBD22178396BD39D891265658C238DEA00936C654E5E433CB65A26D9F6EDB5EBC14EBF49A45CB856E66048291F6939A9A81BB5
310
C8917738143CA680F4AA299D66A042CEB3354A2684DC9D8D178FE0D9B8B41CAAD720F880EE7EF93C0C18769E099ECC04D5A102C8049A8A05632F4DDF376CF1DE0F6BB65C2F8627B65A33C6BB62177CEBBDAD973006829F89F22E814B54F4BC2BE347F8AA8F681390B50FA73F804400B5F542E796F19FF974E7F78DB802FE05
310
E207504B0304140006080800CC70623B16AB87BA640500003C100000340000006662782F39464131463745442D413632322D343644302D413938332D3331353338454246344243312F6F626A656374732E786D6CAD575B6FA33818FD2B887DE6924B3BED8A326A92B68A663B534DD4D13E548A0C38942D60649B369D5FBFC7
310
600890A493BDE42160637FD7F31D7FF63E6FB3D478A55C242CBF3247B66B1A340F5994E4F19559CA8D75611A9F7D8F33263BCB4C232719BD32D5B4E97B316765A1A722BA21652A07B3B7B33F0D11D29C9A46981221AE4C113ED38CD8A4942CA2E2C58E882476BCD9DA23BB5ED8171B73523C0F841684D35CC252CCE79062D4
310
468DFA43D7747CCF51DF7D4FFDEB5593E3AB9CCA9FBEFE241792E4E19EB28198C968BAB8199F5D5A67D3E9C49A9E8F47D6EC76B6B0469F26EEFC7C3EBFBCBEB98462213924694B38DD98FE1D62C393D073EA4FADC5DAF04326852CCF6958F90F0F2B9BB5C48816348F90C7840A68EB78EDF68723159BCEE7891A6B95DDE9D3
310
BCEAEEE8086A6C6F9E5D4B59F0175C10A7A0820BAA5055C7473B5AE3CFDD452D602CD5DF12616444529E90D448938013FE6EFA58AA96F85E4F8C42275708571E98FE6827AF6B2B4AE3D7D83D64E5A64C53054DD3AF90BD06FEA9149565C94FCA0F6B834DC85599E4F2423B24DF0B6AFA979E534DFA9E7A4CC6FA631D486393
310
921829879BF5D781A373557BCB85E97FB90DB62B558F8795179C15944B051F40AB495CF35451D26A4727654E6D8033BD98EF82F21D91FF8AF2DD9982BCF1643BDD4EB516C9492E368C67C88DED563FC36D5EACF66DFF057C3658BDBFA69DF9578B3DA735B64F18C7F20770A9D45CFCF7FCF563D6456A277DBEF78A02637CA2
310
43B90A490AEAB94F72244481D24819A6C0E59B606BFA4B3025981DBB48EAB701D97BF19C577CC77F2D1B6C55A9EF3C732474C0B727303F625995056C3B02963D9EAC146BE78EC5FCEC7FA999EBC5EACBAAE41B12D27B4D2C0BBA49F244E2ECDC81B76B502F113D8F5EE8FB1BE3111CDD4FC2AA9B844CAB1288B68AB90A7CDC
310
1C166AB0D3DC5310625FCC14E779BFD0709F8890A629C9292B1B2DED31A4B0DA928CEE135085754027E3018A397D4D5427D15BD1330B677DC8934285AC3DF45A9EB68FF8F2B8FC0A509AFEECFD0FF2DE25CC6047F7214B195F07EFEB9A094D800F7BFAE8FED187B78EA8A3A400F115961BCAD1215E47C966530AF0EE8128FE
310
58CEBB996A8964FFA529A046635D9353B0336A8F700DDF46271A024E70B0B37C9DE01847591E54DED53D54202AB947E4076556AC49C6CA5C9E1226B7F1A7B1BE15DEED62C41B91E1B3E9AFAAA735036547343A925075041DF0A9979E893B391F8FCFA6967B3EFB644DCF6E5CEBFAE272625DCC6FAF3FB93793C5F90CE1EF57
310
407342756B10D1C489E8953CD1617E5CEECAD6F4EF8914CE5D5D504E5C3F1F9736DA62CFC11E00BCDDB8CC8A9466349744C1F75EBDA4DF09BA8A9E8C7A7E9991989E20E5DBDD6A6003664ED8F7A04A8DBE0DF6EAD9B9AA858342E47399053949D2C146EDB85DE4B176BB0965FBAC19BD19AA918E27FA50C1D22402E144464C
310
59462568E704B6E71915404CB72B8FF4EDE184DDAF753F284990D2C6926782963815403548A70C657FDEF80D2D9CEAA2AE4C1C76F60BFE74219A06527D6582DF6412526107381E55E353090704D085B52408D0933C4ED159D79BDA71BB4BC506F4831350EB6F979CD22D69BF7AC49B91A2C0A9DDA3D5CA36AD20FC478E37E6
310
1844E2352865EBCB6EA275A652E3836BE04EFB400BF1A2556F515F1FBB35B2AB35BD889C744FFA1004B5544B121E57F70215746DD2F5E2C1412B602CBF19455AC6C8E5E9922C4E01E65215385004546899059180EAFCF7A707CE7017CD8CDB0410789AB32C63B91E5CEBBBACB17AC6CD347A022D5075FD106377347AAABA7E
310
7D11590744509B44E205134DC1290F06580320F78E537D3D73540E06CB970B431F185308AD40BBD794D6D77003C5A36E8EAA54BA64597CD8F83BD552A080A365F7FF06504B0304140006080000CC70623B000000000000000000000000350000006662782F39464131463745442D413632322D343644302D413938332D3331
310
353338454246344243312F76657274696365732E62696E504B0304140006080800CC70623BF270F1330600000004000000360000006662782F39464131463745442D413632322D343644302D413938332D3331353338454246344243312F747269616E676C65732E62696E636660600000504B0304140006080000CC70623B
310
000000000000000000000000370000006662782F39464131463745442D413632322D343644302D413938332D3331353338454246344243312F617474726962757465732E62696E504B0304140006080800CC70623B08DA0BD19000000041010000360000006662782F39464131463745442D413632322D343644302D413938
310
332D3331353338454246344243312F6469726563746F72792E786D6C858F410AC3201045AF22B36F53E9A60B35CBEEBAE80D244E44489C6234F4F835464A48035D0DF398FF9F8AF63D0E6CC63039F212F8F9020C7D47C6792B21C5FE7403D62A1188E2E60C98D7234A5830286103A55745067B9D86B8A3CF9C7F90C11DE607
310
FB144396D7B6A82D282E9A152AD114D5EF2CB866EEE831B8EEA07A7BB5A8D7D61A2BAAEB7FD5F70921FF497D00504B0304140006080800CC70623B0D6EF93BFE000000A00100003B0000006662782F39464131463745442D413632322D343644302D413938332D3331353338454246344243312F7265736F75726365732F63
310
6F72652E786D6C8D50596E833010BD0A9ADFCA60B334011947A8694ED00B586642AC041B79A97AFC9A40A5F6AF3F33A3B7689E1E3F7DCD8FEC139DD7D6F4C0720A191A65476DA61E62B892236427C19DB5E1970C322367EC618541F0C9D9B8EC90B226A009093576C41D94DE63804C3DD2D18357379C652E63480A7FCF17A9
310
EE72C29CE5894E3AC17D702940B63D59270887DE46A7D0F36263058F518FBB468FE9A7BE6A7420864373B8D4873369AA8691FA421B3294352543C5CAF65C0F6FEF43CB8BD52C78D0F34F46E550061C419494B6843142CB0F5677F4B52BEB177AEC28E5C52AFF638ACBF84F53D42654E51E77B379102C05791282176B5F693D
310
CB4C7BED567C03504B010214000A0000080000CC70623B3DEE336E79000000790000001B00000000000000000000000000000000006175746F6465736B2D64657369676E2D7061636B6167652E786D6C504B01021400140006080800CC70623BD486FD9CA0000000F40000001300000000000000000000000000B20000005B
310
436F6E74656E745F54797065735D2E786D6C504B01021400140006080800CC70623B1EC5D7A3EB0000007C010000080000000000000000000000000083010000636F72652E786D6C504B01021400140006080800CC70623B55019EA25F0000007C000000070000000000000000000000000094020000636E782E786D6C504B
310
01021400140006080800CC70623B8C9102E971010000D40300000C00000000000000000000000000180300006662782F636F72652E786D6C504B01021400140006080800CC70623BFFEA85907E0000009D0000000B00000000000000000000000000B30400006662782F636E782E786D6C504B01021400140006080800CC70
310
623B4FEEA4082C0100001202000031000000000000000000000000005A0500006662782F39464131463745442D413632322D343644302D413938332D3331353338454246344243312F636F72652E786D6C504B01021400140006080800CC70623BAD7543B64E010000330300003000000000000000000000000000D5060000
310
6662782F39464131463745442D413632322D343644302D413938332D3331353338454246344243312F636E782E786D6C504B01021400140006080800CC70623B16AB87BA640500003C1000003400000000000000000000000000710800006662782F39464131463745442D413632322D343644302D413938332D3331353338
310
454246344243312F6F626A656374732E786D6C504B01021400140006080000CC70623B0000000000000000000000003500000000000000000000000000270E00006662782F39464131463745442D413632322D343644302D413938332D3331353338454246344243312F76657274696365732E62696E504B01021400140006
310
080800CC70623BF270F133060000000400000036000000000000000000000000007A0E00006662782F39464131463745442D413632322D343644302D413938332D3331353338454246344243312F747269616E676C65732E62696E504B01021400140006080000CC70623B0000000000000000000000003700000000000000
310
000000000000D40E00006662782F39464131463745442D413632322D343644302D413938332D3331353338454246344243312F617474726962757465732E62696E504B01021400140006080800CC70623B08DA0BD190000000410100003600000000000000000000000000290F00006662782F39464131463745442D413632
310
322D343644302D413938332D3331353338454246344243312F6469726563746F72792E786D6C504B01021400140006080800CC70623B0D6EF93BFE000000A00100003B000000000000000000000000000D1000006662782F39464131463745442D413632322D343644302D413938332D3331353338454246344243312F7265
310
736F75726365732F636F72652E786D6C504B0506000000000E000E0080040000641100000000
  0
XRECORD
  5
175
102
{ACAD_REACTORS
330
173
102
}
330
173
100
AcDbXrecord
280
     1
270
     1
271
     1
  0
XRECORD
  5
174
102
{ACAD_REACTORS
330
173
102
}
330
173
100
AcDbXrecord
280
     1
270
     1
271
     1
  0
XRECORD
  5
1FB
102
{ACAD_REACTORS
330
173
102
}
330
173
100
AcDbXrecord
280
     1
 70
     0
 90
1673772943
  1
ECE7A1D2-D628-4531-984C-D00F80459256
310
504B03040A0000080000CC70623B3DEE336E79000000790000001B0000006175746F6465736B2D64657369676E2D7061636B6167652E786D6C3C3F786D6C2076657273696F6E3D22312E302220656E636F64696E673D227574662D3822203F3E3C666F726D6174733E3C666F726D61743E687474703A2F2F736368656D612E
310
6175746F6465736B2E636F6D2F64657369676E2D7061636B6167652F323030393C2F666F726D61743E3C2F666F726D6174733E504B0304140006080800CC70623BD486FD9CA0000000F4000000130000005B436F6E74656E745F54797065735D2E786D6C7D8EC10E82300C865F65E91D8A1E8C310C0EEA1BF002731658846E
310
D98AC1B77784ABF1D8FE5FBFBF75BBCE937A534CCEB38643598122B6FEE978D0B0485F9C41B54DDD7D022595594E1A469170414C76A4D9A4D207E29CF43ECE46F218070CC6BECC4078ACAA135ACF422C856C0E68EA1BF5669944DDD7BCDE7B1F8E415D77AECB980613C2E4AC91FC167A2B244592486606FC29C8FD7F045B9A
310
EF7053A7E60B504B0304140006080800CC70623BD9DDAED0EC0000007C01000008000000636F72652E786D6C8D90416EC3201045AF82665B61836D9CD8C2444DD39CA01740405C94182C03558F5F9C3852BBEB6A467FFE9B197D7EF89E6EE8CB2CC17A37002D0820E394D7D68D03A478C17B4007C117EFE32F1B20272733C0
310
2A83E0E3E2D3BC49CABB685CCCAAF3DA6CA20CC14440EA969B0182FA34932C648AD911AEC52CD5558EA6A0CF2EC329598D1E47ACCEFBECC59A050463A7EA5833865FEBDD0E37353BE3EE8DBDE3F6786A48D375FBF6CC78B9C282473B3DEFABC5C86834888A900E538A49F5419B9EB47DD5BC907D4F082F57FB1F28CDFA9F50
310
B22ED6D5F6EE030B20687EE43E10BC5CB3C8E51E54AE6B6EE207504B0304140006080800CC70623B55019EA25F0000007C00000007000000636E782E786D6C4DCB3B0E80201045D1AD90E915ED2CF8AC45050C11660C8261F98AB1B07AC9C97D42D718D865D3E909258CFD00CCE24AC6E326A164D74DC0B4128928FF326038
310
472BA13128B1252AC747C6BAB984FC68F0B87FE8960A5C09FE86CFB69FBA01504B0304140006080800CC70623BA24EB22D72010000D40300000C0000006662782F636F72652E786D6CC5535B6E833010BC8AE5DF0A6C5E49888CA3A6694ED00B38E05014B091B1518EDFE511A5A9D228FD2A1F60CDEC7A67C6986DCE4D8D7A
310
69BA4AAB0C073EC548AA5C17952A33ECECD15B61B4E1CC686DBF9561A44423333CC098B3D268D7CE50AE9595CA02AA74216750749DB418E5352C32DCE59FB211BE70162ABA93DF8AFC244AE9073ED050C759670D0840D390E18DF9F1706664C23973AE2A66B62A605A75ACA4C13C4976E1364A12EF355A2EBD384AF65EFA96
310
BC7B8BED2EA6719AAE16FB8491A199335B351775B991C2CA02F390D2D40B028F861F41BCA68B7518BFD0D59A524686F29B26D7164F36B94AD9289CE54E6D1DE6010819891F6E21228B3AD1831EC219194284CF98F06DD01008846CC5A1BEF83801D4CBDC6A1303536877A57A513B0953A94FC707FDBE6064EA84A9E3E6E0FA
310
EE8CF0E9198F7784A316AA0413C2C2F2E0ECA0934D1AE6D05A69BCDE9E91D2A611F573361E38FC1375157F5752AE6B6DFE4B11990F88CCBF0719EE23FF02504B0304140006080800CC70623B408A7D3B7C0000009D0000000B0000006662782F636E782E786D6C4DCCD10A83201886E15B91FFDC552A92A0064DBC8F581632
310
D3703A76F9ABD1C18E3E78F878E5F0D9027ABBFCF2292AE86E2D20171F69F6715550CB827B40839639A5F2770314A7CD293819B45C73AAFB45B35BA61ACAA1C1C7E7855C58C15BC331339661262CC762340413D68D77DA5B42298546CBE6573AF60CEB2F504B0304140006080800CC70623B449FB9BD290100001202000031
310
0000006662782F36394639363044362D344446342D343946362D394244322D3234314243333846323333332F636F72652E786D6C8D515B6EC32010BC0AE22B55850D98B871848994463E412FE002495162B07854397EA176A4F62F3F2C9A9D991D587EB84F37F0AD7D30CEF6905418026DA553C65E7A98E219ED203808EE9D
310
8B7F6810D871D23D2C3014FCE25D9A57483A1BB58D19B54EE9151C43D0110279CB971E06F9A5A7B11A53CC8C70ADE6515EC78BAE4895DB992778883E0700CB907242D17643D7E2538BD869608875438BBAE38922CAC8F1BDD90DB4691A5E2F42C153326A951B95E398B3D1FE599322163C9AE9115F7A3D46ADA0A018778810
310
84E907617BDCEE297BC5BB3DC6BC2EF47FA234AB2745C9D8D8D035EE220B50105E2F0DC1954B9FB747187D9F9D8FA0CCDB042D5FA0C015C65B42DF78BD10F3F3B363CB56C7109DCFDFBBB97E662ED92EB62D13BC2E1BCAE5777DB9966D8A1F504B0304140006080800CC70623BAD7543B64E01000033030000300000006662
310
782F36394639363044362D344446342D343946362D394244322D3234314243333846323333332F636E782E786D6CD593CD6EC32010845F0571AD6CE3D48AD20813A9873E410FBD12D82434182C7EAAE6EDBB2424CD25871E7B41D6EC30B3FA84F9E67BB2E40B4234DE8DB46F1925E094D7C6ED479AD3AE5951B2113C789FEE
310
6C943839C1488B4C05DF079FE72A69D8C96C13AAD6B8631503449F83828872B949AC57D26200B826A308D316B4064D6E46FCDA41C05550DC9E483A00797BFD207EFB092A45DE9514C1BBD22178396BD39D891265658C238DEA00936C654E5E433CB65A26D9F6EDB5EBC14EBF49A45CB856E66048291F6939A9A81BB5C89177
310
38143CA680F4AA299D66A042CEB3354A2684DC9D8D178FE0D9B8B41CAAD720F880EE7EF93C0C18769E099ECC04D5A102C8049A8A05632F4DDF376CF1DE0F6BB65C2F8627B65A33C6BB62177CEBBDAD973006829F89F22E814B54F4BC2BE347F8AA8F681390B50FA73F804400B5F542E796F19FF974E7F78DB802FE05E20750
310
4B0304140006080800CC70623B8D05915C650500003B100000340000006662782F36394639363044362D344446342D343946362D394244322D3234314243333846323333332F6F626A656374732E786D6CAD575B6FA33814FE2B887D06429276DA1565D4266D158D3A339A6846FB502932E050B66023DB74D2FDF5FB190C01
310
9276B2973C046C8ECFF53B17071F77456EBD502133CEAE6CDF9DD81665314F32965ED995DA3A17B6F5310C04E7AA47665B8C14F4CAD6DB7618A48257A5D94AE89654B91AEDDEDDFC61C998326A5B714EA4BCB265FC440BE2924AF184CA6737218AB8E976E7FA6E4338649B0A523E8D98964450A6A029F619B8588D52FE7039
310
B1BD30F0F4F730D0FF866AF6369557DB33949F31A9088B0F848DD8CCFCF9F2767A76E99CCDE733677E3EF59D9BBB9BA5E37F984D16E78BC5E5F5ED25044B25C0C96822E8D60EEFE11B91C581D77CEA34368A1F5329E68CD1B8B61F16D63A1B8E092D294B10C78C4A48EB593D192E7DED9BDEE7995E1B91FDEDD3ACEA9FE831
310
6A756F9F7D4D79F4274C90A7A04248AA51D5F8C718DAE06FB2F75AC4796EBE65D22A88A22223B995679120E2D50E41AA49C260C046A35368846B0BECD0DFF3EBEB8AD4F835768F69B9ADF25C43D30E6B646F807FAA64AD59F61715C7A54127C4AACA98BA3006A9D792DAE165E0D59B61A01FB3A9F9D838D2DAE62445C86166
310
F37564E842E7DE6A69879FEEA2DD5AE7E371E1A5E025154AC307D06A03D73EB5978C58FFA4C8E9033066E0F3BD53BEC1F39F91BE7B55103791EDE6BBB991A2046172CB4581D8B893FA674DDA17A77B3B7C413D1B511FD2743BFF8A38F03A658705E3ADF8015C3A3417FF3D7E439FF591DA0B5F18BC20C1B8981957AE6392A3
310
F43C640C01D1A0B4728E2DD4F26DB4B3C3152A252A3B4E913CEC1C72F012782FF88EFF8637AA552DBEF76408E8A8DE9E50F9E1CB3A2DA0DB1B6039A893B56063DC5B3E3FFB5F72E67AB9FEB4AEC496C4F4C1149625DD662C53E89D7BF0F6151A046260D1337DFDC94502430F83B0EE07A130A224BCAD7DAE1D9FB6CD422FF6
310
920702629C4BB9AE79C12F243C6432A6794E18E5552BA56B431AAB5D91317302B2B071E86C3A42B1A02F999E24061403B5D0EB639195DA655DD3EBEAB4FB862DDF579F014AD0E73C22F99E28DA57FB98E75C6CA2D74D53086D600F4786E0FE3144B771A8A7B900F03594DB8A633CBC49B2EDB69228BB479CF863B5E807AAAB
310
23872F6DFEB4129B949CA33823F58830E86D65621E10047D9DB34D862E8EAC3C2ABC2F7B2C40D67CDFE01F5545B92105AF983AC54D93D69E56FB8E797F88913F898A9FEC705D3F9D1B54EC8426FB500D40A03BD0119B06E1B95DDC7EB8F6975367793EBD70E66733DFB9BC982F9CE564727731999F5D4ECFCE3B8D6A4DC2A0
310
6D50FD148437D110834A64C6CDDF57FBACB5C307A2A477DFE4939736CFEF2B175371E0E10CF0DD1D5C15654E0BCA14D1E87DD02FF93782A162C0A3D95F1524A52770F972BF1EE9809D13CE7DD599467F8ECE9ADD85CE85A34CD45355448C64F9E8A031DC2D596ACC6E5DD93D9B82DE2EF5CAF81363A8E47996A0DE24564A79
310
4115AACE09C55E14540231FDA13C319787134EBF34E3A022514E5B4D9E0826E25C02D5805B15ABE1BEF51B26383D445DD9E875EE33FE4C22DA16427D65A3BCA92CA6D28DD01DF5DC53330704308475351050232CCD31583787BA75774AFB06E5070DD0C8EF484E19968C5D83BA5B90B244D31E54D55A372320FE4786B7EA58
310
44E135AA5467CB7EA333A61683CC6A8C3257034C10CF46F40EF9F5BE59BE5BD30C3C72D235E95D10345C1D45445A5F0BB47E46A5EBE5570F9380B5FA629579952296A773720405982B9DE04011506178964401AA8BDF1FBF0A8EAB6861DD6580C0E38217056766716DAEB2D6FA0917D3E4116581EADB879C4E7CFFB11EFACD
310
3D641311495D92C8676CB409A72D18610D803CE8A626049E8EC1887CB5B44CC39883690DDA8399B4B9855B481E7D71D4A9D22F96E5BB73BF5793020C02137BF837504B0304140006080000CC70623B000000000000000000000000350000006662782F36394639363044362D344446342D343946362D394244322D32343142
310
43333846323333332F76657274696365732E62696E504B0304140006080800CC70623BF270F1330600000004000000360000006662782F36394639363044362D344446342D343946362D394244322D3234314243333846323333332F747269616E676C65732E62696E636660600000504B0304140006080000CC70623B0000
310
00000000000000000000370000006662782F36394639363044362D344446342D343946362D394244322D3234314243333846323333332F617474726962757465732E62696E504B0304140006080800CC70623B08DA0BD19000000041010000360000006662782F36394639363044362D344446342D343946362D394244322D
310
3234314243333846323333332F6469726563746F72792E786D6C858F410AC3201045AF22B36F53E9A60B35CBEEBAE80D244E44489C6234F4F835464A48035D0DF398FF9F8AF63D0E6CC63039F212F8F9020C7D47C6792B21C5FE7403D62A1188E2E60C98D7234A5830286103A55745067B9D86B8A3CF9C7F90C11DE607FB14
310
4396D7B6A82D282E9A152AD114D5EF2CB866EEE831B8EEA07A7BB5A8D7D61A2BAAEB7FD5F70921FF497D00504B0304140006080800CC70623BCA768048FE000000A00100003B0000006662782F36394639363044362D344446342D343946362D394244322D3234314243333846323333332F7265736F75726365732F636F72
310
652E786D6C8D50596E833010BD0A9ADFCA60D600328E9AA639412F609909B1126CE4A5EAF16B0295DABFFECC8CDEA2797AECF8353F924FB44E193D409E5248504B332A3D0D10FC95B4901C39B3C6F85F3248B49871801506CE266BC2B243D2688FDA47549B11775038871E12F988C7004EDE7016A9083E2ADC3D5D84BC8B09
310
D33C8D74D471E6BC8D0192EDC93A815B742658898E651BCB59086ADC356A8C3FD555A1055ED7E7E254D615792D0F075295F585746FF53B694EE78A565DD736979A65AB9933AFE69F8CD2A2F038022F28ED489E135A7CE4554F9BBEA85E68DB53CAB255FEC71496F19FA6A0B42F8B3DEE6673C0F318E4497096AD7DC5F52C33
310
EEB55BFE0D504B010214000A0000080000CC70623B3DEE336E79000000790000001B00000000000000000000000000000000006175746F6465736B2D64657369676E2D7061636B6167652E786D6C504B01021400140006080800CC70623BD486FD9CA0000000F40000001300000000000000000000000000B20000005B436F
310
6E74656E745F54797065735D2E786D6C504B01021400140006080800CC70623BD9DDAED0EC0000007C010000080000000000000000000000000083010000636F72652E786D6C504B01021400140006080800CC70623B55019EA25F0000007C000000070000000000000000000000000095020000636E782E786D6C504B0102
310
1400140006080800CC70623BA24EB22D72010000D40300000C00000000000000000000000000190300006662782F636F72652E786D6C504B01021400140006080800CC70623B408A7D3B7C0000009D0000000B00000000000000000000000000B50400006662782F636E782E786D6C504B01021400140006080800CC70623B
310
449FB9BD290100001202000031000000000000000000000000005A0500006662782F36394639363044362D344446342D343946362D394244322D3234314243333846323333332F636F72652E786D6C504B01021400140006080800CC70623BAD7543B64E010000330300003000000000000000000000000000D20600006662
310
782F36394639363044362D344446342D343946362D394244322D3234314243333846323333332F636E782E786D6C504B01021400140006080800CC70623B8D05915C650500003B10000034000000000000000000000000006E0800006662782F36394639363044362D344446342D343946362D394244322D32343142433338
310
46323333332F6F626A656374732E786D6C504B01021400140006080000CC70623B0000000000000000000000003500000000000000000000000000250E00006662782F36394639363044362D344446342D343946362D394244322D3234314243333846323333332F76657274696365732E62696E504B010214001400060808
310
00CC70623BF270F13306000000040000003600000000000000000000000000780E00006662782F36394639363044362D344446342D343946362D394244322D3234314243333846323333332F747269616E676C65732E62696E504B01021400140006080000CC70623B00000000000000000000000037000000000000000000
310
00000000D20E00006662782F36394639363044362D344446342D343946362D394244322D3234314243333846323333332F617474726962757465732E62696E504B01021400140006080800CC70623B08DA0BD190000000410100003600000000000000000000000000270F00006662782F36394639363044362D344446342D
310
343946362D394244322D3234314243333846323333332F6469726563746F72792E786D6C504B01021400140006080800CC70623BCA768048FE000000A00100003B000000000000000000000000000B1000006662782F36394639363044362D344446342D343946362D394244322D3234314243333846323333332F7265736F
310
75726365732F636F72652E786D6C504B0506000000000E000E0080040000621100000000
  0
XRECORD
  5
176
102
{ACAD_REACTORS
330
173
102
}
330
173
100
AcDbXrecord
280
     1
270
     1
271
     1
  0
XRECORD
  5
177
102
{ACAD_REACTORS
330
173
102
}
330
173
100
AcDbXrecord
280
     1
270
     1
271
     1
  0
CELLSTYLEMAP
  5
B85
102
{ACAD_REACTORS
330
162
102
}
330
162
100
AcDbCellStyleMap
 90
        3
300
CELLSTYLE
  1
TABLEFORMAT_BEGIN
 90
        5
170
     1
 91
        0
 92
    32768
 62
   257
 93
        1
300
CONTENTFORMAT
  1
CONTENTFORMAT_BEGIN
 90
        0
 91
        0
 92
      512
 93
        0
300

 40
0.0
140
1.0
 94
        5
 62
     0
340
11
144
6.0
309
CONTENTFORMAT_END
171
     1
301
MARGIN
  1
CELLMARGIN_BEGIN
 40
1.5
 40
1.5
 40
1.5
 40
1.5
 40
4.5
 40
4.5
309
CELLMARGIN_END
 94
        6
 95
        1
302
GRIDFORMAT
  1
GRIDFORMAT_BEGIN
 90
        0
 91
        1
 62
     0
 92
       -2
340
14
 93
        0
 40
1.125
309
GRIDFORMAT_END
 95
        2
302
GRIDFORMAT
  1
GRIDFORMAT_BEGIN
 90
        0
 91
        1
 62
     0
 92
       -2
340
14
 93
        0
 40
1.125
309
GRIDFORMAT_END
 95
        4
302
GRIDFORMAT
  1
GRIDFORMAT_BEGIN
 90
        0
 91
        1
 62
     0
 92
       -2
340
14
 93
        0
 40
1.125
309
GRIDFORMAT_END
 95
        8
302
GRIDFORMAT
  1
GRIDFORMAT_BEGIN
 90
        0
 91
        1
 62
     0
 92
       -2
340
14
 93
        0
 40
1.125
309
GRIDFORMAT_END
 95
       16
302
GRIDFORMAT
  1
GRIDFORMAT_BEGIN
 90
        0
 91
        1
 62
     0
 92
       -2
340
14
 93
        0
 40
1.125
309
GRIDFORMAT_END
 95
       32
302
GRIDFORMAT
  1
GRIDFORMAT_BEGIN
 90
        0
 91
        1
 62
     0
 92
       -2
340
14
 93
        0
 40
1.125
309
GRIDFORMAT_END
309
TABLEFORMAT_END
  1
CELLSTYLE_BEGIN
 90
        1
 91
        1
300
_TITLE
309
CELLSTYLE_END
300
CELLSTYLE
  1
TABLEFORMAT_BEGIN
 90
        5
170
     1
 91
        0
 92
        0
 62
   257
 93
        1
300
CONTENTFORMAT
  1
CONTENTFORMAT_BEGIN
 90
        0
 91
        0
 92
      512
 93
        0
300

 40
0.0
140
1.0
 94
        5
 62
     0
340
11
144
4.5
309
CONTENTFORMAT_END
171
     1
301
MARGIN
  1
CELLMARGIN_BEGIN
 40
1.5
 40
1.5
 40
1.5
 40
1.5
 40
4.5
 40
4.5
309
CELLMARGIN_END
 94
        6
 95
        1
302
GRIDFORMAT
  1
GRIDFORMAT_BEGIN
 90
        0
 91
        1
 62
     0
 92
       -2
340
14
 93
        0
 40
1.125
309
GRIDFORMAT_END
 95
        2
302
GRIDFORMAT
  1
GRIDFORMAT_BEGIN
 90
        0
 91
        1
 62
     0
 92
       -2
340
14
 93
        0
 40
1.125
309
GRIDFORMAT_END
 95
        4
302
GRIDFORMAT
  1
GRIDFORMAT_BEGIN
 90
        0
 91
        1
 62
     0
 92
       -2
340
14
 93
        0
 40
1.125
309
GRIDFORMAT_END
 95
        8
302
GRIDFORMAT
  1
GRIDFORMAT_BEGIN
 90
        0
 91
        1
 62
     0
 92
       -2
340
14
 93
        0
 40
1.125
309
GRIDFORMAT_END
 95
       16
302
GRIDFORMAT
  1
GRIDFORMAT_BEGIN
 90
        0
 91
        1
 62
     0
 92
       -2
340
14
 93
        0
 40
1.125
309
GRIDFORMAT_END
 95
       32
302
GRIDFORMAT
  1
GRIDFORMAT_BEGIN
 90
        0
 91
        1
 62
     0
 92
       -2
340
14
 93
        0
 40
1.125
309
GRIDFORMAT_END
309
TABLEFORMAT_END
  1
CELLSTYLE_BEGIN
 90
        2
 91
        1
300
_HEADER
309
CELLSTYLE_END
300
CELLSTYLE
  1
TABLEFORMAT_BEGIN
 90
        5
170
     1
 91
        0
 92
        0
 62
   257
 93
        1
300
CONTENTFORMAT
  1
CONTENTFORMAT_BEGIN
 90
        0
 91
        0
 92
      512
 93
        0
300

 40
0.0
140
1.0
 94
        2
 62
     0
340
11
144
4.5
309
CONTENTFORMAT_END
171
     1
301
MARGIN
  1
CELLMARGIN_BEGIN
 40
1.5
 40
1.5
 40
1.5
 40
1.5
 40
4.5
 40
4.5
309
CELLMARGIN_END
 94
        6
 95
        1
302
GRIDFORMAT
  1
GRIDFORMAT_BEGIN
 90
        0
 91
        1
 62
     0
 92
       -2
340
14
 93
        0
 40
1.125
309
GRIDFORMAT_END
 95
        2
302
GRIDFORMAT
  1
GRIDFORMAT_BEGIN
 90
        0
 91
        1
 62
     0
 92
       -2
340
14
 93
        0
 40
1.125
309
GRIDFORMAT_END
 95
        4
302
GRIDFORMAT
  1
GRIDFORMAT_BEGIN
 90
        0
 91
        1
 62
     0
 92
       -2
340
14
 93
        0
 40
1.125
309
GRIDFORMAT_END
 95
        8
302
GRIDFORMAT
  1
GRIDFORMAT_BEGIN
 90
        0
 91
        1
 62
     0
 92
       -2
340
14
 93
        0
 40
1.125
309
GRIDFORMAT_END
 95
       16
302
GRIDFORMAT
  1
GRIDFORMAT_BEGIN
 90
        0
 91
        1
 62
     0
 92
       -2
340
14
 93
        0
 40
1.125
309
GRIDFORMAT_END
 95
       32
302
GRIDFORMAT
  1
GRIDFORMAT_BEGIN
 90
        0
 91
        1
 62
     0
 92
       -2
340
14
 93
        0
 40
1.125
309
GRIDFORMAT_END
309
TABLEFORMAT_END
  1
CELLSTYLE_BEGIN
 90
        3
 91
        2
300
_DATA
309
CELLSTYLE_END
  0
AcDbCenterMarkActionBody
  5
9D4
330
9D3
100
AcDbAssocActionBody
 90
        2
100
AcDbSmartCenterActionBody
 90
        0
  0
ACDBASSOCGEOMDEPENDENCY
  5
9D5
330
9D3
100
AcDbAssocDependency
 90
        2
 90
        0
290
     1
290
     0
290
     1
290
     1
 90
        0
330
9B9
290
     0
330
0
330
0
360
0
 90
        1
100
AcDbAssocGeomDependency
 90
        0
290
     1
  1
AcDbAssocSingleEdgePersSubentId
290
     0
  0
ACDBASSOCDEPENDENCY
  5
9D6
330
9D3
100
AcDbAssocDependency
 90
        2
 90
        0
290
     1
290
     1
290
     1
290
     1
 90
        0
330
9CD
290
     0
330
0
330
0
360
0
 90
        2
  0
ACDBASSOCEDGEACTIONPARAM
  5
9D7
330
9D3
100
AcDbAssocActionParam
 90
        1
 90
        0
  1
InputEdge
100
AcDbAssocSingleDependencyActionParam
 90
        0
330
9D5
100
AcDbAssocEdgeActionParam
 90
        0
330
0
290
     1
 90
       11
 10
169.9438702931693
 20
127.9427881478492
 30
0.0
 10
0.0
 20
0.0
 30
1.0
 10
1.0
 20
0.0
 30
0.0
 40
24.99999999999999
 40
0.0
 40
3.141592653589792
 40
0.0
  0
AcDbCenterLineActionBody
  5
9D9
330
9D8
100
AcDbAssocActionBody
 90
        2
100
AcDbSmartCenterActionBody
 90
        0
  0
ACDBASSOCGEOMDEPENDENCY
  5
9DA
330
9D8
100
AcDbAssocDependency
 90
        2
 90
        0
290
     1
290
     0
290
     1
290
     1
 90
        0
330
9BD
290
     0
330
0
330
0
360
0
 90
        1
100
AcDbAssocGeomDependency
 90
        0
290
     1
  1
AcDbAssocSingleEdgePersSubentId
290
     0
  0
ACDBASSOCGEOMDEPENDENCY
  5
9DB
330
9D8
100
AcDbAssocDependency
 90
        2
 90
        0
290
     1
290
     0
290
     1
290
     1
 90
        0
330
9BE
290
     0
330
0
330
0
360
0
 90
        2
100
AcDbAssocGeomDependency
 90
        0
290
     1
  1
AcDbAssocSingleEdgePersSubentId
290
     0
  0
ACDBASSOCDEPENDENCY
  5
9DC
330
9D8
100
AcDbAssocDependency
 90
        2
 90
        0
290
     1
290
     1
290
     1
290
     1
 90
        0
330
9CE
290
     0
330
0
330
0
360
0
 90
        3
  0
ACDBASSOCEDGEACTIONPARAM
  5
9DD
330
9D8
100
AcDbAssocActionParam
 90
        1
 90
        0
  1
InputEdge
100
AcDbAssocSingleDependencyActionParam
 90
        0
330
9DA
100
AcDbAssocEdgeActionParam
 90
        0
330
0
290
     1
 90
       23
 10
245.6997514812692
 20
152.9427881478492
 30
0.0
 10
-3.0
 20
0.0
 30
0.0
  0
ACDBASSOCEDGEACTIONPARAM
  5
9DE
330
9D8
100
AcDbAssocActionParam
 90
        1
 90
        0
  1
InputEdge
100
AcDbAssocSingleDependencyActionParam
 90
        0
330
9DB
100
AcDbAssocEdgeActionParam
 90
        0
330
0
290
     1
 90
       23
 10
242.6997514812692
 20
102.9427881478492
 30
0.0
 10
3.0
 20
0.0
 30
0.0
  0
ACDBASSOCROTATEDDIMACTIONBODY
  5
9E0
330
9DF
100
AcDbAssocActionBody
 90
        2
 90
        0
330
9E3
100
ACDBASSOCROTATEDDIMACTIONBODY
 90
        0
330
9E6
330
9E8
  0
ACDBASSOCGEOMDEPENDENCY
  5
9E1
330
9DF
100
AcDbAssocDependency
 90
        2
 90
        0
290
     1
290
     0
290
     1
290
     1
 90
2147483647
330
9C8
290
     0
330
9E4
330
0
360
0
 90
        1
100
AcDbAssocGeomDependency
 90
        0
290
     1
  1
AcDbAssocSingleEdgePersSubentId
290
     0
  0
ACDBASSOCGEOMDEPENDENCY
  5
9E2
330
9DF
100
AcDbAssocDependency
 90
        2
 90
        0
290
     1
290
     0
290
     1
290
     1
 90
2147483647
330
9C2
290
     0
330
9E5
330
0
360
0
 90
        2
100
AcDbAssocGeomDependency
 90
        0
290
     1
  1
AcDbAssocSingleEdgePersSubentId
290
     0
  0
ACDBASSOCDEPENDENCY
  5
9E3
330
9DF
100
AcDbAssocDependency
 90
        2
 90
        0
290
     1
290
     1
290
     1
290
     1
 90
-2147483648
330
9CC
290
     0
330
0
330
0
360
0
 90
        3
  0
ACDBASSOCGEOMDEPENDENCY
  5
9E4
330
9DF
100
AcDbAssocDependency
 90
        2
 90
        0
290
     1
290
     0
290
     1
290
     1
 90
        0
330
9C8
290
     0
330
0
330
9E1
360
0
 90
        4
100
AcDbAssocGeomDependency
 90
        0
290
     1
  1
AcDbAssocSingleEdgePersSubentId
290
     0
  0
ACDBASSOCGEOMDEPENDENCY
  5
9E5
330
9DF
100
AcDbAssocDependency
 90
        2
 90
        0
290
     1
290
     0
290
     1
290
     1
 90
        0
330
9C2
290
     0
330
0
330
9E2
360
0
 90
        5
100
AcDbAssocGeomDependency
 90
        0
290
     1
  1
AcDbAssocSingleEdgePersSubentId
290
     0
  0
ACDBASSOCOSNAPPOINTREFACTIONPARAM
  5
9E6
330
9DF
100
AcDbAssocActionParam
 90
        1
 90
        0
  1

100
AcDbAssocCompoundActionParam
 90
        0
 90
        0
 90
        1
360
9E7
 90
        0
 90
        0
330
0
100
ACDBASSOCOSNAPPOINTREFACTIONPARAM
 90
        0
 90
       10
 40
0.0
  0
ACDBASSOCOSNAPPOINTREFACTIONPARAM
  5
9E8
330
9DF
100
AcDbAssocActionParam
 90
        1
 90
        0
  1

100
AcDbAssocCompoundActionParam
 90
        0
 90
        0
 90
        1
360
9E9
 90
        0
 90
        0
330
9E6
100
ACDBASSOCOSNAPPOINTREFACTIONPARAM
 90
        0
 90
       10
 40
1.0
  0
ACDBASSOCEDGEACTIONPARAM
  5
9EA
330
9DF
100
AcDbAssocActionParam
 90
        1
 90
        0
  1
RotRefEdge0
100
AcDbAssocSingleDependencyActionParam
 90
        0
330
9E4
100
AcDbAssocEdgeActionParam
 90
        0
330
0
290
     1
 90
       23
 10
246.6997514812693
 20
151.9427881478492
 30
0.0
 10
0.0
 20
-24.0
 30
0.0
  0
ACDBASSOCEDGEACTIONPARAM
  5
9EB
330
9DF
100
AcDbAssocActionParam
 90
        1
 90
        0
  1
RotRefEdge1
100
AcDbAssocSingleDependencyActionParam
 90
        0
330
9E5
100
AcDbAssocEdgeActionParam
 90
        0
330
0
290
     1
 90
       23
 10
241.6997514812692
 20
127.9427881478492
 30
0.0
 10
0.0
 20
24.0
 30
0.0
  0
ACDBASSOCDEPENDENCY
  5
718
330
70B
100
AcDbAssocDependency
 90
        2
 90
        0
290
     0
290
     1
290
     1
290
     1
 90
        0
330
6FB
290
     0
330
0
330
0
360
719
 90
        4
  0
ACDBASSOCGEOMDEPENDENCY
  5
710
330
70B
100
AcDbAssocDependency
 90
        2
 90
        0
290
     1
290
     1
290
     1
290
     1
 90
   -10000
330
6F9
290
     0
330
0
330
0
360
0
 90
        9
100
AcDbAssocGeomDependency
 90
        0
290
     1
  1
AcDbAssocSingleEdgePersSubentId
290
     0
  0
ACDBASSOCGEOMDEPENDENCY
  5
714
330
70B
100
AcDbAssocDependency
 90
        2
 90
        0
290
     1
290
     1
290
     1
290
     1
 90
   -10000
330
6FA
290
     0
330
716
330
70C
360
0
 90
        5
100
AcDbAssocGeomDependency
 90
        0
290
     1
  1
AcDbAssocEdgePersSubentId
 90
        0
 90
        4
 90
        3
290
     0
  0
ACDBASSOCDEPENDENCY
  5
711
330
70B
100
AcDbAssocDependency
 90
        2
 90
        0
290
     0
290
     1
290
     1
290
     1
 90
        0
330
6FC
290
     0
330
0
330
0
360
712
 90
        8
  0
ACDBASSOCVALUEDEPENDENCY
  5
715
330
70B
100
AcDbAssocDependency
 90
        2
 90
        0
290
     1
290
     0
290
     1
290
     1
 90
        0
330
71A
290
     0
330
0
330
0
360
0
 90
        3
100
AcDbAssocValueDependency
 90
        0
  1

 90
       10
  0
ACDBASSOCGEOMDEPENDENCY
  5
716
330
70B
100
AcDbAssocDependency
 90
        2
 90
        0
290
     1
290
     1
290
     1
290
     1
 90
   -10000
330
6FA
290
     0
330
713
330
714
360
0
 90
        2
100
AcDbAssocGeomDependency
 90
        0
290
     1
  1
AcDbAssocEdgePersSubentId
 90
        0
 90
        3
 90
        1
290
     0
  0
ACDBASSOCVALUEDEPENDENCY
  5
717
330
70B
100
AcDbAssocDependency
 90
        2
 90
        0
290
     1
290
     0
290
     1
290
     1
 90
        0
330
71C
290
     0
330
0
330
0
360
0
 90
       10
100
AcDbAssocValueDependency
 90
        0
  1

 90
       10
  0
ACDBASSOCGEOMDEPENDENCY
  5
713
330
70B
100
AcDbAssocDependency
 90
        2
 90
        0
290
     1
290
     1
290
     1
290
     1
 90
   -10000
330
6FA
290
     0
330
0
330
716
360
0
 90
        1
100
AcDbAssocGeomDependency
 90
        0
290
     1
  1
AcDbAssocEdgePersSubentId
 90
        0
 90
        1
 90
        2
290
     0
  0
ACDBASSOCGEOMDEPENDENCY
  5
70C
330
70B
100
AcDbAssocDependency
 90
        2
 90
        0
290
     1
290
     1
290
     1
290
     1
 90
   -10000
330
6FA
290
     0
330
714
330
0
360
0
 90
        6
100
AcDbAssocGeomDependency
 90
        0
290
     1
  1
AcDbAssocEdgePersSubentId
 90
        0
 90
        2
 90
        4
290
     0
  0
ACDBASSOCVALUEDEPENDENCY
  5
70D
330
70B
100
AcDbAssocDependency
 90
        2
 90
        0
290
     1
290
     0
290
     1
290
     1
 90
        0
330
71B
290
     0
330
0
330
0
360
0
 90
        7
100
AcDbAssocValueDependency
 90
        0
  1

 40
1.0
  0
ACDBASSOCDEPENDENCY
  5
70E
330
70B
100
AcDbAssocDependency
 90
        2
 90
        0
290
     0
290
     1
290
     1
290
     1
 90
        0
330
705
290
     0
330
0
330
0
360
70F
 90
       11
  0
ACDBASSOCEDGEACTIONPARAM
  5
9E7
330
9E6
100
AcDbAssocActionParam
 90
        1
 90
        0
  1

100
AcDbAssocSingleDependencyActionParam
 90
        0
330
9E1
100
AcDbAssocEdgeActionParam
 90
        0
330
0
290
     1
 90
       23
 10
246.6997514812693
 20
151.9427881478492
 30
0.0
 10
0.0
 20
-24.0
 30
0.0
  0
ACDBASSOCEDGEACTIONPARAM
  5
9E9
330
9E8
100
AcDbAssocActionParam
 90
        1
 90
        0
  1

100
AcDbAssocSingleDependencyActionParam
 90
        0
330
9E2
100
AcDbAssocEdgeActionParam
 90
        0
330
0
290
     1
 90
       23
 10
241.6997514812692
 20
127.9427881478492
 30
0.0
 10
0.0
 20
24.0
 30
0.0
  0
ASSOCDIMDEPENDENCYBODY
  5
719
330
718
100
AcDbAssocDependencyBody
 90
        1
100
AcDbImpAssocDimDependencyBodyBase
 90
        1
  1
10
100
AcDbAssocDimDependencyBody
 90
        1
  0
ASSOCDIMDEPENDENCYBODY
  5
712
330
711
100
AcDbAssocDependencyBody
 90
        1
100
AcDbImpAssocDimDependencyBodyBase
 90
        1
  1
1
100
AcDbAssocDimDependencyBody
 90
        1
  0
ASSOCDIMDEPENDENCYBODY
  5
70F
330
70E
100
AcDbAssocDependencyBody
 90
        1
100
AcDbImpAssocDimDependencyBodyBase
 90
        1
  1
10
100
AcDbAssocDimDependencyBody
 90
        1
  0
ENDSEC
  0
SECTION
  2
ACDSDATA
 70
     2
 71
     8
  0
ACDSSCHEMA
 90
        0
  1
AcDb_Thumbnail_Schema
  2
AcDbDs::ID
280
    10
 91
        8
  2
Thumbnail_Data
280
    15
 91
        0
101
ACDSRECORD
 95
        0
 90
        1
  2
AcDbDs::TreatedAsObjectData
280
     1
291
     1
101
ACDSRECORD
 95
        0
 90
        2
  2
AcDbDs::Legacy
280
     1
291
     1
101
ACDSRECORD
  1
AcDbDs::ID
 90
        3
  2
AcDs:Indexable
280
     1
291
     1
101
ACDSRECORD
  1
AcDbDs::ID
 90
        4
  2
AcDbDs::HandleAttribute
280
     7
282
     1
  0
ACDSSCHEMA
 90
        1
  1
AcDbDs::TreatedAsObjectDataSchema
  2
AcDbDs::TreatedAsObjectData
280
     1
 91
        0
  0
ACDSSCHEMA
 90
        2
  1
AcDbDs::LegacySchema
  2
AcDbDs::Legacy
280
     1
 91
        0
  0
ACDSSCHEMA
 90
        3
  1
AcDbDs::IndexedPropertySchema
  2
AcDs:Indexable
280
     1
 91
        0
  0
ACDSSCHEMA
 90
        4
  1
AcDbDs::HandleAttributeSchema
  2
AcDbDs::HandleAttribute
280
     7
 91
        1
284
     1
  0
ACDSRECORD
 90
        0
  2
AcDbDs::ID
280
    10
320
22
  2
Thumbnail_Data
280
    15
 94
     2559
310
89504E470D0A1A0A0000000D49484452000001000000007108030000000DA58D8400000300504C5445212830FFFFFF2128300000000000000000000000000000000000000000000000000000330000660000990000CC0000FF0033000033330033660033990033CC0033FF0066000066330066660066990066CC0066FF0099
310
000099330099660099990099CC0099FF00CC0000CC3300CC6600CC9900CCCC00CCFF00FF0000FF3300FF6600FF9900FFCC00FFFF3300003300333300663300993300CC3300FF3333003333333333663333993333CC3333FF3366003366333366663366993366CC3366FF3399003399333399663399993399CC3399FF33CC00
310
33CC3333CC6633CC9933CCCC33CCFF33FF0033FF3333FF6633FF9933FFCC33FFFF6600006600336600666600996600CC6600FF6633006633336633666633996633CC6633FF6666006666336666666666996666CC6666FF6699006699336699666699996699CC6699FF66CC0066CC3366CC6666CC9966CCCC66CCFF66FF0066
310
FF3366FF6666FF9966FFCC66FFFF9900009900339900669900999900CC9900FF9933009933339933669933999933CC9933FF9966009966339966669966999966CC9966FF9999009999339999669999999999CC9999FF99CC0099CC3399CC6699CC9999CCCC99CCFF99FF0099FF3399FF6699FF9999FFCC99FFFFCC0000CC00
310
33CC0066CC0099CC00CCCC00FFCC3300CC3333CC3366CC3399CC33CCCC33FFCC6600CC6633CC6666CC6699CC66CCCC66FFCC9900CC9933CC9966CC9999CC99CCCC99FFCCCC00CCCC33CCCC66CCCC99CCCCCCCCCCFFCCFF00CCFF33CCFF66CCFF99CCFFCCCCFFFFFF0000FF0033FF0066FF0099FF00CCFF00FFFF3300FF3333
310
FF3366FF3399FF33CCFF33FFFF6600FF6633FF6666FF6699FF66CCFF66FFFF9900FF9933FF9966FF9999FF99CCFF99FFFFCC00FFCC33FFCC66FFCC99FFCCCCFFCCFFFFFF00FFFF33FFFF66FFFF99FFFFCCFFFFFF0000000D0D0D1A1A1A2828283535354343435050505D5D5D6B6B6B787878868686939393A1A1A1AEAEAEBB
310
BBBBC9C9C9D6D6D6E4E4E4F1F1F1FFFFFF0000000000000000000000000000000000000000000000000000000000002E4550F1000001D34944415478DAED9A4B7283301005E738DABCFBEFB8D5EC63F1FF085BD8150A49DDE5040B4722D31A8F80C2EC2D3EFEDCC19DC77AE43F8580670B082F7E1CECC300050808BF5898FA
310
F61BF5D42FA05BDE2AF6D53090268A1470C183777340DA7F26555F04DD5F02DCD3F19B7BA9352033013CC6DE0D9BE36C972E2067FAE71AE02E6B4E80AF8BA0BC36017649800E61C5FA1F05846A8BA0AF96411D8788EB615F1A54F032F8361F560264C9B8140554BB0CFA7222A4DD9E9500D57A1ED025D9FF8DD459F519B0C4
310
E8E5AF025F18D07C2DE0D6A20059BB02621F2D5783559C085DED276B5AC078FADBA5432D49C0C0F5F83757833902BE3DD2333340FBFB018D7D0574BC23D45C0D585F0E23E096633D52802100010840000210800004142FE07057B3410139377B11D096008A2002108000042000019F07C9A46E01FB510BCA005D2033030A13
310
B0DB37B443AA952B20F9AC51FD1960FDCBAD8E0C48B65465111CA30A9BA49F1F8FDBB4743AC89BE2D740119CECF9E9E386057C05427ACE33336009D16C1E2E845632C0CFD681826AC06AC6B429093A3412838C9DDDA6EDB43FFE9AA2AF22033E15FAE3B417900125F4430002FE4BC0DD180000000000000000000000000000
310
0000000000000000000000FCC41FC3DF463FD1DB684B0000000049454E44AE4260823103C021F38069018E9A080100C0A100C34D846E350AB01F70D05DFEA34BAD533ED6C89C7DC07700AFEF96B60BBEB87816C0DB4ECBEF766FD583DEFE741B207E0115018AABF706F8FDBF23EF03A04FFAAAEDAF9A015513A8BE9E5A0040
310
77828D4B8B0D832D806D26E8978DC3ABF3C601000000000000000000000000000070AB722D1E4210044110EBC60FD71B2F204E1C703C0000000049454E44AE4260829F03C01FFDCA43E08E4FCF00345684A4C1330300000040B700A4251104411004411004415019FD01B626A277157ECFA80000000049454E44AE426082BE
310
AA851ED58093A870E5C1F626EBAF162F027269F1B550A118D0879BD30885D061E19B03581A92FD8F0F205DA4584881B701C4045B016CCB8A1101689DA7C0D95F78A51908C7890916D74EEA63DCB94052D1A31E1A7DFAE43CF20744280118724C901000F5F508100008BD1134EA11306FEC0900012000048000100002400008
310
0001401500BEFD0120228741444F53E90000000049454E44AE4260826082832B8A60EFAF5C050056139CA70098D72FFA2DC6E10C8A54160057EDC35900120AAA88B5F5CBB980CD90BCEE02D8B87980419000581019F476F9F2CAD1B2F33BBFEA2F0C007B6D07C0FA72FFFD290F00BCD64E0078BACBA0DC3F9CD33D0ECC0540
310
9DC19C621200E983E03B007CE9234EB31F588089BEB605BC01A084089009C0DBBFB10BE0A817B8FF34178093E38072ADB606F0E191201FAC2580E9DA1F0BF1AC6DCEB680DE0000000049454E44AE426082AF5DA9B276DD005793472A6BE619BF7BF477FF6551EFFBE34123B0C0B700586ACE0E1B7A77E8E3703A17EC0CC001
310
BF853D529A6A8CAB03B054DC20416D7FE5F32929863A5372624C58BB7A00A8B10DBDEC4CFC68CA832A23230010075FF5E087D0812AEA1AD34DD457674263848009403300B5FAE3B012F22169DF32ED00540D48800EC40892DBA3CC19127356323EE72305FA8E2291381F57759777570092C0BFDF852136E7D59F62053CC145
310
6211994F195246698E1D7601E0B9036A6685013DCA8814001EEED3A39380FA7BD2522C003C8158382CD81700BE1885A738737E41F121AA25D181628152D43452E8E849DC22E86102BF2EF051EE9B6C270C5407B500442E90794EA3E1591FC01797958E8D7705C0963FB4674CAA47E6669DFCF30BC4C10600DE0A709D79E1DA
310
A6FF38A3B2F706E003C6B1B6E95F1C066D0E78FCFF83438509119C5D22B651C01C293998DC07811A000492AB7D18EFC8818E699D49AAA981061B001103835C090035F5C1EB87140088BD208522205B409601285E58E937D726FD2B2C80EECFE3DFF3166009009405A8534876EC42340DEC640219000E2F96CC5B801A832100
310
E81CB1E6C091F88A1CF800281F507B726E6DD1FF9D2860CF08642910FA338016043E02400D03F20BC035C91095822600E21001AE054E00C42102DE0150D5708F3748780740B74386BB5374F50EC06B044607E01502A62138E2B5BAAB7700FE44C07684C7BC5879F50EC01F082CE24356E7FA1F22E007803C028EF4CF23E00A
310
80DCDDE229000F574690318087AB6DE00F00BD0D721E60FC2F5B5BBD034046E01480004136063AF9BEC12704BE48400A81F7AF5C90C53904CB927EDBA22F00E25E58FD39C15F036087B01A00D6E1F55F52AFA8BE74F61FF45B88C6C76FF2AB0000000049454E44AE426082D906A028044C002600B6ED9F00ACC6ED77EB3FC5
310
D78DE4B0CC55C20000000049454E44AE426082
  0
ENDSEC
  0
EOF
