  0
SECTION
  2
HEADER
  9
$ACADVER
  1
AC1014
  9
$ACADMAINTVER
 70
     9
  9
$DWGCODEPAGE
  3
ANSI_936
  9
$INSBASE
 10
0.0
 20
0.0
 30
0.0
  9
$EXTMIN
 10
-152.740983081501
 20
-1.957446766290218
 30
-0.0000000349181948
  9
$EXTMAX
 10
144.3089473063019
 20
208.0579163613988
 30
0.0000000814935746
  9
$LIMMIN
 10
0.0
 20
0.0
  9
$LIMMAX
 10
420.0
 20
297.0
  9
$ORTHOMODE
 70
     0
  9
$REGENMODE
 70
     1
  9
$FILLMODE
 70
     1
  9
$QTEXTMODE
 70
     0
  9
$MIRRTEXT
 70
     0
  9
$DRAGMODE
 70
     2
  9
$LTSCALE
 40
1.0
  9
$OSMODE
 70
    37
  9
$ATTMODE
 70
     1
  9
$TEXTSIZE
 40
2.5
  9
$TRACEWID
 40
1.0
  9
$TEXTSTYLE
  7
STANDARD
  9
$CLAYER
  8
0
  9
$CELTYPE
  6
BYLAYER
  9
$CECOLOR
 62
   256
  9
$CELTSCALE
 40
1.0
  9
$DELOBJ
 70
     1
  9
$DISPSILH
 70
     0
  9
$DIMSCALE
 40
1.0
  9
$DIMASZ
 40
2.5
  9
$DIMEXO
 40
0.625
  9
$DIMDLI
 40
3.75
  9
$DIMRND
 40
0.0
  9
$DIMDLE
 40
0.0
  9
$DIMEXE
 40
1.25
  9
$DIMTP
 40
0.0
  9
$DIMTM
 40
0.0
  9
$DIMTXT
 40
2.5
  9
$DIMCEN
 40
2.5
  9
$DIMTSZ
 40
0.0
  9
$DIMTOL
 70
     0
  9
$DIMLIM
 70
     0
  9
$DIMTIH
 70
     0
  9
$DIMTOH
 70
     0
  9
$DIMSE1
 70
     0
  9
$DIMSE2
 70
     0
  9
$DIMTAD
 70
     1
  9
$DIMZIN
 70
     8
  9
$DIMBLK
  1

  9
$DIMASO
 70
     1
  9
$DIMSHO
 70
     1
  9
$DIMPOST
  1

  9
$DIMAPOST
  1

  9
$DIMALT
 70
     0
  9
$DIMALTD
 70
     3
  9
$DIMALTF
 40
0.03937007874016
  9
$DIMLFAC
 40
1.0
  9
$DIMTOFL
 70
     1
  9
$DIMTVP
 40
0.0
  9
$DIMTIX
 70
     0
  9
$DIMSOXD
 70
     0
  9
$DIMSAH
 70
     0
  9
$DIMBLK1
  1

  9
$DIMBLK2
  1

  9
$DIMSTYLE
  2
ISO-25
  9
$DIMCLRD
 70
     0
  9
$DIMCLRE
 70
     0
  9
$DIMCLRT
 70
     0
  9
$DIMTFAC
 40
1.0
  9
$DIMGAP
 40
0.625
  9
$DIMJUST
 70
     0
  9
$DIMSD1
 70
     0
  9
$DIMSD2
 70
     0
  9
$DIMTOLJ
 70
     0
  9
$DIMTZIN
 70
     8
  9
$DIMALTZ
 70
     0
  9
$DIMALTTZ
 70
     0
  9
$DIMFIT
 70
     3
  9
$DIMUPT
 70
     0
  9
$DIMUNIT
 70
     2
  9
$DIMDEC
 70
     2
  9
$DIMTDEC
 70
     2
  9
$DIMALTU
 70
     2
  9
$DIMALTTD
 70
     3
  9
$DIMTXSTY
  7
STANDARD
  9
$DIMAUNIT
 70
     0
  9
$LUNITS
 70
     2
  9
$LUPREC
 70
     4
  9
$SKETCHINC
 40
1.0
  9
$FILLETRAD
 40
0.0
  9
$AUNITS
 70
     0
  9
$AUPREC
 70
     0
  9
$MENU
  1
.
  9
$ELEVATION
 40
0.0
  9
$PELEVATION
 40
0.0
  9
$THICKNESS
 40
0.0
  9
$LIMCHECK
 70
     0
  9
$CHAMFERA
 40
0.0
  9
$CHAMFERB
 40
0.0
  9
$CHAMFERC
 40
0.0
  9
$CHAMFERD
 40
0.0
  9
$SKPOLY
 70
     0
  9
$TDCREATE
 40
2460229.644328704
  9
$TDUPDATE
 40
2460669.462430938
  9
$TDINDWG
 40
0.0387384259
  9
$TDUSRTIMER
 40
0.0387384259
  9
$USRTIMER
 70
     1
  9
$ANGBASE
 50
0.0
  9
$ANGDIR
 70
     0
  9
$PDMODE
 70
     0
  9
$PDSIZE
 40
0.0
  9
$PLINEWID
 40
0.0
  9
$COORDS
 70
     1
  9
$SPLFRAME
 70
     0
  9
$SPLINETYPE
 70
     6
  9
$SPLINESEGS
 70
     8
  9
$ATTDIA
 70
     0
  9
$ATTREQ
 70
     1
  9
$HANDLING
 70
     1
  9
$HANDSEED
  5
11AC
  9
$SURFTAB1
 70
     6
  9
$SURFTAB2
 70
     6
  9
$SURFTYPE
 70
     6
  9
$SURFU
 70
     6
  9
$SURFV
 70
     6
  9
$UCSNAME
  2

  9
$UCSORG
 10
0.0
 20
0.0
 30
0.0
  9
$UCSXDIR
 10
1.0
 20
0.0
 30
0.0
  9
$UCSYDIR
 10
0.0
 20
1.0
 30
0.0
  9
$PUCSNAME
  2

  9
$PUCSORG
 10
0.0
 20
0.0
 30
0.0
  9
$PUCSXDIR
 10
1.0
 20
0.0
 30
0.0
  9
$PUCSYDIR
 10
0.0
 20
1.0
 30
0.0
  9
$USERI1
 70
     0
  9
$USERI2
 70
     0
  9
$USERI3
 70
     0
  9
$USERI4
 70
     0
  9
$USERI5
 70
     0
  9
$USERR1
 40
0.0
  9
$USERR2
 40
0.0
  9
$USERR3
 40
0.0
  9
$USERR4
 40
0.0
  9
$USERR5
 40
0.0
  9
$WORLDVIEW
 70
     1
  9
$SHADEDGE
 70
     3
  9
$SHADEDIF
 70
    70
  9
$TILEMODE
 70
     1
  9
$MAXACTVP
 70
    64
  9
$PINSBASE
 10
0.0
 20
0.0
 30
0.0
  9
$PLIMCHECK
 70
     0
  9
$PEXTMIN
 10
0.0
 20
0.0
 30
0.0
  9
$PEXTMAX
 10
0.0
 20
0.0
 30
0.0
  9
$PLIMMIN
 10
0.0
 20
0.0
  9
$PLIMMAX
 10
12.0
 20
9.0
  9
$UNITMODE
 70
     0
  9
$VISRETAIN
 70
     1
  9
$PLINEGEN
 70
     0
  9
$PSLTSCALE
 70
     1
  9
$TREEDEPTH
 70
  3020
  9
$PICKSTYLE
 70
     1
  9
$CMLSTYLE
  2
STANDARD
  9
$CMLJUST
 70
     0
  9
$CMLSCALE
 40
20.0
  9
$PROXYGRAPHICS
 70
     1
  9
$MEASUREMENT
 70
     1
  0
ENDSEC
  0
SECTION
  2
CLASSES
  0
CLASS
  1
ACDBDICTIONARYWDFLT
  2
AcDbDictionaryWithDefault
  3
ObjectDBX Classes
 90
        0
280
     0
281
     0
  0
CLASS
  1
ACDBPLACEHOLDER
  2
AcDbPlaceHolder
  3
ObjectDBX Classes
 90
        0
280
     0
281
     0
  0
CLASS
  1
LAYOUT
  2
AcDbLayout
  3
ObjectDBX Classes
 90
        0
280
     0
281
     0
  0
CLASS
  1
DICTIONARYVAR
  2
AcDbDictionaryVar
  3
ObjectDBX Classes
 90
        0
280
     0
281
     0
  0
CLASS
  1
TABLESTYLE
  2
AcDbTableStyle
  3
ObjectDBX Classes
 90
     4095
280
     0
281
     0
  0
CLASS
  1
MATERIAL
  2
AcDbMaterial
  3
ObjectDBX Classes
 90
     1153
280
     0
281
     0
  0
CLASS
  1
VISUALSTYLE
  2
AcDbVisualStyle
  3
ObjectDBX Classes
 90
     4095
280
     0
281
     0
  0
CLASS
  1
SCALE
  2
AcDbScale
  3
ObjectDBX Classes
 90
     1153
280
     0
281
     0
  0
CLASS
  1
MLEADERSTYLE
  2
AcDbMLeaderStyle
  3
ACDB_MLEADERSTYLE_CLASS
 90
     4095
280
     0
281
     0
  0
CLASS
  1
CELLSTYLEMAP
  2
AcDbCellStyleMap
  3
ObjectDBX Classes
 90
     1152
280
     0
281
     0
  0
CLASS
  1
EXACXREFPANELOBJECT
  2
ExAcXREFPanelObject
  3
EXAC_ESW
 90
     1025
280
     1
281
     0
  0
CLASS
  1
NPOCOLLECTION
  2
AcDbImpNonPersistentObjectsCollection
  3
ObjectDBX Classes
 90
     1153
280
     1
281
     0
  0
CLASS
  1
LAYER_INDEX
  2
AcDbLayerIndex
  3
ObjectDBX Classes
 90
        0
280
     0
281
     0
  0
CLASS
  1
SPATIAL_INDEX
  2
AcDbSpatialIndex
  3
AutoCAD 2000
 90
        0
280
     0
281
     0
  0
CLASS
  1
IDBUFFER
  2
AcDbIdBuffer
  3
ObjectDBX Classes
 90
        0
280
     0
281
     0
  0
CLASS
  1
ACDBSECTIONVIEWSTYLE
  2
AcDbSectionViewStyle
  3
ObjectDBX Classes
 90
     1025
280
     0
281
     0
  0
CLASS
  1
ACDBDETAILVIEWSTYLE
  2
AcDbDetailViewStyle
  3
ObjectDBX Classes
 90
     1025
280
     0
281
     0
  0
CLASS
  1
ACDBASSOC2DCONSTRAINTGROUP
  2
AcDbAssoc2dConstraintGroup
  3
ObjectDBX Classes
 90
     1025
280
     1
281
     0
  0
CLASS
  1
ACDBASSOCGEOMDEPENDENCY
  2
AcDbAssocGeomDependency
  3
ObjectDBX Classes
 90
     1025
280
     1
281
     0
  0
CLASS
  1
ACDBASSOCDEPENDENCY
  2
AcDbAssocDependency
  3
ObjectDBX Classes
 90
     1025
280
     1
281
     0
  0
CLASS
  1
ASSOCDIMDEPENDENCYBODY
  2
AcDbAssocDimDependencyBody
  3
ObjectDBX Classes
 90
     1025
280
     1
281
     0
  0
CLASS
  1
ACDBASSOCVALUEDEPENDENCY
  2
AcDbAssocValueDependency
  3
ObjectDBX Classes
 90
     1025
280
     1
281
     0
  0
CLASS
  1
ACDBASSOCVARIABLE
  2
AcDbAssocVariable
  3
ObjectDBX Classes
 90
     1025
280
     1
281
     0
  0
CLASS
  1
ACDBASSOCNETWORK
  2
AcDbAssocNetwork
  3
ObjectDBX Classes
 90
     1025
280
     1
281
     0
  0
CLASS
  1
SORTENTSTABLE
  2
AcDbSortentsTable
  3
ObjectDBX Classes
 90
        0
280
     0
281
     0
  0
CLASS
  1
RAPIDRTRENDERSETTINGS
  2
AcDbRapidRTRenderSettings
  3
ObjectDBX Classes
 90
     1024
280
     0
281
     0
  0
CLASS
  1
ACAD_TABLE
  2
AcDbTable
  3
ObjectDBX Classes
 90
     1025
280
     0
281
     1
  0
CLASS
  1
TABLECONTENT
  2
AcDbTableContent
  3
ObjectDBX Classes
 90
     1152
280
     0
281
     0
  0
CLASS
  1
TABLEGEOMETRY
  2
AcDbTableGeometry
  3
ObjectDBX Classes
 90
     1152
280
     0
281
     0
  0
CLASS
  1
ACAD_PROXY_OBJECT_WRAPPER
  2
AcDbProxyObjectWrapper
  3
AutoCAD 2000
 90
        0
280
     0
281
     0
  0
CLASS
  1
XRECORD
  2
AcDbXrecord
  3
ObjectDBX Classes
 90
        0
280
     0
281
     0
  0
CLASS
  1
LWPOLYLINE
  2
AcDbPolyline
  3
ObjectDBX Classes
 90
        0
280
     0
281
     1
  0
CLASS
  1
HATCH
  2
AcDbHatch
  3
ObjectDBX Classes
 90
        0
280
     0
281
     1
  0
ENDSEC
  0
SECTION
  2
TABLES
  0
TABLE
  2
VPORT
  5
8
102
{ACAD_XDICTIONARY
360
11A5
102
}
330
0
100
AcDbSymbolTable
 70
     1
  0
VPORT
  5
EA
330
8
100
AcDbSymbolTableRecord
100
AcDbViewportTableRecord
  2
*ACTIVE
 70
     0
 10
0.0
 20
0.0
 11
1.0
 21
1.0
 12
13.90688516746548
 22
87.98535931162792
 13
0.0
 23
0.0
 14
10.0
 24
10.0
 15
10.0
 25
10.0
 16
0.0
 26
0.0
 36
1.0
 17
0.0
 27
0.0
 37
0.0
 40
52.72020821436149
 41
2.100765306122449
 42
50.0
 43
0.0
 44
0.0
 50
0.0
 51
0.0
 71
     0
 72
  1000
 73
     1
 74
     3
 75
     0
 76
     1
 77
     0
 78
     0
1001
ACAD_NAV_VCDISPLAY
1070
     3
  0
ENDTAB
  0
TABLE
  2
LTYPE
  5
5
330
0
100
AcDbSymbolTable
 70
     2
  0
LTYPE
  5
14
330
5
100
AcDbSymbolTableRecord
100
AcDbLinetypeTableRecord
  2
BYBLOCK
 70
     0
  3

 72
    65
 73
     0
 40
0.0
  0
LTYPE
  5
15
330
5
100
AcDbSymbolTableRecord
100
AcDbLinetypeTableRecord
  2
BYLAYER
 70
     0
  3

 72
    65
 73
     0
 40
0.0
  0
LTYPE
  5
16
330
5
100
AcDbSymbolTableRecord
100
AcDbLinetypeTableRecord
  2
CONTINUOUS
 70
     0
  3
Solid line
 72
    65
 73
     0
 40
0.0
  0
LTYPE
  5
2E0
330
5
100
AcDbSymbolTableRecord
100
AcDbLinetypeTableRecord
  2
CENTER
 70
     0
  3
Center ____ _ ____ _ ____ _ ____ _ ____ _ ____
 72
    65
 73
     4
 40
10.16
 49
6.35
 74
     0
 49
-1.27
 74
     0
 49
1.27
 74
     0
 49
-1.27
 74
     0
  0
ENDTAB
  0
TABLE
  2
LAYER
  5
2
102
{ACAD_XDICTIONARY
360
1FF
102
}
330
0
100
AcDbSymbolTable
 70
    10
  0
LAYER
  5
10
330
2
100
AcDbSymbolTableRecord
100
AcDbLayerTableRecord
  2
0
 70
     0
 62
     7
  6
CONTINUOUS
  0
LAYER
  5
2E1
330
2
100
AcDbSymbolTableRecord
100
AcDbLayerTableRecord
  2
粗实线层
 70
     0
 62
     7
  6
CONTINUOUS
  0
LAYER
  5
2E3
330
2
100
AcDbSymbolTableRecord
100
AcDbLayerTableRecord
  2
细实线层
 70
     0
 62
     7
  6
CONTINUOUS
  0
LAYER
  5
2E5
330
2
100
AcDbSymbolTableRecord
100
AcDbLayerTableRecord
  2
DEFPOINTS
 70
     0
 62
     7
  6
CONTINUOUS
  0
LAYER
  5
2E6
330
2
100
AcDbSymbolTableRecord
100
AcDbLayerTableRecord
  2
1轮廓实线层
 70
     0
 62
     7
  6
CONTINUOUS
  0
LAYER
  5
2E8
330
2
100
AcDbSymbolTableRecord
100
AcDbLayerTableRecord
  2
3中心线层
 70
     0
 62
     1
  6
CENTER
  0
LAYER
  5
2EA
330
2
100
AcDbSymbolTableRecord
100
AcDbLayerTableRecord
  2
6文字层
 70
     0
 62
     3
  6
CONTINUOUS
  0
LAYER
  5
2EC
330
2
100
AcDbSymbolTableRecord
100
AcDbLayerTableRecord
  2
7标注层
 70
     0
 62
     4
  6
CONTINUOUS
  0
LAYER
  5
2EE
330
2
100
AcDbSymbolTableRecord
100
AcDbLayerTableRecord
  2
2细线层
 70
     0
 62
     4
  6
CONTINUOUS
  0
LAYER
  5
2F0
330
2
100
AcDbSymbolTableRecord
100
AcDbLayerTableRecord
  2
ADSK_CONSTRAINTS
 70
     0
 62
     7
  6
CONTINUOUS
  0
ENDTAB
  0
TABLE
  2
STYLE
  5
3
330
0
100
AcDbSymbolTable
 70
     5
  0
STYLE
  5
11
330
3
100
AcDbSymbolTableRecord
100
AcDbTextStyleTableRecord
  2
STANDARD
 70
     0
 40
0.0
 41
1.0
 50
0.0
 71
     0
 42
2.5
  3
arial.ttf
  4

1001
ACAD
1000
Arial
1071
       34
  0
STYLE
  5
132
330
3
100
AcDbSymbolTableRecord
100
AcDbTextStyleTableRecord
  2
ANNOTATIVE
 70
     0
 40
0.0
 41
1.0
 50
0.0
 71
     0
 42
2.5
  3
arial.ttf
  4

1001
ACADANNOTATIVE
1000
AnnotativeData
1002
{
1070
     1
1070
     1
1002
}
1001
ACAD
1000
Arial
1071
       34
  0
STYLE
  5
2F1
330
3
100
AcDbSymbolTableRecord
100
AcDbTextStyleTableRecord
  2
标准
 70
     0
 40
9.59
 41
1.0
 50
0.0
 71
     0
 42
2.5
  3

  4

1001
ACAD
1000
SimSun
1071
       34
  0
STYLE
  5
2F2
330
3
100
AcDbSymbolTableRecord
100
AcDbTextStyleTableRecord
  2
TH-GBD2M
 70
     0
 40
2.5
 41
0.8
 50
0.0
 71
     0
 42
2.5
  3
calibri.ttf
  4

1001
ACADANNOTATIVE
1000
AnnotativeData
1002
{
1070
     1
1070
     1
1002
}
1001
ACAD
1000
Calibri
1071
       34
  0
STYLE
  5
2F3
330
3
100
AcDbSymbolTableRecord
100
AcDbTextStyleTableRecord
  2
TH_GBDIM
 70
     0
 40
1.5
 41
0.8
 50
0.0
 71
     0
 42
5.0
  3
calibri.ttf
  4

1001
ACAD
1000
Calibri
1071
       34
  0
ENDTAB
  0
TABLE
  2
VIEW
  5
6
330
0
100
AcDbSymbolTable
 70
     0
  0
ENDTAB
  0
TABLE
  2
UCS
  5
7
330
0
100
AcDbSymbolTable
 70
     0
  0
ENDTAB
  0
TABLE
  2
APPID
  5
9
330
0
100
AcDbSymbolTable
 70
    20
  0
APPID
  5
12
330
9
100
AcDbSymbolTableRecord
100
AcDbRegAppTableRecord
  2
ACAD
 70
     0
  0
APPID
  5
9E
330
9
100
AcDbSymbolTableRecord
100
AcDbRegAppTableRecord
  2
ACAD_PSEXT
 70
     0
  0
APPID
  5
133
330
9
100
AcDbSymbolTableRecord
100
AcDbRegAppTableRecord
  2
ACADANNOPO
 70
     0
  0
APPID
  5
134
330
9
100
AcDbSymbolTableRecord
100
AcDbRegAppTableRecord
  2
ACADANNOTATIVE
 70
     0
  0
APPID
  5
135
330
9
100
AcDbSymbolTableRecord
100
AcDbRegAppTableRecord
  2
ACAD_DSTYLE_DIMJAG
 70
     0
  0
APPID
  5
136
330
9
100
AcDbSymbolTableRecord
100
AcDbRegAppTableRecord
  2
ACAD_DSTYLE_DIMTALN
 70
     0
  0
APPID
  5
165
330
9
100
AcDbSymbolTableRecord
100
AcDbRegAppTableRecord
  2
ACAD_MLEADERVER
 70
     0
  0
APPID
  5
217
330
9
100
AcDbSymbolTableRecord
100
AcDbRegAppTableRecord
  2
ACAD_NAV_VCDISPLAY
 70
     0
  0
APPID
  5
2F6
330
9
100
AcDbSymbolTableRecord
100
AcDbRegAppTableRecord
  2
ACAD_DSTYLE_DIMBREAK
 70
     0
  0
APPID
  5
2F7
330
9
100
AcDbSymbolTableRecord
100
AcDbRegAppTableRecord
  2
ACAD_DSTYLE_DIMRADIAL_EXTE
 70
     0
  0
APPID
  5
2F8
330
9
100
AcDbSymbolTableRecord
100
AcDbRegAppTableRecord
  2
ACAD_DSTYLE_DIMINSPECT
 70
     0
  0
APPID
  5
2F9
330
9
100
AcDbSymbolTableRecord
100
AcDbRegAppTableRecord
  2
GENIUS_GENDTOL_13
 70
     0
  0
APPID
  5
2FA
330
9
100
AcDbSymbolTableRecord
100
AcDbRegAppTableRecord
  2
ACDBBLOCKREPETAG
 70
     0
  0
APPID
  5
2FB
330
9
100
AcDbSymbolTableRecord
100
AcDbRegAppTableRecord
  2
CAXA_DRAFT_PAPERFRAME
 70
     0
  0
APPID
  5
2FC
330
9
100
AcDbSymbolTableRecord
100
AcDbRegAppTableRecord
  2
CAXA_DRAFT_BLKHIDE
 70
     0
  0
APPID
  5
4F6
330
9
100
AcDbSymbolTableRecord
100
AcDbRegAppTableRecord
  2
ACAD_DSTYLE_DIMJAG_POSITIO
 70
     0
  0
APPID
  5
4F9
330
9
100
AcDbSymbolTableRecord
100
AcDbRegAppTableRecord
  2
ACAD_EXEMPT_FROM_CAD_STAND
 70
     0
  0
APPID
  5
59F
330
9
100
AcDbSymbolTableRecord
100
AcDbRegAppTableRecord
  2
ACAD_OBJECT_NAME
 70
     0
  0
APPID
  5
79A
330
9
100
AcDbSymbolTableRecord
100
AcDbRegAppTableRecord
  2
GRADIENTCOLOR1ACI
 70
     0
  0
APPID
  5
79B
330
9
100
AcDbSymbolTableRecord
100
AcDbRegAppTableRecord
  2
GRADIENTCOLOR2ACI
 70
     0
  0
ENDTAB
  0
TABLE
  2
DIMSTYLE
  5
A
330
0
100
AcDbSymbolTable
 70
     5
  0
DIMSTYLE
105
1B0
330
A
100
AcDbSymbolTableRecord
100
AcDbDimStyleTableRecord
  2
STANDARD
 70
     0
  3

  4

  5

  6

  7

 40
1.0
 41
0.18
 42
0.0625
 43
0.38
 44
0.18
 45
0.0
 46
0.0
 47
0.0
 48
0.0
140
0.18
141
0.09
142
0.0
143
25.4
144
1.0
145
0.0
146
1.0
147
0.09
 71
     0
 72
     0
 73
     1
 74
     1
 75
     0
 76
     0
 77
     0
 78
     0
170
     0
171
     2
172
     0
173
     0
174
     0
175
     0
176
     0
177
     0
178
     0
270
     2
271
     4
272
     4
273
     2
274
     2
340
11
275
     0
280
     0
281
     0
282
     0
283
     1
284
     0
285
     0
286
     0
287
     3
288
     0
  0
DIMSTYLE
105
137
330
A
100
AcDbSymbolTableRecord
100
AcDbDimStyleTableRecord
  2
ANNOTATIVE
 70
     0
  3

  4

  5

  6

  7

 40
0.0
 41
2.5
 42
0.625
 43
3.75
 44
1.25
 45
0.0
 46
0.0
 47
0.0
 48
0.0
140
2.5
141
2.5
142
0.0
143
0.03937007874016
144
1.0
145
0.0
146
1.0
147
0.625
 71
     0
 72
     0
 73
     0
 74
     0
 75
     0
 76
     0
 77
     1
 78
     8
170
     0
171
     3
172
     1
173
     0
174
     0
175
     0
176
     0
177
     0
178
     0
270
     2
271
     2
272
     2
273
     2
274
     3
340
11
275
     0
280
     0
281
     0
282
     0
283
     0
284
     8
285
     0
286
     0
287
     3
288
     0
1001
ACADANNOTATIVE
1000
AnnotativeData
1002
{
1070
     1
1070
     1
1002
}
1001
ACAD_DSTYLE_DIMJAG
1070
   388
1040
1.5
1001
ACAD_DSTYLE_DIMTALN
1070
   392
1070
     0
  0
DIMSTYLE
105
27
102
{ACAD_REACTORS
330
101F
330
1020
330
1021
330
1022
330
1023
330
1024
102
}
330
A
100
AcDbSymbolTableRecord
100
AcDbDimStyleTableRecord
  2
ISO-25
 70
     0
  3

  4

  5

  6

  7

 40
1.0
 41
2.5
 42
0.625
 43
3.75
 44
1.25
 45
0.0
 46
0.0
 47
0.0
 48
0.0
140
2.5
141
2.5
142
0.0
143
0.03937007874016
144
1.0
145
0.0
146
1.0
147
0.625
 71
     0
 72
     0
 73
     0
 74
     0
 75
     0
 76
     0
 77
     1
 78
     8
170
     0
171
     3
172
     1
173
     0
174
     0
175
     0
176
     0
177
     0
178
     0
270
     2
271
     2
272
     2
273
     2
274
     3
340
11
275
     0
280
     0
281
     0
282
     0
283
     0
284
     8
285
     0
286
     0
287
     3
288
     0
  0
DIMSTYLE
105
2F4
102
{ACAD_REACTORS
330
1009
330
100E
330
1011
330
101B
330
101C
330
1025
330
1026
330
1027
102
}
330
A
100
AcDbSymbolTableRecord
100
AcDbDimStyleTableRecord
  2
TH-GBD2M
 70
     0
  3

  4

  5

  6

  7

 40
1.0
 41
4.0
 42
0.0
 43
0.38
 44
2.0
 45
0.0
 46
0.0
 47
0.0
 48
0.0
140
2.5
141
0.0
142
0.0
143
25.4
144
1.0
145
0.0
146
1.0
147
1.5
 71
     0
 72
     0
 73
     0
 74
     0
 75
     0
 76
     0
 77
     1
 78
     1
170
     0
171
     2
172
     0
173
     0
174
     0
175
     0
176
     0
177
     0
178
     3
270
     2
271
     2
272
     2
273
     2
274
     2
340
2F2
275
     0
280
     0
281
     0
282
     0
283
     1
284
     0
285
     0
286
     0
287
     3
288
     0
1001
ACAD_DSTYLE_DIMBREAK
1070
   391
1040
3.75
1001
ACAD_DSTYLE_DIMJAG
1070
   388
1040
1.5
1001
ACAD_DSTYLE_DIMTALN
1070
   392
1070
     0
  0
DIMSTYLE
105
2F5
102
{ACAD_REACTORS
330
1006
330
1007
102
}
330
A
100
AcDbSymbolTableRecord
100
AcDbDimStyleTableRecord
  2
透镜标注
 70
     0
  3

  4

  5

  6

  7

 40
1.0
 41
4.0
 42
0.625
 43
3.75
 44
1.25
 45
0.0
 46
0.0
 47
0.0
 48
0.000000001
140
2.5
141
2.5
142
0.0
143
0.03937007874016
144
1.0
145
0.0
146
1.0
147
0.625
 71
     0
 72
     0
 73
     0
 74
     1
 75
     0
 76
     0
 77
     1
 78
     1
170
     0
171
     3
172
     1
173
     0
174
     0
175
     0
176
     0
177
     0
178
   256
270
     2
271
     2
272
     2
273
     2
274
     3
340
2F2
275
     0
280
     0
281
     0
282
     0
283
     0
284
     0
285
     0
286
     0
287
     3
288
     0
1001
ACAD_DSTYLE_DIMBREAK
1070
   391
1040
3.75
1001
ACAD_DSTYLE_DIMJAG
1070
   388
1040
1.5
1001
ACAD_DSTYLE_DIMTALN
1070
   392
1070
     0
  0
ENDTAB
  0
TABLE
  2
BLOCK_RECORD
  5
1
330
0
100
AcDbSymbolTable
 70
    10
  0
BLOCK_RECORD
  5
1F
102
{ACAD_XDICTIONARY
360
1CE
102
}
330
1
100
AcDbSymbolTableRecord
100
AcDbBlockTableRecord
  2
*MODEL_SPACE
  0
BLOCK_RECORD
  5
D2
330
1
100
AcDbSymbolTableRecord
100
AcDbBlockTableRecord
  2
*PAPER_SPACE
  0
BLOCK_RECORD
  5
39F
330
1
100
AcDbSymbolTableRecord
100
AcDbBlockTableRecord
  2
_CLOSEDBLANK
  0
BLOCK_RECORD
  5
EB1
330
1
100
AcDbSymbolTableRecord
100
AcDbBlockTableRecord
  2
*X70
  0
BLOCK_RECORD
  5
105F
330
1
100
AcDbSymbolTableRecord
100
AcDbBlockTableRecord
  2
*T83
  0
BLOCK_RECORD
  5
107B
330
1
100
AcDbSymbolTableRecord
100
AcDbBlockTableRecord
  2
*D84
  0
BLOCK_RECORD
  5
1088
330
1
100
AcDbSymbolTableRecord
100
AcDbBlockTableRecord
  2
*D85
  0
BLOCK_RECORD
  5
1094
330
1
100
AcDbSymbolTableRecord
100
AcDbBlockTableRecord
  2
*D86
  0
BLOCK_RECORD
  5
10A1
330
1
100
AcDbSymbolTableRecord
100
AcDbBlockTableRecord
  2
*D87
  0
BLOCK_RECORD
  5
10AE
330
1
100
AcDbSymbolTableRecord
100
AcDbBlockTableRecord
  2
*D88
  0
BLOCK_RECORD
  5
10BB
330
1
100
AcDbSymbolTableRecord
100
AcDbBlockTableRecord
  2
*D89
  0
BLOCK_RECORD
  5
10C8
330
1
100
AcDbSymbolTableRecord
100
AcDbBlockTableRecord
  2
*D90
  0
ENDTAB
  0
ENDSEC
  0
SECTION
  2
BLOCKS
  0
BLOCK
  5
20
330
1F
100
AcDbEntity
  8
0
100
AcDbBlockBegin
  2
*MODEL_SPACE
 70
     0
 10
0.0
 20
0.0
 30
0.0
  3
*MODEL_SPACE
  1

  0
ENDBLK
  5
21
330
1F
100
AcDbEntity
  8
0
100
AcDbBlockEnd
  0
BLOCK
  5
D4
330
D2
100
AcDbEntity
 67
     1
  8
0
100
AcDbBlockBegin
  2
*PAPER_SPACE
 70
     0
 10
0.0
 20
0.0
 30
0.0
  3
*PAPER_SPACE
  1

  0
ENDBLK
  5
D5
330
D2
100
AcDbEntity
 67
     1
  8
0
100
AcDbBlockEnd
  0
BLOCK
  5
3A3
330
39F
100
AcDbEntity
  8
0
100
AcDbBlockBegin
  2
_CLOSEDBLANK
 70
     0
 10
0.0
 20
0.0
 30
0.0
  3
_CLOSEDBLANK
  1

  0
LINE
  5
3A0
330
39F
100
AcDbEntity
  8
0
  6
BYBLOCK
 62
     0
100
AcDbLine
 10
-1.0
 20
0.1666666666666667
 30
0.0
 11
0.0
 21
0.0
 31
0.0
  0
LINE
  5
3A1
330
39F
100
AcDbEntity
  8
0
  6
BYBLOCK
 62
     0
100
AcDbLine
 10
0.0
 20
0.0
 30
0.0
 11
-1.0
 21
-0.1666666666666667
 31
0.0
  0
LINE
  5
3A2
330
39F
100
AcDbEntity
  8
0
  6
BYBLOCK
 62
     0
100
AcDbLine
 10
-1.0
 20
0.1666666666666667
 30
0.0
 11
-1.0
 21
-0.1666666666666667
 31
0.0
  0
ENDBLK
  5
3A4
330
39F
100
AcDbEntity
  8
0
100
AcDbBlockEnd
  0
BLOCK
  5
EB2
330
EB1
100
AcDbEntity
  8
0
100
AcDbBlockBegin
  2
*X70
 70
     1
 10
0.0
 20
0.0
 30
0.0
  3
*X70
  1

  0
LINE
  5
EB3
330
EB1
100
AcDbEntity
  8
细实线层
100
AcDbLine
 10
-148.5
 20
-105.0
 30
0.0
 11
148.5
 21
-105.0
 31
0.0
  0
LINE
  5
EB4
330
EB1
100
AcDbEntity
  8
细实线层
100
AcDbLine
 10
148.5
 20
-105.0
 30
0.0
 11
148.5
 21
105.0
 31
0.0
  0
LINE
  5
EB5
330
EB1
100
AcDbEntity
  8
细实线层
100
AcDbLine
 10
148.5
 20
105.0
 30
0.0
 11
-148.5
 21
105.0
 31
0.0
  0
LINE
  5
EB6
330
EB1
100
AcDbEntity
  8
细实线层
100
AcDbLine
 10
-148.5
 20
105.0
 30
0.0
 11
-148.5
 21
-105.0
 31
0.0
  0
LINE
  5
EB7
330
EB1
100
AcDbEntity
  8
粗实线层
100
AcDbLine
 10
-138.5
 20
95.0
 30
0.0
 11
-138.5
 21
-95.0
 31
0.0
  0
LINE
  5
EB8
330
EB1
100
AcDbEntity
  8
粗实线层
100
AcDbLine
 10
-138.5
 20
-95.0
 30
0.0
 11
138.5
 21
-95.0
 31
0.0
  0
LINE
  5
EB9
330
EB1
100
AcDbEntity
  8
粗实线层
100
AcDbLine
 10
138.5
 20
-95.0
 30
0.0
 11
138.5
 21
95.0
 31
0.0
  0
LINE
  5
EBA
330
EB1
100
AcDbEntity
  8
粗实线层
100
AcDbLine
 10
138.5
 20
95.0
 30
0.0
 11
-138.5
 21
95.0
 31
0.0
  0
LINE
  5
EBB
330
EB1
100
AcDbEntity
  8
粗实线层
100
AcDbLine
 10
-148.5
 20
0.0
 30
0.0
 11
-133.5
 21
0.0
 31
0.0
  0
LINE
  5
EBC
330
EB1
100
AcDbEntity
  8
粗实线层
100
AcDbLine
 10
148.5
 20
0.0
 30
0.0
 11
133.5
 21
0.0
 31
0.0
  0
LINE
  5
EBD
330
EB1
100
AcDbEntity
  8
粗实线层
100
AcDbLine
 10
0.0
 20
105.0
 30
0.0
 11
0.0
 21
90.0
 31
0.0
  0
LINE
  5
EBE
330
EB1
100
AcDbEntity
  8
粗实线层
100
AcDbLine
 10
0.0
 20
-105.0
 30
0.0
 11
0.0
 21
-95.0
 31
0.0
  0
ENDBLK
  5
EBF
330
EB1
100
AcDbEntity
  8
0
100
AcDbBlockEnd
  0
BLOCK
  5
1079
330
105F
100
AcDbEntity
  8
0
100
AcDbBlockBegin
  2
*T83
 70
     1
 10
0.0
 20
0.0
 30
0.0
  3
*T83
  1

  0
MTEXT
  5
1060
330
105F
100
AcDbEntity
  8
2细线层
 62
     3
100
AcDbMText
 10
60.65000000000001
 20
-3.166666666666671
 30
0.0
 40
2.5
 41
33.0
 71
     5
 72
     5
  1
{\fSimSun|b1|i0|c134|p34;S1}
  0
MTEXT
  5
1061
330
105F
100
AcDbEntity
  8
2细线层
 62
     3
100
AcDbMText
 10
96.65
 20
-3.166666666666671
 30
0.0
 40
2.5
 41
33.0
 71
     5
 72
     5
  1
{\fSimSun|b1|i0|c134|p34;S2}
  0
MTEXT
  5
1062
330
105F
100
AcDbEntity
  8
2细线层
 62
     3
100
AcDbMText
 10
21.325
 20
-9.500000000000004
 30
0.0
 40
2.5
 41
39.65
 71
     5
 72
     5
  1
{\fSimSun|b1|i0|c134|p34;形状}
  0
MTEXT
  5
1063
330
105F
100
AcDbEntity
  8
2细线层
 62
     3
100
AcDbMText
 10
60.65000000000001
 20
-9.500000000000004
 30
0.0
 40
2.5
 41
33.0
 71
     5
 72
     5
  1
{\fSimSun|b1|i0|c134|p34;平面}
  0
MTEXT
  5
1064
330
105F
100
AcDbEntity
  8
2细线层
 62
     3
100
AcDbMText
 10
96.65
 20
-9.500000000000004
 30
0.0
 40
2.5
 41
33.0
 71
     5
 72
     5
  1
{\fSimSun|b1|i0|c134|p34;凹面}
  0
MTEXT
  5
1065
330
105F
100
AcDbEntity
  8
2细线层
 62
     3
100
AcDbMText
 10
21.325
 20
-15.83333333333334
 30
0.0
 40
2.5
 41
39.65
 71
     5
 72
     5
  1
{\fSimSun|b1|i0|c134|p34;曲率半径}
  0
MTEXT
  5
1066
330
105F
100
AcDbEntity
  8
2细线层
 62
     3
100
AcDbMText
 10
60.65000000000001
 20
-15.83333333333334
 30
0.0
 40
2.5
 41
33.0
 71
     5
 72
     5
  1
{\fSimSun|b1|i0|c134|p34;无穷}
  0
MTEXT
  5
1067
330
105F
100
AcDbEntity
  8
2细线层
 62
     3
100
AcDbMText
 10
96.65
 20
-15.83333333333334
 30
0.0
 40
2.5
 41
33.0
 71
     5
 72
     5
  1
{\fSimSun|b1|i0|c134|p34;300.00}
  0
MTEXT
  5
1068
330
105F
100
AcDbEntity
  8
2细线层
 62
     3
100
AcDbMText
 10
21.325
 20
-22.16666666666667
 30
0.0
 40
2.5
 41
39.65
 71
     5
 72
     5
  1
{\fSimSun|b1|i0|c134|p34;通光孔径}
  0
MTEXT
  5
1069
330
105F
100
AcDbEntity
  8
2细线层
 62
     3
100
AcDbMText
 10
60.65000000000001
 20
-22.16666666666667
 30
0.0
 40
2.5
 41
33.0
 71
     5
 72
     5
  1
{\fSimSun|b1|i0|c134|p34;/}
  0
MTEXT
  5
106A
330
105F
100
AcDbEntity
  8
2细线层
 62
     3
100
AcDbMText
 10
96.65
 20
-22.16666666666667
 30
0.0
 40
2.5
 41
33.0
 71
     5
 72
     5
  1
{\fSimSun|b1|i0|c134|p34;>90%}
  0
MTEXT
  5
106B
330
105F
100
AcDbEntity
  8
2细线层
 62
     3
100
AcDbMText
 10
21.325
 20
-28.50000000000001
 30
0.0
 40
2.5
 41
39.65
 71
     5
 72
     5
  1
{\fSimSun|b1|i0|c134|p34;光洁度}
  0
MTEXT
  5
106C
330
105F
100
AcDbEntity
  8
2细线层
 62
     3
100
AcDbMText
 10
60.65000000000001
 20
-28.50000000000001
 30
0.0
 40
2.5
 41
33.0
 71
     5
 72
     5
  1
{\fSimSun|b1|i0|c134|p34;细磨或检验性抛光}
  0
MTEXT
  5
106D
330
105F
100
AcDbEntity
  8
2细线层
 62
     3
100
AcDbMText
 10
96.65
 20
-28.50000000000001
 30
0.0
 40
2.5
 41
33.0
 71
     5
 72
     5
  1
{\fSimSun|b1|i0|c134|p34;40-20}
  0
LINE
  5
106E
330
105F
100
AcDbEntity
  8
2细线层
  6
BYBLOCK
 62
     0
100
AcDbLine
 10
0.0
 20
0.0
 30
0.0
 11
114.65
 21
0.0
 31
0.0
  0
LINE
  5
106F
330
105F
100
AcDbEntity
  8
2细线层
  6
BYBLOCK
 62
     0
100
AcDbLine
 10
0.0
 20
-6.333333333333336
 30
0.0
 11
114.65
 21
-6.333333333333336
 31
0.0
  0
LINE
  5
1070
330
105F
100
AcDbEntity
  8
2细线层
  6
BYBLOCK
 62
     0
100
AcDbLine
 10
0.0
 20
-12.66666666666667
 30
0.0
 11
114.65
 21
-12.66666666666667
 31
0.0
  0
LINE
  5
1071
330
105F
100
AcDbEntity
  8
2细线层
  6
BYBLOCK
 62
     0
100
AcDbLine
 10
0.0
 20
-19.00000000000001
 30
0.0
 11
114.65
 21
-19.00000000000001
 31
0.0
  0
LINE
  5
1072
330
105F
100
AcDbEntity
  8
2细线层
  6
BYBLOCK
 62
     0
100
AcDbLine
 10
0.0
 20
-25.33333333333334
 30
0.0
 11
114.65
 21
-25.33333333333334
 31
0.0
  0
LINE
  5
1073
330
105F
100
AcDbEntity
  8
2细线层
  6
BYBLOCK
 62
     0
100
AcDbLine
 10
0.0
 20
-31.66666666666667
 30
0.0
 11
114.65
 21
-31.66666666666667
 31
0.0
  0
LINE
  5
1074
330
105F
100
AcDbEntity
  8
2细线层
  6
BYBLOCK
 62
     0
100
AcDbLine
 10
0.0
 20
0.0
 30
0.0
 11
0.0
 21
-31.66666666666667
 31
0.0
  0
LINE
  5
1075
330
105F
100
AcDbEntity
  8
2细线层
  6
BYBLOCK
 62
     0
100
AcDbLine
 10
42.65000000000001
 20
0.0
 30
0.0
 11
42.65000000000001
 21
-31.66666666666667
 31
0.0
  0
LINE
  5
1076
330
105F
100
AcDbEntity
  8
2细线层
  6
BYBLOCK
 62
     0
100
AcDbLine
 10
78.65
 20
0.0
 30
0.0
 11
78.65
 21
-31.66666666666667
 31
0.0
  0
LINE
  5
1077
330
105F
100
AcDbEntity
  8
2细线层
  6
BYBLOCK
 62
     0
100
AcDbLine
 10
114.65
 20
0.0
 30
0.0
 11
114.65
 21
-31.66666666666667
 31
0.0
  0
LINE
  5
1078
330
105F
100
AcDbEntity
  8
DEFPOINTS
 62
     8
 60
     1
100
AcDbLine
 10
0.0
 20
0.0
 30
0.0
 11
0.0
 21
0.0
 31
0.0
  0
ENDBLK
  5
107A
330
105F
100
AcDbEntity
  8
0
100
AcDbBlockEnd
  0
BLOCK
  5
107C
330
107B
100
AcDbEntity
  8
0
100
AcDbBlockBegin
  2
*D84
 70
     1
 10
0.0
 20
0.0
 30
0.0
  3
*D84
  1

  0
LINE
  5
10D9
330
107B
100
AcDbEntity
  8
7标注层
 62
     0
100
AcDbLine
 10
1.883820720614494
 20
163.4712163107589
 30
0.0
 11
1.883820720614495
 21
171.6989860661234
 31
0.0
  0
LINE
  5
10DA
330
107B
100
AcDbEntity
  8
7标注层
 62
     0
100
AcDbLine
 10
21.88382072061449
 20
163.4712163107589
 30
0.0
 11
21.88382072061449
 21
171.6989860661234
 31
0.0
  0
LINE
  5
10DB
330
107B
100
AcDbEntity
  8
7标注层
 62
     0
100
AcDbLine
 10
5.883820720614494
 20
170.4489860661234
 30
0.0
 11
17.88382072061449
 21
170.4489860661234
 31
0.0
  0
LINE
  5
10DC
330
107B
100
AcDbEntity
  8
7标注层
 62
     0
100
AcDbLine
 10
21.88382072061449
 20
170.4489860661234
 30
0.0
 11
38.63963610523005
 21
170.4489860661234
 31
0.0
  0
SOLID
  5
10DD
330
107B
100
AcDbEntity
  8
7标注层
 62
     0
100
AcDbTrace
 10
5.883820720614494
 20
171.1156527327901
 30
0.0
 11
5.883820720614494
 21
169.7823193994568
 31
0.0
 12
1.883820720614495
 22
170.4489860661234
 32
0.0
 13
1.883820720614495
 23
170.4489860661234
 33
0.0
  0
SOLID
  5
10DE
330
107B
100
AcDbEntity
  8
7标注层
 62
     0
100
AcDbTrace
 10
17.88382072061449
 20
171.1156527327901
 30
0.0
 11
17.88382072061449
 21
169.7823193994568
 31
0.0
 12
21.88382072061449
 22
170.4489860661234
 32
0.0
 13
21.88382072061449
 23
170.4489860661234
 33
0.0
  0
MTEXT
  5
10DF
330
107B
100
AcDbEntity
  8
7标注层
100
AcDbMText
 10
32.26172841292237
 20
173.2067809379183
 30
0.0
 40
2.5
 41
0.0
 71
     5
 72
     1
  1
20.00{}{\H0.71x;\C3;\S 0.00^ -0.10;}
  7
TH-GBD2M
  0
POINT
  5
10E0
330
107B
100
AcDbEntity
  8
DEFPOINTS
 62
     0
100
AcDbPoint
 10
1.883820720614494
 20
162.8462163107589
 30
0.0
  0
POINT
  5
10E1
330
107B
100
AcDbEntity
  8
DEFPOINTS
 62
     0
100
AcDbPoint
 10
21.88382072061449
 20
162.8462163107589
 30
0.0
  0
POINT
  5
10E2
330
107B
100
AcDbEntity
  8
DEFPOINTS
 62
     0
100
AcDbPoint
 10
21.88382072061449
 20
170.4489860661234
 30
0.0
  0
ENDBLK
  5
107D
330
107B
100
AcDbEntity
  8
0
100
AcDbBlockEnd
  0
BLOCK
  5
1089
330
1088
100
AcDbEntity
  8
0
100
AcDbBlockBegin
  2
*D85
 70
     1
 10
0.0
 20
0.0
 30
0.0
  3
*D85
  1

  0
LINE
  5
10E3
330
1088
100
AcDbEntity
  8
7标注层
 62
     0
100
AcDbLine
 10
1.258820720614495
 20
137.846216310759
 30
0.0
 11
-4.002667631141362
 21
137.846216310759
 31
0.0
  0
LINE
  5
10E4
330
1088
100
AcDbEntity
  8
7标注层
 62
     0
100
AcDbLine
 10
1.258820720614495
 20
162.846216310759
 30
0.0
 11
-4.002667631141368
 21
162.846216310759
 31
0.0
  0
LINE
  5
10E5
330
1088
100
AcDbEntity
  8
7标注层
 62
     0
100
AcDbLine
 10
-2.752667631141362
 20
141.846216310759
 30
0.0
 11
-2.752667631141366
 21
158.846216310759
 31
0.0
  0
SOLID
  5
10E6
330
1088
100
AcDbEntity
  8
7标注层
 62
     0
100
AcDbTrace
 10
-3.419334297808029
 20
141.846216310759
 30
0.0
 11
-2.086000964474696
 21
141.846216310759
 31
0.0
 12
-2.752667631141362
 22
137.846216310759
 32
0.0
 13
-2.752667631141362
 23
137.846216310759
 33
0.0
  0
SOLID
  5
10E7
330
1088
100
AcDbEntity
  8
7标注层
 62
     0
100
AcDbTrace
 10
-3.419334297808033
 20
158.846216310759
 30
0.0
 11
-2.0860009644747
 21
158.846216310759
 31
0.0
 12
-2.752667631141367
 22
162.846216310759
 32
0.0
 13
-2.752667631141367
 23
162.846216310759
 33
0.0
  0
MTEXT
  5
10E8
330
1088
100
AcDbEntity
  8
7标注层
100
AcDbMText
 10
-5.510462502936194
 20
150.3462163107589
 30
0.0
 40
2.5
 41
0.0
 71
     5
 72
     1
  1
25.00{}{\H0.71x;\C3;\S 0.00^ -0.10;}
  7
TH-GBD2M
 11
6.123233995736766E-17
 21
1.0
 31
0.0
  0
POINT
  5
10E9
330
1088
100
AcDbEntity
  8
DEFPOINTS
 62
     0
100
AcDbPoint
 10
1.883820720614495
 20
137.846216310759
 30
0.0
  0
POINT
  5
10EA
330
1088
100
AcDbEntity
  8
DEFPOINTS
 62
     0
100
AcDbPoint
 10
1.883820720614495
 20
162.846216310759
 30
0.0
  0
POINT
  5
10EB
330
1088
100
AcDbEntity
  8
DEFPOINTS
 62
     0
100
AcDbPoint
 10
-2.752667631141367
 20
162.846216310759
 30
0.0
  0
ENDBLK
  5
108A
330
1088
100
AcDbEntity
  8
0
100
AcDbBlockEnd
  0
BLOCK
  5
1095
330
1094
100
AcDbEntity
  8
0
100
AcDbBlockBegin
  2
*D86
 70
     1
 10
0.0
 20
0.0
 30
0.0
  3
*D86
  1

  0
LINE
  5
10EC
330
1094
100
AcDbEntity
  8
7标注层
 62
     0
100
AcDbLine
 10
2.237138598334242
 20
107.6679820228634
 30
0.0
 11
-15.00996843554825
 21
107.6679820228634
 31
0.0
  0
LINE
  5
10ED
330
1094
100
AcDbEntity
  8
7标注层
 62
     0
100
AcDbLine
 10
2.23713859833788
 20
97.62798202286416
 30
0.0
 11
-15.00996843554825
 21
97.62798202286416
 31
0.0
  0
LINE
  5
10EE
330
1094
100
AcDbEntity
  8
7标注层
 62
     0
100
AcDbLine
 10
-13.00996843554825
 20
111.6679820228634
 30
0.0
 11
-13.00996843554825
 21
115.6679820228634
 31
0.0
  0
LINE
  5
10EF
330
1094
100
AcDbEntity
  8
7标注层
 62
     0
100
AcDbLine
 10
-13.00996843554825
 20
93.62798202286415
 30
0.0
 11
-13.00996843554824
 21
79.8033666382481
 31
0.0
  0
SOLID
  5
10F0
330
1094
100
AcDbEntity
  8
7标注层
 62
     0
100
AcDbTrace
 10
-13.67663510221492
 20
111.6679820228634
 30
0.0
 11
-12.34330176888158
 21
111.6679820228634
 31
0.0
 12
-13.00996843554825
 22
107.6679820228634
 32
0.0
 13
-13.00996843554825
 23
107.6679820228634
 33
0.0
  0
SOLID
  5
10F1
330
1094
100
AcDbEntity
  8
7标注层
 62
     0
100
AcDbTrace
 10
-13.67663510221491
 20
93.62798202286415
 30
0.0
 11
-12.34330176888158
 21
93.62798202286415
 31
0.0
 12
-13.00996843554825
 22
97.62798202286416
 32
0.0
 13
-13.00996843554825
 23
97.62798202286416
 33
0.0
  0
MTEXT
  5
10F2
330
1094
100
AcDbEntity
  8
7标注层
 62
     3
100
AcDbMText
 10
-15.79073766631745
 20
84.71567433055577
 30
0.0
 40
2.5
 41
0.0
 71
     5
 72
     1
  1
\A1;10.04
  7
TH-GBD2M
 11
6.123233995736766E-17
 21
1.0
 31
0.0
  0
POINT
  5
10F3
330
1094
100
AcDbEntity
  8
DEFPOINTS
 62
     0
100
AcDbPoint
 10
2.237138598334242
 20
107.6679820228634
 30
0.0
  0
POINT
  5
10F4
330
1094
100
AcDbEntity
  8
DEFPOINTS
 62
     0
100
AcDbPoint
 10
2.23713859833788
 20
97.62798202286416
 30
0.0
  0
POINT
  5
10F5
330
1094
100
AcDbEntity
  8
DEFPOINTS
 62
     0
100
AcDbPoint
 10
-13.00996843554825
 20
97.62798202286416
 30
0.0
  0
ENDBLK
  5
1096
330
1094
100
AcDbEntity
  8
0
100
AcDbBlockEnd
  0
BLOCK
  5
10A2
330
10A1
100
AcDbEntity
  8
0
100
AcDbBlockBegin
  2
*D87
 70
     1
 10
0.0
 20
0.0
 30
0.0
  3
*D87
  1

  0
LINE
  5
10F6
330
10A1
100
AcDbEntity
  8
7标注层
 62
     0
100
AcDbLine
 10
22.25111154225079
 20
107.6679820228637
 30
0.0
 11
18.68912491134549
 21
107.6679820228637
 31
0.0
  0
LINE
  5
10F7
330
10A1
100
AcDbEntity
  8
7标注层
 62
     0
100
AcDbLine
 10
22.25111154225079
 20
98.63002647395086
 30
0.0
 11
18.68912491134549
 21
98.63002647395086
 31
0.0
  0
LINE
  5
10F8
330
10A1
100
AcDbEntity
  8
7标注层
 62
     0
100
AcDbLine
 10
20.68912491134549
 20
111.6679820228637
 30
0.0
 11
20.68912491134549
 21
115.6679820228637
 31
0.0
  0
LINE
  5
10F9
330
10A1
100
AcDbEntity
  8
7标注层
 62
     0
100
AcDbLine
 10
20.68912491134549
 20
94.63002647395085
 30
0.0
 11
20.6891249113455
 21
82.26079570471933
 31
0.0
  0
SOLID
  5
10FA
330
10A1
100
AcDbEntity
  8
7标注层
 62
     0
100
AcDbTrace
 10
20.02245824467882
 20
111.6679820228637
 30
0.0
 11
21.35579157801216
 21
111.6679820228637
 31
0.0
 12
20.68912491134549
 22
107.6679820228637
 32
0.0
 13
20.68912491134549
 23
107.6679820228637
 33
0.0
  0
SOLID
  5
10FB
330
10A1
100
AcDbEntity
  8
7标注层
 62
     0
100
AcDbTrace
 10
20.02245824467883
 20
94.63002647395085
 30
0.0
 11
21.35579157801216
 21
94.63002647395085
 31
0.0
 12
20.68912491134549
 22
98.63002647395086
 32
0.0
 13
20.68912491134549
 23
98.63002647395086
 33
0.0
  0
MTEXT
  5
10FC
330
10A1
100
AcDbEntity
  8
7标注层
 62
     3
100
AcDbMText
 10
17.90835568057629
 20
86.4454110893347
 30
0.0
 40
2.5
 41
0.0
 71
     5
 72
     1
  1
\A1;9.04
  7
TH-GBD2M
 11
6.123233995736766E-17
 21
1.0
 31
0.0
  0
POINT
  5
10FD
330
10A1
100
AcDbEntity
  8
DEFPOINTS
 62
     0
100
AcDbPoint
 10
22.25111154225079
 20
107.6679820228637
 30
0.0
  0
POINT
  5
10FE
330
10A1
100
AcDbEntity
  8
DEFPOINTS
 62
     0
100
AcDbPoint
 10
22.25111154225079
 20
98.63002647395086
 30
0.0
  0
POINT
  5
10FF
330
10A1
100
AcDbEntity
  8
DEFPOINTS
 62
     0
100
AcDbPoint
 10
20.68912491134549
 20
98.63002647395086
 30
0.0
  0
ENDBLK
  5
10A3
330
10A1
100
AcDbEntity
  8
0
100
AcDbBlockEnd
  0
BLOCK
  5
10AF
330
10AE
100
AcDbEntity
  8
0
100
AcDbBlockBegin
  2
*D88
 70
     1
 10
0.0
 20
0.0
 30
0.0
  3
*D88
  1

  0
LINE
  5
1100
330
10AE
100
AcDbEntity
  8
7标注层
 62
     0
100
AcDbLine
 10
22.23713859833833
 20
108.7279820228645
 30
0.0
 11
22.23713859833833
 21
122.4284884083471
 31
0.0
  0
LINE
  5
1101
330
10AE
100
AcDbEntity
  8
7标注层
 62
     0
100
AcDbLine
 10
27.23713859833833
 20
108.7792250108142
 30
0.0
 11
27.23713859833833
 21
122.4284884083471
 31
0.0
  0
LINE
  5
1102
330
10AE
100
AcDbEntity
  8
7标注层
 62
     0
100
AcDbLine
 10
18.23713859833833
 20
120.4284884083471
 30
0.0
 11
14.23713859833833
 21
120.4284884083471
 31
0.0
  0
LINE
  5
1103
330
10AE
100
AcDbEntity
  8
7标注层
 62
     0
100
AcDbLine
 10
31.23713859833833
 20
120.4284884083471
 30
0.0
 11
44.50673974596918
 21
120.4284884083471
 31
0.0
  0
SOLID
  5
1104
330
10AE
100
AcDbEntity
  8
7标注层
 62
     0
100
AcDbTrace
 10
18.23713859833833
 20
121.0951550750138
 30
0.0
 11
18.23713859833833
 21
119.7618217416804
 31
0.0
 12
22.23713859833833
 22
120.4284884083471
 32
0.0
 13
22.23713859833833
 23
120.4284884083471
 33
0.0
  0
SOLID
  5
1105
330
10AE
100
AcDbEntity
  8
7标注层
 62
     0
100
AcDbTrace
 10
31.23713859833833
 20
121.0951550750138
 30
0.0
 11
31.23713859833833
 21
119.7618217416804
 31
0.0
 12
27.23713859833833
 22
120.4284884083471
 32
0.0
 13
27.23713859833833
 23
120.4284884083471
 33
0.0
  0
MTEXT
  5
1106
330
10AE
100
AcDbEntity
  8
7标注层
 62
     3
100
AcDbMText
 10
40.34597051519995
 20
123.2092576391163
 30
0.0
 40
2.5
 41
0.0
 71
     5
 72
     1
  1
\A1;5.00
  7
TH-GBD2M
  0
POINT
  5
1107
330
10AE
100
AcDbEntity
  8
DEFPOINTS
 62
     0
100
AcDbPoint
 10
22.23713859833833
 20
108.7279820228645
 30
0.0
  0
POINT
  5
1108
330
10AE
100
AcDbEntity
  8
DEFPOINTS
 62
     0
100
AcDbPoint
 10
27.23713859833833
 20
108.7792250108142
 30
0.0
  0
POINT
  5
1109
330
10AE
100
AcDbEntity
  8
DEFPOINTS
 62
     0
100
AcDbPoint
 10
27.23713859833833
 20
120.4284884083471
 30
0.0
  0
ENDBLK
  5
10B0
330
10AE
100
AcDbEntity
  8
0
100
AcDbBlockEnd
  0
BLOCK
  5
10BC
330
10BB
100
AcDbEntity
  8
0
100
AcDbBlockBegin
  2
*D89
 70
     1
 10
0.0
 20
0.0
 30
0.0
  3
*D89
  1

  0
LINE
  5
110A
330
10BB
100
AcDbEntity
  8
7标注层
 62
     0
100
AcDbLine
 10
66.0510419954494
 20
150.3462163107589
 30
0.0
 11
66.0510419954494
 21
172.13983436316
 31
0.0
  0
LINE
  5
110B
330
10BB
100
AcDbEntity
  8
7标注层
 62
     0
100
AcDbLine
 10
75.05111131870535
 20
150.3462163107589
 30
0.0
 11
75.05111131870535
 21
172.13983436316
 31
0.0
  0
LINE
  5
110C
330
10BB
100
AcDbEntity
  8
7标注层
 62
     0
100
AcDbLine
 10
62.0510419954494
 20
170.13983436316
 30
0.0
 11
58.0510419954494
 21
170.13983436316
 31
0.0
  0
LINE
  5
110D
330
10BB
100
AcDbEntity
  8
7标注层
 62
     0
100
AcDbLine
 10
79.05111131870535
 20
170.13983436316
 30
0.0
 11
98.55726516485934
 21
170.13983436316
 31
0.0
  0
SOLID
  5
110E
330
10BB
100
AcDbEntity
  8
7标注层
 62
     0
100
AcDbTrace
 10
62.0510419954494
 20
170.8065010298267
 30
0.0
 11
62.0510419954494
 21
169.4731676964934
 31
0.0
 12
66.0510419954494
 22
170.13983436316
 32
0.0
 13
66.0510419954494
 23
170.13983436316
 33
0.0
  0
SOLID
  5
110F
330
10BB
100
AcDbEntity
  8
7标注层
 62
     0
100
AcDbTrace
 10
79.05111131870535
 20
170.8065010298267
 30
0.0
 11
79.05111131870535
 21
169.4731676964934
 31
0.0
 12
75.05111131870535
 22
170.13983436316
 32
0.0
 13
75.05111131870535
 23
170.13983436316
 33
0.0
  0
MTEXT
  5
1110
330
10BB
100
AcDbEntity
  8
7标注层
 62
     3
100
AcDbMText
 10
90.80418824178241
 20
172.9206035939293
 30
0.0
 40
2.5
 41
0.0
 71
     5
 72
     1
  1
\A1;9.00%%p0.20
  7
TH-GBD2M
  0
POINT
  5
1111
330
10BB
100
AcDbEntity
  8
DEFPOINTS
 62
     0
100
AcDbPoint
 10
66.0510419954494
 20
150.3462163107589
 30
0.0
  0
POINT
  5
1112
330
10BB
100
AcDbEntity
  8
DEFPOINTS
 62
     0
100
AcDbPoint
 10
75.05111131870535
 20
150.3462163107589
 30
0.0
  0
POINT
  5
1113
330
10BB
100
AcDbEntity
  8
DEFPOINTS
 62
     0
100
AcDbPoint
 10
75.05111131870535
 20
170.13983436316
 30
0.0
  0
ENDBLK
  5
10BD
330
10BB
100
AcDbEntity
  8
0
100
AcDbBlockEnd
  0
BLOCK
  5
10C9
330
10C8
100
AcDbEntity
  8
0
100
AcDbBlockBegin
  2
*D90
 70
     1
 10
0.0
 20
0.0
 30
0.0
  3
*D90
  1

  0
LINE
  5
1114
330
10C8
100
AcDbEntity
  8
7标注层
 62
     0
100
AcDbLine
 10
66.0510419954494
 20
137.8462163107589
 30
0.0
 11
66.0510419954494
 21
130.7416975359453
 31
0.0
  0
LINE
  5
1115
330
10C8
100
AcDbEntity
  8
7标注层
 62
     0
100
AcDbLine
 10
75.31157178840431
 20
137.8462163107587
 30
0.0
 11
75.31157178840431
 21
130.7416975359453
 31
0.0
  0
LINE
  5
1116
330
10C8
100
AcDbEntity
  8
7标注层
 62
     0
100
AcDbLine
 10
62.0510419954494
 20
132.7416975359453
 30
0.0
 11
58.0510419954494
 21
132.7416975359453
 31
0.0
  0
LINE
  5
1117
330
10C8
100
AcDbEntity
  8
7标注层
 62
     0
100
AcDbLine
 10
79.31157178840431
 20
132.7416975359453
 30
0.0
 11
83.31157178840431
 21
132.7416975359453
 31
0.0
  0
SOLID
  5
1118
330
10C8
100
AcDbEntity
  8
7标注层
 62
     0
100
AcDbTrace
 10
62.0510419954494
 20
133.4083642026119
 30
0.0
 11
62.0510419954494
 21
132.0750308692786
 31
0.0
 12
66.0510419954494
 22
132.7416975359453
 32
0.0
 13
66.0510419954494
 23
132.7416975359453
 33
0.0
  0
SOLID
  5
1119
330
10C8
100
AcDbEntity
  8
7标注层
 62
     0
100
AcDbTrace
 10
79.31157178840431
 20
133.4083642026119
 30
0.0
 11
79.31157178840431
 21
132.0750308692786
 31
0.0
 12
75.31157178840431
 22
132.7416975359453
 32
0.0
 13
75.31157178840431
 23
132.7416975359453
 33
0.0
  0
MTEXT
  5
111A
330
10C8
100
AcDbEntity
  8
7标注层
 62
     3
100
AcDbMText
 10
70.68130689192685
 20
135.5224667667145
 30
0.0
 40
2.5
 41
0.0
 71
     5
 72
     1
  1
\A1;9.26
  7
TH-GBD2M
  0
POINT
  5
111B
330
10C8
100
AcDbEntity
  8
DEFPOINTS
 62
     0
100
AcDbPoint
 10
66.0510419954494
 20
137.8462163107589
 30
0.0
  0
POINT
  5
111C
330
10C8
100
AcDbEntity
  8
DEFPOINTS
 62
     0
100
AcDbPoint
 10
75.31157178840431
 20
137.8462163107587
 30
0.0
  0
POINT
  5
111D
330
10C8
100
AcDbEntity
  8
DEFPOINTS
 62
     0
100
AcDbPoint
 10
75.31157178840431
 20
132.7416975359453
 30
0.0
  0
ENDBLK
  5
10CA
330
10C8
100
AcDbEntity
  8
0
100
AcDbBlockEnd
  0
ENDSEC
  0
SECTION
  2
ENTITIES
  0
LINE
  5
FDE
330
1F
100
AcDbEntity
  8
6文字层
 62
     0
100
AcDbLine
 10
-5.716137636844906
 20
8.0498235633994
 30
0.0
 11
-125.7161376368958
 21
8.0498235633994
 31
0.0
  0
INSERT
  5
FDF
330
1F
100
AcDbEntity
  8
6文字层
100
AcDbBlockReference
  2
*X70
 10
-4.216137636844906
 20
103.0498235634012
 30
0.0
1001
CAXA_DRAFT_PAPERFRAME
1071
        2
1041
138.5
1041
-95.0
1041
0.0
1000
A4A-D-Sighted(CHS)
1070
     1
1001
CAXA_DRAFT_BLKHIDE
1070
     0
  0
LINE
  5
FE0
330
1F
100
AcDbEntity
  8
1轮廓实线层
100
AcDbLine
 10
-5.716137636844906
 20
8.0498235633994
 30
0.0
 11
134.2838623631551
 21
8.0498235633994
 31
0.0
  0
LINE
  5
FE1
330
1F
100
AcDbEntity
  8
粗实线层
100
AcDbLine
 10
29.28420933455436
 20
13.89083119714985
 30
0.0
 11
134.2838623631551
 21
13.89083119715622
 31
0.0
  0
LINE
  5
FE2
330
1F
100
AcDbEntity
  8
细实线层
100
AcDbLine
 10
124.0400077171626
 20
13.89083119715622
 30
0.0
 11
124.0400077171626
 21
8.0498235633994
 31
0.0
  0
LINE
  5
FE3
330
1F
100
AcDbEntity
  8
细实线层
100
AcDbLine
 10
121.1525077171636
 20
10.97032738027781
 30
0.0
 11
127.7150077171636
 21
10.97032738027781
 31
0.0
  0
CIRCLE
  5
FE4
330
1F
100
AcDbEntity
  8
细实线层
100
AcDbCircle
 10
124.0400077171626
 20
10.97032738027781
 30
0.0
 40
2.187499999999943
  0
CIRCLE
  5
FE5
330
1F
100
AcDbEntity
  8
细实线层
100
AcDbCircle
 10
124.0400077171626
 20
10.97032738027781
 30
0.0
 40
0.6562499999999829
  0
LINE
  5
FE6
330
1F
100
AcDbEntity
  8
3中心线层
 62
     7
 48
0.1
100
AcDbLine
 10
112.428426505784
 20
10.97032738027781
 30
0.0
 11
121.1525077171636
 21
10.97032738027781
 31
0.0
  0
LINE
  5
FE7
330
1F
100
AcDbEntity
  8
3中心线层
 62
     7
100
AcDbLine
 10
113.5789583551732
 20
10.64220238027781
 30
0.0
 11
113.5789583551732
 21
11.29845238027508
 31
0.0
  0
LINE
  5
FE8
330
1F
100
AcDbEntity
  8
3中心线层
 62
     7
100
AcDbLine
 10
119.7039583551732
 20
8.782827380277809
 30
0.0
 11
119.7039583551732
 21
13.15782738027599
 31
0.0
  0
LINE
  5
FE9
330
1F
100
AcDbEntity
  8
细实线层
100
AcDbLine
 10
113.5789583551732
 20
11.29845238027508
 30
0.0
 11
119.7039583551732
 21
13.15782738027599
 31
0.0
  0
LINE
  5
FEA
330
1F
100
AcDbEntity
  8
细实线层
100
AcDbLine
 10
113.5789583551732
 20
10.64220238027781
 30
0.0
 11
119.7039583551732
 21
8.782827380277809
 31
0.0
  0
LINE
  5
FEB
330
1F
100
AcDbEntity
  8
粗实线层
100
AcDbLine
 10
29.28420933455436
 20
24.38315689673061
 30
0.0
 11
134.2838623631551
 21
24.38315689673425
 31
0.0
  0
LINE
  5
FEC
330
1F
100
AcDbEntity
  8
粗实线层
100
AcDbLine
 10
29.28420933455436
 20
38.04982356340031
 30
0.0
 11
134.2838623631551
 21
38.04982356340122
 31
0.0
  0
MTEXT
  5
FED
330
1F
100
AcDbEntity
  8
6文字层
100
AcDbMText
 10
41.4632977420124
 20
19.18526086245754
 30
0.0
 40
2.5
 41
17.84855769230755
 71
     5
 72
     5
  1
{\fSimHei|b1|i0|c134|p49;名称 }
1001
ACDBBLOCKREPETAG
1000

1001
ACAD
1000
ACAD_MTEXT_DEFINED_HEIGHT_BEGIN
1070
    46
1040
4.283653846153733
1000
ACAD_MTEXT_DEFINED_HEIGHT_END
  0
MTEXT
  5
FEE
330
1F
100
AcDbEntity
  8
6文字层
100
AcDbMText
 10
105.7086369652834
 20
31.38865751096262
 30
0.0
 40
3.0
 41
63.12269194006068
 71
     5
 72
     5
  1
{\fSimHei|b1|i0|c134|p49;联合光科技（北京）有限公司}
1001
ACDBBLOCKREPETAG
1000

1001
ACAD
1000
ACAD_MTEXT_DEFINED_HEIGHT_BEGIN
1070
    46
1040
3.808394365490182
1000
ACAD_MTEXT_DEFINED_HEIGHT_END
  0
MTEXT
  5
FEF
330
1F
100
AcDbEntity
  8
6文字层
100
AcDbMText
 10
41.6571439660338
 20
11.03916427600495
 30
0.0
 40
2.5
 41
17.84855769230755
 71
     5
 72
     5
  1
{\fSimHei|b1|i0|c134|p49;产品编号} 
1001
ACDBBLOCKREPETAG
1000

1001
ACAD
1000
ACAD_MTEXT_DEFINED_HEIGHT_BEGIN
1070
    46
1040
4.283653846153733
1000
ACAD_MTEXT_DEFINED_HEIGHT_END
  0
MTEXT
  5
FF0
330
1F
100
AcDbEntity
  8
6文字层
100
AcDbMText
 10
100.7154998326341
 20
11.19325756906335
 30
0.0
 40
2.5
 41
17.84855769230755
 71
     5
 72
     5
  1
{\fSimHei|b1|i0|c134|p49;mm }
1001
ACDBBLOCKREPETAG
1000

1001
ACAD
1000
ACAD_MTEXT_DEFINED_HEIGHT_BEGIN
1070
    46
1040
4.283653846153733
1000
ACAD_MTEXT_DEFINED_HEIGHT_END
  0
LINE
  5
FF1
330
1F
100
AcDbEntity
  8
粗实线层
100
AcDbLine
 10
29.28420933455436
 20
7.990920306668954
 30
0.0
 11
29.28420933455436
 21
37.99092030665804
 31
0.0
  0
LINE
  5
FF2
330
1F
100
AcDbEntity
  8
粗实线层
100
AcDbLine
 10
54.04419522768421
 20
8.0498235633994
 30
0.0
 11
54.04419522768421
 21
24.38315689672515
 31
0.0
  0
LINE
  5
FF3
330
1F
100
AcDbEntity
  8
粗实线层
100
AcDbLine
 10
76.91975813190493
 20
24.47834591047274
 30
0.0
 11
76.91975813190493
 21
38.04982356340122
 31
0.0
  0
LINE
  5
FF4
330
1F
100
AcDbEntity
  8
粗实线层
100
AcDbLine
 10
76.91975813190493
 20
8.049823563393034
 30
0.0
 11
76.91975813189401
 21
13.89083119714621
 31
0.0
  0
MTEXT
  5
FF5
330
1F
100
AcDbEntity
  8
6文字层
100
AcDbMText
 10
85.48112170269542
 20
10.87868136944223
 30
0.0
 40
2.5
 41
17.84855769230755
 71
     5
 72
     5
  1
{\fSimHei|b1|i0|c134|p49;单位}
1001
ACAD
1000
ACAD_MTEXT_DEFINED_HEIGHT_BEGIN
1070
    46
1040
3.291666666666666
1000
ACAD_MTEXT_DEFINED_HEIGHT_END
  0
LINE
  5
FF6
330
1F
100
AcDbEntity
  8
粗实线层
100
AcDbLine
 10
94.02401553809341
 20
8.0498235633994
 30
0.0
 11
94.02401553809341
 21
13.89083119715349
 31
0.0
  0
LINE
  5
FF7
330
1F
100
AcDbEntity
  8
粗实线层
100
AcDbLine
 10
106.5890282587034
 20
8.0498235633994
 30
0.0
 11
106.5890282587034
 21
13.89083119715349
 31
0.0
  0
LINE
  5
FF8
330
1F
100
AcDbEntity
  8
0
100
AcDbLine
 10
134.2838623631551
 20
8.0498235633994
 30
0.0
 11
34.28386236315509
 21
8.0498235633994
 31
0.0
  0
HATCH
  5
FF9
330
1F
100
AcDbEntity
  8
3中心线层
 62
     0
100
AcDbHatch
 10
0.0
 20
0.0
 30
0.0
210
0.0
220
0.0
230
1.0
  2
SOLID
 70
     1
 71
     0
 91
       14
 92
        5
 93
        5
 72
     4
 94
        3
 73
     0
 74
     0
 95
        8
 96
        4
 40
7.0
 40
7.0
 40
7.0
 40
7.0
 40
8.0
 40
8.0
 40
8.0
 40
8.0
 10
39.94572116064501
 20
34.30052554244946
 10
39.94572116064501
 20
35.11439706588214
 10
39.28594739110395
 20
35.77417438033615
 10
38.47207232275377
 20
35.77417438033615
 72
     4
 94
        3
 73
     0
 74
     0
 95
        8
 96
        4
 40
0.0
 40
0.0
 40
0.0
 40
0.0
 40
1.0
 40
1.0
 40
1.0
 40
1.0
 10
38.47207232275377
 20
35.77417438033615
 10
38.47207232275377
 20
35.77417438033615
 10
32.8230868832934
 20
35.77417438033615
 10
32.8230868832934
 20
35.77417438033615
 72
     4
 94
        3
 73
     0
 74
     0
 95
       11
 96
        7
 40
1.0
 40
1.0
 40
1.0
 40
1.0
 40
2.0
 40
2.0
 40
2.0
 40
3.0
 40
3.0
 40
3.0
 40
3.0
 10
32.8230868832934
 20
35.77417438033615
 10
32.00921535985344
 20
35.77417438033615
 10
31.34944159031238
 20
35.11439706588214
 10
31.34944159031238
 20
34.30052554244946
 10
31.34944159031238
 20
34.30052554244946
 10
31.34944159031238
 20
28.65154010299455
 10
31.34944159031238
 20
28.65154010299455
 72
     4
 94
        3
 73
     0
 74
     0
 95
       11
 96
        7
 40
3.0
 40
3.0
 40
3.0
 40
3.0
 40
4.0
 40
4.0
 40
4.0
 40
5.0
 40
5.0
 40
5.0
 40
5.0
 10
31.34944159031238
 20
28.65154010299455
 10
31.34944159031238
 20
27.83766503463437
 10
32.00921535985344
 20
27.17789126510422
 10
32.8230868832934
 20
27.17789126510422
 10
32.8230868832934
 20
27.17789126510422
 10
38.47207232275377
 20
27.17789126510422
 10
38.47207232275377
 20
27.17789126510422
 72
     4
 94
        3
 73
     0
 74
     0
 95
       11
 96
        7
 40
5.0
 40
5.0
 40
5.0
 40
5.0
 40
6.0
 40
6.0
 40
6.0
 40
7.0
 40
7.0
 40
7.0
 40
7.0
 10
38.47207232275377
 20
27.17789126510422
 10
39.28594739110395
 20
27.17789126510422
 10
39.94572116064501
 20
27.83766503463437
 10
39.94572116064501
 20
28.65154010299455
 10
39.94572116064501
 20
28.65154010299455
 10
39.94572116064501
 20
34.30052554244946
 10
39.94572116064501
 20
34.30052554244946
 97
        0
 92
       20
 93
       12
 72
     4
 94
        3
 73
     0
 74
     0
 95
        8
 96
        4
 40
10.0
 40
10.0
 40
10.0
 40
10.0
 40
11.0
 40
11.0
 40
11.0
 40
11.0
 10
32.2090674204037
 20
31.47603105025962
 10
32.2090674204037
 20
33.37506696822663
 10
33.74856672704391
 20
34.91454500533644
 10
35.64759910009616
 20
34.91454500533644
 72
     4
 94
        3
 73
     0
 74
     0
 95
        8
 96
        4
 40
11.0
 40
11.0
 40
11.0
 40
11.0
 40
12.0
 40
12.0
 40
12.0
 40
12.0
 10
35.64759910009616
 20
34.91454500533644
 10
37.54662792821273
 20
34.91454500533644
 10
39.08609178564529
 20
33.37506696822663
 10
39.08609178564529
 20
31.47603105025962
 72
     4
 94
        3
 73
     0
 74
     0
 95
        8
 96
        4
 40
12.0
 40
12.0
 40
12.0
 40
12.0
 40
13.0
 40
13.0
 40
13.0
 40
13.0
 10
39.08609178564529
 20
31.47603105025962
 10
39.08609178564529
 20
29.57699158737148
 10
37.54662792821273
 20
28.03751709517735
 10
35.64759910009616
 20
28.03751709517735
 72
     4
 94
        3
 73
     0
 74
     0
 95
        8
 96
        4
 40
0.0
 40
0.0
 40
0.0
 40
0.0
 40
1.0
 40
1.0
 40
1.0
 40
1.0
 10
35.64759910009616
 20
28.03751709517735
 10
35.37850762548351
 20
28.03751709517735
 10
35.11709090672321
 20
28.06955255416403
 10
34.86589419775464
 20
28.12824937057383
 72
     4
 94
        3
 73
     0
 74
     0
 95
        8
 96
        4
 40
1.0
 40
1.0
 40
1.0
 40
1.0
 40
2.0
 40
2.0
 40
2.0
 40
2.0
 10
34.86589419775464
 20
28.12824937057383
 10
35.18949948095451
 20
28.34939932174609
 10
35.40197146337505
 20
28.72121554244848
 10
35.40197146337505
 20
29.14275638228889
 72
     4
 94
        3
 73
     0
 74
     0
 95
        8
 96
        4
 40
2.0
 40
2.0
 40
2.0
 40
2.0
 40
3.0
 40
3.0
 40
3.0
 40
3.0
 10
35.40197146337505
 20
29.14275638228889
 10
35.40197146337505
 20
29.23351701705622
 10
35.39183298681473
 20
29.32186710494523
 10
35.37315124852375
 20
29.40701967330722
 72
     4
 94
        3
 73
     0
 74
     0
 95
        8
 96
        4
 40
3.0
 40
3.0
 40
3.0
 40
3.0
 40
4.0
 40
4.0
 40
4.0
 40
4.0
 10
35.37315124852375
 20
29.40701967330722
 10
35.46300438329399
 20
29.39511582565126
 10
35.55448463720404
 20
29.38836274947778
 10
35.6475920102539
 20
29.38836274947778
 72
     4
 94
        3
 73
     0
 74
     0
 95
        8
 96
        4
 40
4.0
 40
4.0
 40
4.0
 40
4.0
 40
5.0
 40
5.0
 40
5.0
 40
5.0
 10
35.6475920102539
 20
29.38836274947778
 10
36.80057430516445
 20
29.38836274947778
 10
37.73524967626236
 20
30.32304166549136
 10
37.73524967626236
 20
31.47603105025962
 72
     4
 94
        3
 73
     0
 74
     0
 95
       11
 96
        7
 40
5.0
 40
5.0
 40
5.0
 40
5.0
 40
6.0
 40
6.0
 40
6.0
 40
7.0
 40
7.0
 40
7.0
 40
7.0
 10
37.73524967626236
 20
31.47603105025962
 10
37.73524967626236
 20
32.62901689010221
 10
36.80057430516445
 20
33.56369935103783
 10
35.6475920102539
 20
33.56369935103783
 10
34.49460971532517
 20
33.56369935103783
 10
33.55991307469503
 20
32.62901689010221
 10
33.55991307469503
 20
31.47603105025962
 72
     4
 94
        3
 73
     0
 74
     0
 95
        8
 96
        4
 40
7.0
 40
7.0
 40
7.0
 40
7.0
 40
8.0
 40
8.0
 40
8.0
 40
8.0
 10
33.55991307469503
 20
31.47603105025962
 10
33.55991307469503
 20
31.05655335494782
 10
33.68397825048396
 20
30.66621491744797
 10
33.89692879735321
 20
30.33903635299146
 72
     4
 94
        3
 73
     0
 74
     0
 95
        8
 96
        4
 40
8.0
 40
8.0
 40
8.0
 40
8.0
 40
9.0
 40
9.0
 40
9.0
 40
9.0
 10
33.89692879735321
 20
30.33903635299146
 10
33.41242305516334
 20
30.22726851120012
 10
33.03747666845538
 20
29.82917023971265
 10
32.96049160008351
 20
29.33228563033651
 72
     4
 94
        3
 73
     0
 74
     0
 95
        8
 96
        4
 40
9.0
 40
9.0
 40
9.0
 40
9.0
 40
10.0
 40
10.0
 40
10.0
 40
10.0
 10
32.96049160008351
 20
29.33228563033651
 10
32.49070437353384
 20
29.92018965377781
 10
32.2090674204037
 20
30.66496001510393
 10
32.2090674204037
 20
31.47603105025962
 97
        0
 92
       20
 93
        1
 72
     4
 94
        3
 73
     0
 74
     0
 95
       17
 96
       13
 40
0.0
 40
0.0
 40
0.0
 40
0.0
 40
1.0
 40
1.0
 40
1.0
 40
2.0
 40
2.0
 40
2.0
 40
3.0
 40
3.0
 40
3.0
 40
4.0
 40
4.0
 40
4.0
 40
4.0
 10
34.05112935399393
 20
31.47603105025962
 10
34.05112935399393
 20
32.3577275639326
 10
34.76589549658183
 20
33.07248661666642
 10
35.64758846533277
 20
33.07248661666642
 10
36.52928143407462
 20
33.07248661666642
 10
37.24403339696346
 20
32.3577275639326
 10
37.24403339696346
 20
31.47603105025962
 10
37.24403339696346
 20
30.59433453658664
 10
36.52928143407462
 20
29.87957902877758
 10
35.64758846533277
 20
29.87957902877758
 10
34.76589549658183
 20
29.87957902877758
 10
34.05112935399393
 20
30.59433453658664
 10
34.05112935399393
 20
31.47603105025962
 97
        0
 92
       20
 93
        3
 72
     4
 94
        3
 73
     0
 74
     0
 95
       11
 96
        7
 40
1.0
 40
1.0
 40
1.0
 40
1.0
 40
2.0
 40
2.0
 40
2.0
 40
3.0
 40
3.0
 40
3.0
 40
3.0
 10
33.31430316259593
 20
29.14275638228889
 10
33.31430316259593
 20
29.61751358932258
 10
33.69917887548308
 20
30.00238221237203
 10
34.17393608251314
 20
30.00238221237203
 10
34.6486932895541
 20
30.00238221237203
 10
35.03355836766332
 20
29.61751358932258
 10
35.03355836766332
 20
29.14275638228889
 72
     4
 94
        3
 73
     0
 74
     0
 95
        8
 96
        4
 40
3.0
 40
3.0
 40
3.0
 40
3.0
 40
4.0
 40
4.0
 40
4.0
 40
4.0
 10
35.03355836766332
 20
29.14275638228889
 10
35.03355836766332
 20
28.66799563033953
 10
34.6486932895541
 20
28.28312700729282
 10
34.17393608251314
 20
28.28312700729282
 72
     4
 94
        3
 73
     0
 74
     0
 95
        8
 96
        4
 40
0.0
 40
0.0
 40
0.0
 40
0.0
 40
1.0
 40
1.0
 40
1.0
 40
1.0
 10
34.17393608251314
 20
28.28312700729282
 10
33.69917887548308
 20
28.28312700729282
 10
33.31430316259593
 20
28.66799563033953
 10
33.31430316259593
 20
29.14275638228889
 97
        0
 92
        5
 93
       33
 72
     4
 94
        3
 73
     0
 74
     0
 95
       11
 96
        7
 40
5.0
 40
5.0
 40
5.0
 40
5.0
 40
6.0
 40
6.0
 40
6.0
 40
7.0
 40
7.0
 40
7.0
 40
7.0
 10
44.71661303934434
 20
32.37485049348277
 10
44.71661303934434
 20
32.37485049348277
 10
45.5400067994824
 20
32.37485049348277
 10
45.5400067994824
 20
32.37485049348277
 10
45.41175594949436
 20
33.48500638316625
 10
44.52760740644499
 20
34.05732422588142
 10
43.47476030859343
 20
34.05732422588142
 72
     4
 94
        3
 73
     0
 74
     0
 95
        8
 96
        4
 40
4.0
 40
4.0
 40
4.0
 40
4.0
 40
5.0
 40
5.0
 40
5.0
 40
5.0
 10
43.47476030859343
 20
34.05732422588142
 10
42.03046098951108
 20
34.05732422588142
 10
41.16657791172383
 20
32.88509620082357
 10
41.16657791172383
 20
31.47843957681823
 72
     4
 94
        3
 73
     0
 74
     0
 95
        8
 96
        4
 40
3.0
 40
3.0
 40
3.0
 40
3.0
 40
4.0
 40
4.0
 40
4.0
 40
4.0
 10
41.16657791172383
 20
31.47843957681823
 10
41.16657791172383
 20
30.07176169522506
 10
42.03046098951108
 20
28.89955492774868
 10
43.47476030859343
 20
28.89955492774868
 72
     4
 94
        3
 73
     0
 74
     0
 95
        8
 96
        4
 40
2.0
 40
2.0
 40
2.0
 40
2.0
 40
3.0
 40
3.0
 40
3.0
 40
3.0
 10
43.47476030859343
 20
28.89955492774868
 10
44.06191783400482
 20
28.89955492774868
 10
44.47363552051229
 20
29.07193264889963
 10
44.9258009118048
 20
29.59599578363657
 72
     4
 94
        3
 73
     0
 74
     0
 95
       11
 96
        7
 40
0.5
 40
0.5
 40
0.5
 40
0.5
 40
1.5
 40
1.5
 40
1.5
 40
2.0
 40
2.0
 40
2.0
 40
2.0
 10
44.9258009118048
 20
29.59599578363657
 10
44.9258009118048
 20
29.59599578363657
 10
45.05405176179465
 20
29.01676922722424
 10
45.05405176179465
 20
29.01676922722424
 10
45.05405176179465
 20
29.01676922722424
 10
45.18903349270204
 20
29.01676922722424
 10
45.32401522361306
 20
29.01676922722424
 72
     4
 94
        3
 73
     0
 74
     0
 95
       11
 96
        7
 40
14.749965
 40
14.749965
 40
14.749965
 40
14.749965
 40
15.249965
 40
15.249965
 40
15.249965
 40
15.5
 40
15.5
 40
15.5
 40
15.5
 10
45.32401522361306
 20
29.01676922722424
 10
45.45899695450407
 20
29.01676922722424
 10
45.59397868540236
 20
29.01676922722424
 10
45.59397868540236
 20
29.01676922722424
 10
45.59397868540236
 20
29.01676922722424
 10
45.59397868540236
 20
29.17885715349519
 10
45.59397868540236
 20
29.42197769674101
 72
     4
 94
        3
 73
     0
 74
     0
 95
        8
 96
        4
 40
14.49997
 40
14.49997
 40
14.49997
 40
14.49997
 40
14.749965
 40
14.749965
 40
14.749965
 40
14.749965
 10
45.59397868540236
 20
29.42197769674101
 10
45.59397868540236
 20
29.66505934615441
 10
45.59397868540236
 20
29.98914768780821
 10
45.59397868540236
 20
30.31322630729744
 72
     4
 94
        3
 73
     0
 74
     0
 95
        8
 96
        4
 40
14.3749725
 40
14.3749725
 40
14.3749725
 40
14.3749725
 40
14.49997
 40
14.49997
 40
14.49997
 40
14.49997
 10
45.59397868540236
 20
30.31322630729744
 10
45.59397868540236
 20
30.47526561704387
 10
45.59397868540236
 20
30.63730249625394
 10
45.59397868540236
 20
30.78920989311325
 72
     4
 94
        3
 73
     0
 74
     0
 95
        8
 96
        4
 40
14.18747625
 40
14.18747625
 40
14.18747625
 40
14.18747625
 40
14.3749725
 40
14.3749725
 40
14.3749725
 40
14.3749725
 10
45.59397868540236
 20
30.78920989311325
 10
45.59397868540236
 20
31.01707098840586
 10
45.59397868540236
 20
31.22214074842839
 10
45.59397868540236
 20
31.37024037335038
 72
     4
 94
        3
 73
     0
 74
     0
 95
        8
 96
        4
 40
14.1249775
 40
14.1249775
 40
14.1249775
 40
14.1249775
 40
14.18747625
 40
14.18747625
 40
14.18747625
 40
14.18747625
 10
45.59397868540236
 20
31.37024037335038
 10
45.59397868540236
 20
31.41960691499469
 10
45.59397868540236
 20
31.46264344162671
 10
45.59397868540236
 20
31.49808407176704
 72
     4
 94
        3
 73
     0
 74
     0
 95
        8
 96
        4
 40
14.093728125
 40
14.093728125
 40
14.093728125
 40
14.093728125
 40
14.1249775
 40
14.1249775
 40
14.1249775
 40
14.1249775
 10
45.59397868540236
 20
31.49808407176704
 10
45.59397868540236
 20
31.51580438684221
 10
45.59397868540236
 20
31.53162572778717
 10
45.59397868540236
 20
31.5453898594368
 72
     4
 94
        3
 73
     0
 74
     0
 95
        8
 96
        4
 40
14.06247875
 40
14.06247875
 40
14.06247875
 40
14.06247875
 40
14.093728125
 40
14.093728125
 40
14.093728125
 40
14.093728125
 10
45.59397868540236
 20
31.5453898594368
 10
45.59397868540236
 20
31.55915399107732
 10
45.59397868540236
 20
31.57086091341705
 10
45.59397868540236
 20
31.58035239126536
 72
     4
 94
        3
 73
     0
 74
     0
 95
       11
 96
        7
 40
13.99997958222998
 40
13.99997958222998
 40
13.99997958222998
 40
13.99997958222998
 40
14.0
 40
14.0
 40
14.0
 40
14.00071240722656
 40
14.00071240722656
 40
14.00071240722656
 40
14.00071240722656
 10
45.59397868284486
 20
31.60945004610301
 10
45.59397868455289
 20
31.60945004610301
 10
45.59397868540236
 20
31.60945004610301
 10
45.59397868540236
 20
31.60945004610301
 10
45.59397868540236
 20
31.60945004610301
 10
45.59397868540236
 20
31.60944873025971
 10
45.59397868540236
 20
31.6094461004385
 72
     4
 94
        3
 73
     0
 74
     0
 95
        8
 96
        4
 40
13.49999
 40
13.49999
 40
13.49999
 40
13.49999
 40
13.99997958222998
 40
13.99997958222998
 40
13.99997958222998
 40
13.99997958222998
 10
45.59397868284486
 20
31.60945004610301
 10
45.59393679297409
 20
31.60945004610301
 10
45.08100664474387
 20
31.60945004610301
 10
44.56808675469529
 20
31.60945004610301
 72
     4
 94
        3
 73
     0
 74
     0
 95
       11
 96
        7
 40
12.99902343580856
 40
12.99902343580856
 40
12.99902343580856
 40
12.99902343580856
 40
13.49901343580856
 40
13.49901343580856
 40
13.49901343580856
 40
13.49999
 40
13.49999
 40
13.49999
 40
13.49999
 10
44.56808675469529
 20
31.60945004610301
 10
44.05516643607461
 20
31.60945004610301
 10
43.54225637565378
 20
31.60945004610301
 10
43.54225637565378
 20
31.60945004610301
 10
43.54225637565378
 20
31.60945004610301
 10
43.54225637565378
 20
31.60944942137473
 10
43.54225637565378
 20
31.60944817313509
 72
     4
 94
        3
 73
     0
 74
     0
 95
        8
 96
        4
 40
12.906251875
 40
12.906251875
 40
12.906251875
 40
12.906251875
 40
12.93750125
 40
12.93750125
 40
12.93750125
 40
12.93750125
 10
43.54225637565378
 20
31.60209355033646
 10
43.54225637565378
 20
31.59969469190753
 10
43.54225637565378
 20
31.59673609899608
 10
43.54225637565378
 20
31.59325775171044
 72
     4
 94
        3
 73
     0
 74
     0
 95
        8
 96
        4
 40
12.81250375
 40
12.81250375
 40
12.81250375
 40
12.81250375
 40
12.8750024998249
 40
12.8750024998249
 40
12.8750024998249
 40
12.8750024998249
 10
43.54225637565378
 20
31.58130342683023
 10
43.54225637565378
 20
31.57234767506441
 10
43.54225637565378
 20
31.56147282633071
 10
43.54225637565378
 20
31.54899872160411
 72
     4
 94
        3
 73
     0
 74
     0
 95
        8
 96
        4
 40
12.75000499991749
 40
12.75000499991749
 40
12.75000499991749
 40
12.75000499991749
 40
12.81250375
 40
12.81250375
 40
12.81250375
 40
12.81250375
 10
43.54225637565378
 20
31.54899872160411
 10
43.54225637565378
 20
31.53652461681838
 10
43.54225637565378
 20
31.52245125602246
 10
43.54225637565378
 20
31.50709848018039
 72
     4
 94
        3
 73
     0
 74
     0
 95
        8
 96
        4
 40
12.6250075
 40
12.6250075
 40
12.6250075
 40
12.6250075
 40
12.75000499991749
 40
12.75000499991749
 40
12.75000499991749
 40
12.75000499991749
 10
43.54225637565378
 20
31.50709848018039
 10
43.54225637565378
 20
31.47639292855354
 10
43.54225637565378
 20
31.44056971676116
 10
43.54225637565378
 20
31.40218757253194
 72
     4
 94
        3
 73
     0
 74
     0
 95
        8
 96
        4
 40
12.50000999999212
 40
12.50000999999212
 40
12.50000999999212
 40
12.50000999999212
 40
12.6250075
 40
12.6250075
 40
12.6250075
 40
12.6250075
 10
43.54225637565378
 20
31.40218757253194
 10
43.54225637565378
 20
31.36380542827817
 10
43.54225637565378
 20
31.3228643515921
 10
43.54225637565378
 20
31.28192307018696
 72
     4
 94
        3
 73
     0
 74
     0
 95
        8
 96
        4
 40
12.250015
 40
12.250015
 40
12.250015
 40
12.250015
 40
12.50000999999212
 40
12.50000999999212
 40
12.50000999999212
 40
12.50000999999212
 10
43.54225637565378
 20
31.28192307018696
 10
43.54225637565378
 20
31.20004050740488
 10
43.54225637565378
 20
31.11815712581199
 10
43.54225637565378
 20
31.05674274729779
 72
     4
 94
        3
 73
     0
 74
     0
 95
       11
 96
        7
 40
11.99928759277344
 40
11.99928759277344
 40
11.99928759277344
 40
11.99928759277344
 40
12.24930259277344
 40
12.24930259277344
 40
12.24930259277344
 40
12.250015
 40
12.250015
 40
12.250015
 40
12.250015
 10
43.54225637565378
 20
31.05674274729779
 10
43.54225637565378
 20
30.99532345553496
 10
43.54225637565378
 20
30.95437644208312
 10
43.54225637565378
 20
30.95437644208312
 10
43.54225637565378
 20
30.95437644208312
 10
43.54225702646272
 20
30.95437644208312
 10
43.54225832718203
 20
30.95437644208312
 72
     4
 94
        3
 73
     0
 74
     0
 95
        8
 96
        4
 40
11.906271875
 40
11.906271875
 40
11.906271875
 40
11.906271875
 40
11.93752124974706
 40
11.93752124974706
 40
11.93752124974706
 40
11.93752124974706
 10
43.5566480995958
 20
30.95437644208312
 10
43.56134259225382
 20
30.95437644208312
 10
43.56713284555462
 20
30.95437644208312
 10
43.57394059625312
 20
30.95437644208312
 72
     4
 94
        3
 73
     0
 74
     0
 95
        8
 96
        4
 40
11.8750225
 40
11.8750225
 40
11.8750225
 40
11.8750225
 40
11.906271875
 40
11.906271875
 40
11.906271875
 40
11.906271875
 10
43.57394059625312
 20
30.95437644208312
 10
43.58074834698255
 20
30.95437644208312
 10
43.58857359513513
 20
30.95437644208312
 10
43.59733807742396
 20
30.95437644208312
 72
     4
 94
        3
 73
     0
 74
     0
 95
        8
 96
        4
 40
11.81252375
 40
11.81252375
 40
11.81252375
 40
11.81252375
 40
11.8750225
 40
11.8750225
 40
11.8750225
 40
11.8750225
 10
43.59733807742396
 20
30.95437644208312
 10
43.61486704200524
 20
30.95437644208312
 10
43.63615294318424
 20
30.95437644208312
 10
43.66056967496388
 20
30.95437644208312
 72
     4
 94
        3
 73
     0
 74
     0
 95
        8
 96
        4
 40
11.75002499995332
 40
11.75002499995332
 40
11.75002499995332
 40
11.75002499995332
 40
11.81252375
 40
11.81252375
 40
11.81252375
 40
11.81252375
 10
43.66056967496388
 20
30.95437644208312
 10
43.68498640676353
 20
30.95437644208312
 10
43.7125339691529
 20
30.95437644208312
 10
43.74258625612401
 20
30.95437644208312
 72
     4
 94
        3
 73
     0
 74
     0
 95
        8
 96
        4
 40
11.6250275
 40
11.6250275
 40
11.6250275
 40
11.6250275
 40
11.75002499995332
 40
11.75002499995332
 40
11.75002499995332
 40
11.75002499995332
 10
43.74258625612401
 20
30.95437644208312
 10
43.8026908299953
 20
30.95437644208312
 10
43.87281430216262
 20
30.95437644208312
 10
43.94794782457302
 20
30.95437644208312
 72
     4
 94
        3
 73
     0
 74
     0
 95
        8
 96
        4
 40
11.50003
 40
11.50003
 40
11.50003
 40
11.50003
 40
11.6250275
 40
11.6250275
 40
11.6250275
 40
11.6250275
 10
43.94794782457302
 20
30.95437644208312
 10
44.02308134700525
 20
30.95437644208312
 10
44.10322491966417
 20
30.95437644208312
 10
44.18336969448228
 20
30.95437644208312
 72
     4
 94
        3
 73
     0
 74
     0
 95
        8
 96
        4
 40
11.250035
 40
11.250035
 40
11.250035
 40
11.250035
 40
11.50003
 40
11.50003
 40
11.50003
 40
11.50003
 10
44.18336969448228
 20
30.95437644208312
 10
44.34365924409485
 20
30.95437644208312
 10
44.50395360230414
 20
30.95437644208312
 10
44.62418198443356
 20
30.95437644208312
 72
     4
 94
        3
 73
     0
 74
     0
 95
       11
 96
        7
 40
10.0
 40
10.0
 40
10.0
 40
10.0
 40
10.250035
 40
10.250035
 40
10.250035
 40
11.250035
 40
11.250035
 40
11.250035
 40
11.250035
 10
44.62418198443356
 20
30.95437644208312
 10
44.74442960349461
 20
30.95437644208312
 10
44.8245984240757
 20
30.95437644208312
 10
44.8245984240757
 20
30.95437644208312
 10
44.81107424294441
 20
30.12003766078749
 10
44.33864338639341
 20
29.5890870699385
 10
43.47476030859343
 20
29.60288323975135
 72
     4
 94
        3
 73
     0
 74
     0
 95
        8
 96
        4
 40
9.0
 40
9.0
 40
9.0
 40
9.0
 40
10.0
 40
10.0
 40
10.0
 40
10.0
 10
43.47476030859343
 20
29.60288323975135
 10
42.442178676004
 20
29.60288323975135
 10
42.01023713712402
 20
30.53375269458945
 10
42.01023713712402
 20
31.47843957681823
 72
     4
 94
        3
 73
     0
 74
     0
 95
        8
 96
        4
 40
8.0
 40
8.0
 40
8.0
 40
8.0
 40
9.0
 40
9.0
 40
9.0
 40
9.0
 10
42.01023713712402
 20
31.47843957681823
 10
42.01023713712402
 20
32.42310520146918
 10
42.442178676004
 20
33.35399591387784
 10
43.47476030859343
 20
33.35399591387784
 72
     4
 94
        3
 73
     0
 74
     0
 95
        8
 96
        4
 40
7.0
 40
7.0
 40
7.0
 40
7.0
 40
8.0
 40
8.0
 40
8.0
 40
8.0
 10
43.47476030859343
 20
33.35399591387784
 10
44.08218329928332
 20
33.35399591387784
 10
44.6355927911618
 20
33.02301538381005
 10
44.71661303934434
 20
32.37485049348277
 97
        0
 92
        5
 93
        8
 72
     4
 94
        3
 73
     0
 74
     0
 95
       11
 96
        7
 40
0.5
 40
0.5
 40
0.5
 40
0.5
 40
1.5
 40
1.5
 40
1.5
 40
2.0
 40
2.0
 40
2.0
 40
2.0
 10
46.82861940487328
 20
31.06920329301363
 10
46.82861940487328
 20
31.06920329301363
 10
46.82861940487328
 20
33.93452019497624
 10
46.82861940487328
 20
33.93452019497624
 10
46.82861940487328
 20
33.93452019497624
 10
46.61219674135191
 20
33.93452019497624
 10
46.39577407783236
 20
33.93452019497624
 72
     4
 94
        3
 73
     0
 74
     0
 95
       11
 96
        7
 40
9.5
 40
9.5
 40
9.5
 40
9.5
 40
10.0
 40
10.0
 40
10.0
 40
10.5
 40
10.5
 40
10.5
 40
10.5
 10
46.39577407783236
 20
33.93452019497624
 10
46.17935141430371
 20
33.93452019497624
 10
45.96292875079325
 20
33.93452019497624
 10
45.96292875079325
 20
33.93452019497624
 10
45.96292875079325
 20
33.93452019497624
 10
45.96292875079325
 20
33.14758789627092
 10
45.96292875079325
 20
32.36065559757105
 72
     4
 94
        3
 73
     0
 74
     0
 95
       11
 96
        7
 40
8.0
 40
8.0
 40
8.0
 40
8.0
 40
8.5
 40
8.5
 40
8.5
 40
9.5
 40
9.5
 40
9.5
 40
9.5
 10
45.96292875079325
 20
32.36065559757105
 10
45.96292875079325
 20
31.57372329887028
 10
45.96292875079325
 20
30.78679100016768
 10
45.96292875079325
 20
30.78679100016768
 10
45.96292875079325
 20
29.52634034580467
 10
46.77323535819323
 20
28.89955492774868
 10
47.99215410336274
 20
28.89955492774868
 72
     4
 94
        3
 73
     0
 74
     0
 95
        8
 96
        4
 40
7.0
 40
7.0
 40
7.0
 40
7.0
 40
8.0
 40
8.0
 40
8.0
 40
8.0
 10
47.99215410336274
 20
28.89955492774868
 10
49.21107284852314
 20
28.89955492774868
 10
50.02137945592312
 20
29.52634034580467
 10
50.02137945592312
 20
30.78679100016768
 72
     4
 94
        3
 73
     0
 74
     0
 95
       11
 96
        7
 40
5.5
 40
5.5
 40
5.5
 40
5.5
 40
6.5
 40
6.5
 40
6.5
 40
7.0
 40
7.0
 40
7.0
 40
7.0
 10
50.02137945592312
 20
30.78679100016768
 10
50.02137945592312
 20
30.78679100016768
 10
50.02137945592312
 20
33.93452019497624
 10
50.02137945592312
 20
33.93452019497624
 10
50.02137945592312
 20
33.93452019497624
 10
49.80494611698214
 20
33.93452019497624
 10
49.58851277805388
 20
33.93452019497624
 72
     4
 94
        3
 73
     0
 74
     0
 95
       11
 96
        7
 40
4.5
 40
4.5
 40
4.5
 40
4.5
 40
5.0
 40
5.0
 40
5.0
 40
5.5
 40
5.5
 40
5.5
 40
5.5
 10
49.58851277805388
 20
33.93452019497624
 10
49.37207943911471
 20
33.93452019497624
 10
49.15564610018282
 20
33.93452019497624
 10
49.15564610018282
 20
33.93452019497624
 10
49.15564610018282
 20
33.93452019497624
 10
49.15564610018282
 20
33.21819096948445
 10
49.15564610018282
 20
32.50186174399266
 72
     4
 94
        3
 73
     0
 74
     0
 95
       11
 96
        7
 40
3.0
 40
3.0
 40
3.0
 40
3.0
 40
3.5
 40
3.5
 40
3.5
 40
4.5
 40
4.5
 40
4.5
 40
4.5
 10
49.15564610018282
 20
32.50186174399266
 10
49.15564610018282
 20
31.78553251850178
 10
49.15564610018282
 20
31.06920329301363
 10
49.15564610018282
 20
31.06920329301363
 10
49.15564610018282
 20
30.40797631563771
 10
49.11409738976272
 20
29.64342466029382
 10
47.99215410336274
 20
29.64342466029382
 72
     4
 94
        3
 73
     0
 74
     0
 95
        8
 96
        4
 40
2.0
 40
2.0
 40
2.0
 40
2.0
 40
3.0
 40
3.0
 40
3.0
 40
3.0
 10
47.99215410336274
 20
29.64342466029382
 10
46.87016811529338
 20
29.64342466029382
 10
46.82861940487328
 20
30.40797631563771
 10
46.82861940487328
 20
31.06920329301363
 97
        0
 92
        5
 93
        1
 72
     4
 94
        3
 73
     0
 74
     0
 95
       17
 96
       13
 40
0.0
 40
0.0
 40
0.0
 40
0.0
 40
1.0
 40
1.0
 40
1.0
 40
2.0
 40
2.0
 40
2.0
 40
3.0
 40
3.0
 40
3.0
 40
4.0
 40
4.0
 40
4.0
 40
4.0
 10
56.1705471946434
 20
31.47187670247411
 10
56.1705471946434
 20
30.07208081159195
 10
55.2959969230933
 20
28.90560891502889
 10
53.83386345371309
 20
28.90560891502889
 10
52.37172998433289
 20
28.90560891502889
 10
51.49717971278278
 20
30.07208081159195
 10
51.49717971278278
 20
31.47187670247411
 10
51.49717971278278
 20
32.87165143978189
 10
52.37172998433289
 20
34.03814448992205
 10
53.83386345371309
 20
34.03814448992205
 10
55.2959969230933
 20
34.03814448992205
 10
56.1705471946434
 20
32.87165143978189
 10
56.1705471946434
 20
31.47187670247411
 97
        0
 92
       20
 93
        4
 72
     4
 94
        3
 73
     0
 74
     0
 95
        8
 96
        4
 40
2.0
 40
2.0
 40
2.0
 40
2.0
 40
3.0
 40
3.0
 40
3.0
 40
3.0
 10
53.83386345371309
 20
33.33825712127225
 10
54.87923748974299
 20
33.33825712127225
 10
55.31651262552532
 20
32.41192067199779
 10
55.31651262552532
 20
31.47187670247411
 72
     4
 94
        3
 73
     0
 74
     0
 95
        8
 96
        4
 40
1.0
 40
1.0
 40
1.0
 40
1.0
 40
2.0
 40
2.0
 40
2.0
 40
2.0
 10
55.31651262552532
 20
31.47187670247411
 10
55.31651262552532
 20
30.53181157937513
 10
54.87923748974299
 20
29.60549628368506
 10
53.83386345371309
 20
29.60549628368506
 72
     4
 94
        3
 73
     0
 74
     0
 95
        8
 96
        4
 40
0.0
 40
0.0
 40
0.0
 40
0.0
 40
1.0
 40
1.0
 40
1.0
 40
1.0
 10
53.83386345371309
 20
29.60549628368506
 10
52.78853154437547
 20
29.60549628368506
 10
52.35125640860406
 20
30.53181157937513
 10
52.35125640860406
 20
31.47187670247411
 72
     4
 94
        3
 73
     0
 74
     0
 95
        8
 96
        4
 40
3.0
 40
3.0
 40
3.0
 40
3.0
 40
4.0
 40
4.0
 40
4.0
 40
4.0
 10
52.35125640860406
 20
31.47187670247411
 10
52.35125640860406
 20
32.41192067199779
 10
52.78853154437547
 20
33.33825712127225
 10
53.83386345371309
 20
33.33825712127225
 97
        0
 92
        5
 93
       31
 72
     4
 94
        3
 73
     0
 74
     0
 95
        8
 96
        4
 40
1.0
 40
1.0
 40
1.0
 40
1.0
 40
2.0
 40
2.0
 40
2.0
 40
2.0
 10
60.35198125827355
 20
32.46087076361425
 10
60.35198125827355
 20
33.10377693910129
 10
60.08553159156236
 20
34.05732422588142
 10
58.69169441804388
 20
34.05732422588142
 72
     4
 94
        3
 73
     0
 74
     0
 95
       11
 96
        7
 40
6.749964999999998
 40
6.749964999999998
 40
6.749964999999998
 40
6.749964999999998
 40
7.749964999999998
 40
7.749964999999998
 40
7.749964999999998
 40
8.0
 40
8.0
 40
8.0
 40
8.0
 10
58.69169441804388
 20
34.05732422588142
 10
58.69169441804388
 20
34.05732422588142
 10
56.5394972602835
 20
34.05732422588142
 10
56.5394972602835
 20
34.05732422588142
 10
56.5394972602835
 20
34.05732422588142
 10
56.5394972602835
 20
33.73487337746417
 10
56.5394972602835
 20
33.2512196764045
 72
     4
 94
        3
 73
     0
 74
     0
 95
        8
 96
        4
 40
6.499969999999998
 40
6.499969999999998
 40
6.499969999999998
 40
6.499969999999998
 40
6.749964999999998
 40
6.749964999999998
 40
6.749964999999998
 40
6.749964999999998
 10
56.5394972602835
 20
33.2512196764045
 10
56.5394972602835
 20
32.7676433491032
 10
56.5394972602835
 20
32.12291574271865
 10
56.5394972602835
 20
31.47820747719913
 72
     4
 94
        3
 73
     0
 74
     0
 95
        8
 96
        4
 40
6.3749725
 40
6.3749725
 40
6.3749725
 40
6.3749725
 40
6.499969999999998
 40
6.499969999999998
 40
6.499969999999998
 40
6.499969999999998
 10
56.5394972602835
 20
31.47820747719913
 10
56.5394972602835
 20
31.15585334443938
 10
56.5394972602835
 20
30.83350404688997
 10
56.5394972602835
 20
30.53130591205615
 72
     4
 94
        3
 73
     0
 74
     0
 95
        8
 96
        4
 40
6.249974999999997
 40
6.249974999999997
 40
6.249974999999997
 40
6.249974999999997
 40
6.374972499999997
 40
6.374972499999997
 40
6.374972499999997
 40
6.374972499999997
 10
56.5394972602835
 20
30.53130591205615
 10
56.5394972602835
 20
30.22910777721688
 10
56.5394972602835
 20
29.94706080508502
 10
56.5394972602835
 20
29.7053113231558
 72
     4
 94
        3
 73
     0
 74
     0
 95
        8
 96
        4
 40
6.187476249999998
 40
6.187476249999998
 40
6.187476249999998
 40
6.187476249999998
 40
6.249974999999999
 40
6.249974999999999
 40
6.249974999999999
 40
6.249974999999999
 10
56.5394972602835
 20
29.7053113231558
 10
56.5394972602835
 20
29.5844365821921
 10
56.5394972602835
 20
29.47363621378088
 10
56.5394972602835
 20
29.3754285088479
 72
     4
 94
        3
 73
     0
 74
     0
 95
        8
 96
        4
 40
6.124977499999999
 40
6.124977499999999
 40
6.124977499999999
 40
6.124977499999999
 40
6.187476249999998
 40
6.187476249999998
 40
6.187476249999998
 40
6.187476249999998
 10
56.5394972602835
 20
29.3754285088479
 10
56.5394972602835
 20
29.27722080392039
 10
56.5394972602835
 20
29.19160576248203
 10
56.5394972602835
 20
29.12110167546314
 72
     4
 94
        3
 73
     0
 74
     0
 95
        8
 96
        4
 40
6.093728125
 40
6.093728125
 40
6.093728125
 40
6.093728125
 40
6.124977499999999
 40
6.124977499999999
 40
6.124977499999999
 40
6.124977499999999
 10
56.5394972602835
 20
29.12110167546314
 10
56.5394972602835
 20
29.08584963195597
 10
56.5394972602835
 20
29.05437532705116
 10
56.5394972602835
 20
29.02699354712593
 72
     4
 94
        3
 73
     0
 74
     0
 95
        8
 96
        4
 40
6.06247875
 40
6.06247875
 40
6.06247875
 40
6.06247875
 40
6.093728125
 40
6.093728125
 40
6.093728125
 40
6.093728125
 10
56.5394972602835
 20
29.02699354712593
 10
56.5394972602835
 20
28.99961176719796
 10
56.5394972602835
 20
28.97632251223774
 10
56.5394972602835
 20
28.95744056862338
 72
     4
 94
        3
 73
     0
 74
     0
 95
        8
 96
        4
 40
6.046854062499998
 40
6.046854062499998
 40
6.046854062499998
 40
6.046854062499998
 40
6.062478749999998
 40
6.062478749999998
 40
6.062478749999998
 40
6.062478749999998
 10
56.5394972602835
 20
28.95744056862338
 10
56.5394972602835
 20
28.94799959681666
 10
56.5394972602835
 20
28.93966045284003
 10
56.5394972602835
 20
28.93246248500134
 72
     4
 94
        3
 73
     0
 74
     0
 95
        8
 96
        4
 40
6.031229375000001
 40
6.031229375000001
 40
6.031229375000001
 40
6.031229375000001
 40
6.046854062500001
 40
6.046854062500001
 40
6.046854062500001
 40
6.046854062500001
 10
56.5394972602835
 20
28.93246248500134
 10
56.5394972602835
 20
28.92526451715719
 10
56.5394972602835
 20
28.91920772544461
 10
56.5394972602835
 20
28.91433145815597
 72
     4
 94
        3
 73
     0
 74
     0
 95
       11
 96
        7
 40
5.999979147302425
 40
5.999979147302425
 40
5.999979147302425
 40
5.999979147302425
 40
6.0
 40
6.0
 40
6.0
 40
6.000468271484374
 40
6.000468271484374
 40
6.000468271484374
 40
6.000468271484374
 10
56.5394972613949
 20
28.89955492774868
 10
56.53949726065457
 20
28.89955492774868
 10
56.5394972602835
 20
28.89955492774868
 10
56.5394972602835
 20
28.89955492774868
 10
56.5394972602835
 20
28.89955492774868
 10
56.5394972602835
 20
28.8995560587399
 10
56.5394972602835
 20
28.89955831964915
 72
     4
 94
        3
 73
     0
 74
     0
 95
        8
 96
        4
 40
5.49999
 40
5.49999
 40
5.49999
 40
5.49999
 40
5.999979147302425
 40
5.999979147302425
 40
5.999979147302425
 40
5.999979147302425
 10
56.5394972613949
 20
28.89955492774868
 10
56.53951507033253
 20
28.89955492774868
 10
56.75303251394598
 20
28.89955492774868
 10
56.96654568740178
 20
28.89955492774868
 72
     4
 94
        3
 73
     0
 74
     0
 95
       11
 96
        7
 40
4.999511717945667
 40
4.999511717945667
 40
4.999511717945667
 40
4.999511717945667
 40
5.499501717945666
 40
5.499501717945666
 40
5.499501717945666
 40
5.499989999999998
 40
5.499989999999998
 40
5.499989999999998
 40
5.499989999999998
 10
56.96654568740178
 20
28.89955492774868
 10
57.18005922498287
 20
28.89955492774868
 10
57.39356849237356
 20
28.89955492774868
 10
57.39356849237356
 20
28.89955492774868
 10
57.39356849237356
 20
28.89955492774868
 10
57.39356849237356
 20
28.89955539965547
 10
57.39356849237356
 20
28.89955634301157
 72
     4
 94
        3
 73
     0
 74
     0
 95
        8
 96
        4
 40
4.937501249873328
 40
4.937501249873328
 40
4.937501249873328
 40
4.937501249873328
 40
4.9531259375
 40
4.9531259375
 40
4.9531259375
 40
4.9531259375
 10
57.39356849237356
 20
28.91219394936331
 10
57.39356849237356
 20
28.91495732063493
 10
57.39356849237356
 20
28.91815860368376
 10
57.39356849237356
 20
28.92178269843396
 72
     4
 94
        3
 73
     0
 74
     0
 95
        8
 96
        4
 40
4.906251875000001
 40
4.906251875000001
 40
4.906251875000001
 40
4.906251875000001
 40
4.93750124987333
 40
4.93750124987333
 40
4.93750124987333
 40
4.93750124987333
 10
57.39356849237356
 20
28.92178269843396
 10
57.39356849237356
 20
28.92903088784249
 10
57.39356849237356
 20
28.9379703240146
 10
57.39356849237356
 20
28.94848020636789
 72
     4
 94
        3
 73
     0
 74
     0
 95
        8
 96
        4
 40
4.875002499912453
 40
4.875002499912453
 40
4.875002499912453
 40
4.875002499912453
 40
4.906251875000001
 40
4.906251875000001
 40
4.906251875000001
 40
4.906251875000001
 10
57.39356849237356
 20
28.94848020636789
 10
57.39356849237356
 20
28.95899008879485
 10
57.39356849237356
 20
28.97107041742845
 10
57.39356849237356
 20
28.98460039168356
 72
     4
 94
        3
 73
     0
 74
     0
 95
        8
 96
        4
 40
4.812503749999999
 40
4.812503749999999
 40
4.812503749999999
 40
4.812503749999999
 40
4.875002499912453
 40
4.875002499912453
 40
4.875002499912453
 40
4.875002499912453
 10
57.39356849237356
 20
28.98460039168356
 10
57.39356849237356
 20
29.01166034008372
 10
57.39356849237356
 20
29.04451887092716
 10
57.39356849237356
 20
29.08220957959281
 72
     4
 94
        3
 73
     0
 74
     0
 95
        8
 96
        4
 40
4.750005000000001
 40
4.750005000000001
 40
4.750005000000001
 40
4.750005000000001
 40
4.812503749999999
 40
4.812503749999999
 40
4.812503749999999
 40
4.812503749999999
 10
57.39356849237356
 20
29.08220957959281
 10
57.39356849237356
 20
29.11990028830121
 10
57.39356849237356
 20
29.16242317483909
 10
57.39356849237356
 20
29.20881183456629
 72
     4
 94
        3
 73
     0
 74
     0
 95
        8
 96
        4
 40
4.625007500000001
 40
4.625007500000001
 40
4.625007500000001
 40
4.625007500000001
 40
4.750005000000002
 40
4.750005000000002
 40
4.750005000000002
 40
4.750005000000002
 10
57.39356849237356
 20
29.20881183456629
 10
57.39356849237356
 20
29.30158915401341
 10
57.39356849237356
 20
29.40982956620417
 10
57.39356849237356
 20
29.52580183402995
 72
     4
 94
        3
 73
     0
 74
     0
 95
        8
 96
        4
 40
4.500009999999996
 40
4.500009999999996
 40
4.500009999999996
 40
4.500009999999996
 40
4.625007499999997
 40
4.625007499999997
 40
4.625007499999997
 40
4.625007499999997
 10
57.39356849237356
 20
29.52580183402995
 10
57.39356849237356
 20
29.64177410185391
 10
57.39356849237356
 20
29.76547822529926
 10
57.39356849237356
 20
29.88918296726285
 72
     4
 94
        3
 73
     0
 74
     0
 95
        8
 96
        4
 40
4.250014999999999
 40
4.250014999999999
 40
4.250014999999999
 40
4.250014999999999
 40
4.500009999999996
 40
4.500009999999996
 40
4.500009999999996
 40
4.500009999999996
 10
57.39356849237356
 20
29.88918296726285
 10
57.39356849237356
 20
30.13659245118913
 10
57.39356849237356
 20
30.38400440915473
 10
57.39356849237356
 20
30.56956894423718
 72
     4
 94
        3
 73
     0
 74
     0
 95
       11
 96
        7
 40
3.999287592773436
 40
3.999287592773436
 40
3.999287592773436
 40
3.999287592773436
 40
4.249302592773437
 40
4.249302592773437
 40
4.249302592773437
 40
4.250014999999999
 40
4.250014999999999
 40
4.250014999999999
 40
4.250014999999999
 10
57.39356849237356
 20
30.56956894423718
 10
57.39356849237356
 20
30.75514832477609
 10
57.39356849237356
 20
30.87887038624092
 10
57.39356849237356
 20
30.87887038624092
 10
57.39356849237356
 20
30.87887038624092
 10
57.39356915120425
 20
30.87887038624092
 10
57.3935704679252
 20
30.87887038624092
 72
     4
 94
        3
 73
     0
 74
     0
 95
        8
 96
        4
 40
3.906271874999998
 40
3.906271874999998
 40
3.906271874999998
 40
3.906271874999998
 40
3.937521249747056
 40
3.937521249747056
 40
3.937521249747056
 40
3.937521249747056
 10
57.40813735875327
 20
30.87887038624092
 10
57.41288963421448
 20
30.87887038624092
 10
57.41875115762468
 20
30.87887038624092
 10
57.425642702402
 20
30.87887038624092
 72
     4
 94
        3
 73
     0
 74
     0
 95
        8
 96
        4
 40
3.875022499912441
 40
3.875022499912441
 40
3.875022499912441
 40
3.875022499912441
 40
3.906271874999998
 40
3.906271874999998
 40
3.906271874999998
 40
3.906271874999998
 10
57.425642702402
 20
30.87887038624092
 10
57.43253424727391
 20
30.87887038624092
 10
57.44045581354567
 20
30.87887038624092
 10
57.4493281746627
 20
30.87887038624092
 72
     4
 94
        3
 73
     0
 74
     0
 95
        8
 96
        4
 40
3.81252375
 40
3.81252375
 40
3.81252375
 40
3.81252375
 40
3.875022499912441
 40
3.875022499912441
 40
3.875022499912441
 40
3.875022499912441
 10
57.4493281746627
 20
30.87887038624092
 10
57.4670728968149
 20
30.87887038624092
 10
57.48862079830269
 20
30.87887038624092
 10
57.51333806663297
 20
30.87887038624092
 72
     4
 94
        3
 73
     0
 74
     0
 95
        8
 96
        4
 40
3.750024999999998
 40
3.750024999999998
 40
3.750024999999998
 40
3.750024999999998
 40
3.81252375
 40
3.81252375
 40
3.81252375
 40
3.81252375
 10
57.51333806663297
 20
30.87887038624092
 10
57.53805533499599
 20
30.87887038624092
 10
57.5659419701833
 20
30.87887038624092
 10
57.59636415968362
 20
30.87887038624092
 72
     4
 94
        3
 73
     0
 74
     0
 95
        8
 96
        4
 40
3.6250275
 40
3.6250275
 40
3.6250275
 40
3.6250275
 40
3.750024999999998
 40
3.750024999999998
 40
3.750024999999998
 40
3.750024999999998
 10
57.59636415968362
 20
30.87887038624092
 10
57.65720853869334
 20
30.87887038624092
 10
57.72819513496415
 20
30.87887038624092
 10
57.80425344831292
 20
30.87887038624092
 72
     4
 94
        3
 73
     0
 74
     0
 95
        8
 96
        4
 40
3.50003
 40
3.50003
 40
3.50003
 40
3.50003
 40
3.6250275
 40
3.6250275
 40
3.6250275
 40
3.6250275
 10
57.80425344831292
 20
30.87887038624092
 10
57.88031176167442
 20
30.87887038624092
 10
57.96144179213388
 20
30.87887038624092
 10
58.04257303953364
 20
30.87887038624092
 72
     4
 94
        3
 73
     0
 74
     0
 95
        8
 96
        4
 40
3.250035
 40
3.250035
 40
3.250035
 40
3.250035
 40
3.50003
 40
3.50003
 40
3.50003
 40
3.50003
 10
58.04257303953364
 20
30.87887038624092
 10
58.20483553434406
 20
30.87887038624092
 10
58.36710289693383
 20
30.87887038624092
 10
58.48881112606159
 20
30.87887038624092
 72
     4
 94
        3
 73
     0
 74
     0
 95
       11
 96
        7
 40
2.0
 40
2.0
 40
2.0
 40
2.0
 40
2.250035
 40
2.250035
 40
2.250035
 40
3.250035
 40
3.250035
 40
3.250035
 40
3.250035
 10
58.48881112606159
 20
30.87887038624092
 10
58.61053882888427
 20
30.87887038624092
 10
58.69169441804388
 20
30.87887038624092
 10
58.69169441804388
 20
30.87887038624092
 10
60.08553159156236
 20
30.87163270890312
 10
60.35198125827355
 20
31.82517999568506
 10
60.35198125827355
 20
32.46087076361425
 97
        0
 92
       20
 93
       11
 72
     4
 94
        3
 73
     0
 74
     0
 95
        8
 96
        4
 40
3.250015000000001
 40
3.250015000000001
 40
3.250015000000001
 40
3.250015000000001
 40
3.500009999937033
 40
3.500009999937033
 40
3.500009999937033
 40
3.500009999937033
 10
58.02553022874508
 20
33.32050640322802
 10
58.18352224264436
 20
33.32050640322802
 10
58.34151583642324
 20
33.32050640322802
 10
58.46001458652336
 20
33.32050640322802
 72
     4
 94
        3
 73
     0
 74
     0
 95
       11
 96
        7
 40
2.0
 40
2.0
 40
2.0
 40
2.0
 40
2.250015
 40
2.250015
 40
2.250015
 40
3.250015
 40
3.250015
 40
3.250015
 40
3.250015
 10
58.46001458652336
 20
33.32050640322802
 10
58.57852281674332
 20
33.32050640322802
 10
58.65752988370423
 20
33.32050640322802
 10
58.65752988370423
 20
33.32050640322802
 10
59.10849331171357
 20
33.32050640322802
 10
59.4979100261944
 20
33.14711392401557
 10
59.4979100261944
 20
32.46808617117483
 72
     4
 94
        3
 73
     0
 74
     0
 95
        8
 96
        4
 40
1.0
 40
1.0
 40
1.0
 40
1.0
 40
2.0
 40
2.0
 40
2.0
 40
2.0
 10
59.4979100261944
 20
32.46808617117483
 10
59.4979100261944
 20
31.81796458812266
 10
59.02647315343256
 20
31.61568820889704
 10
58.64388092053287
 20
31.61568820889704
 72
     4
 94
        3
 73
     0
 74
     0
 95
       11
 96
        7
 40
4.49999
 40
4.49999
 40
4.49999
 40
4.49999
 40
5.49999
 40
5.49999
 40
5.49999
 40
6.0
 40
6.0
 40
6.0
 40
6.0
 10
58.64388092053287
 20
31.61568820889704
 10
58.64388092053287
 20
31.61568820889704
 10
57.39356849237356
 20
31.61568820889704
 10
57.39356849237356
 20
31.61568820889704
 10
57.39356849237356
 20
31.61568820889704
 10
57.39356849237356
 20
32.04190980583542
 10
57.39356849237356
 20
32.46812287833643
 72
     4
 94
        3
 73
     0
 74
     0
 95
       11
 96
        7
 40
3.999267592773436
 40
3.999267592773436
 40
3.999267592773436
 40
3.999267592773436
 40
4.499257592773438
 40
4.499257592773438
 40
4.499257592773438
 40
4.49999
 40
4.49999
 40
4.49999
 40
4.49999
 10
57.39356849237356
 20
32.46812287833643
 10
57.39356849237356
 20
32.89431890265757
 10
57.39356849237356
 20
33.32050640322802
 10
57.39356849237356
 20
33.32050640322802
 10
57.39356849237356
 20
33.32050640322802
 10
57.39356917039277
 20
33.32050640322802
 10
57.39357052542528
 20
33.32050640322802
 72
     4
 94
        3
 73
     0
 74
     0
 95
        8
 96
        4
 40
3.906251875
 40
3.906251875
 40
3.906251875
 40
3.906251875
 40
3.937501249746713
 40
3.937501249746713
 40
3.937501249746713
 40
3.937501249746713
 10
57.40776281594572
 20
33.32050640322802
 10
57.4123914018046
 20
33.32050640322802
 10
57.41809999268389
 20
33.32050640322802
 10
57.42481144710564
 20
33.32050640322802
 72
     4
 94
        3
 73
     0
 74
     0
 95
        8
 96
        4
 40
3.8750025
 40
3.8750025
 40
3.8750025
 40
3.8750025
 40
3.906251875
 40
3.906251875
 40
3.906251875
 40
3.906251875
 10
57.42481144710564
 20
33.32050640322802
 10
57.43152290155285
 20
33.32050640322802
 10
57.43923721958254
 20
33.32050640322802
 10
57.44787725974402
 20
33.32050640322802
 72
     4
 94
        3
 73
     0
 74
     0
 95
        8
 96
        4
 40
3.812503749999999
 40
3.812503749999999
 40
3.812503749999999
 40
3.812503749999999
 40
3.8750025
 40
3.8750025
 40
3.8750025
 40
3.8750025
 10
57.44787725974402
 20
33.32050640322802
 10
57.46515734003424
 20
33.32050640322802
 10
57.48614030878434
 20
33.32050640322802
 10
57.51020903437438
 20
33.32050640322802
 72
     4
 94
        3
 73
     0
 74
     0
 95
        8
 96
        4
 40
3.750004999953268
 40
3.750004999953268
 40
3.750004999953268
 40
3.750004999953268
 40
3.812503749999999
 40
3.812503749999999
 40
3.812503749999999
 40
3.812503749999999
 10
57.51020903437438
 20
33.32050640322802
 10
57.53427775998261
 20
33.32050640322802
 10
57.56143224243442
 20
33.32050640322802
 10
57.59105535010258
 20
33.32050640322802
 72
     4
 94
        3
 73
     0
 74
     0
 95
        8
 96
        4
 40
3.625007499999998
 40
3.625007499999998
 40
3.625007499999998
 40
3.625007499999998
 40
3.750004999953268
 40
3.750004999953268
 40
3.750004999953268
 40
3.750004999953268
 10
57.59105535010258
 20
33.32050640322802
 10
57.65030156537341
 20
33.32050640322802
 10
57.7194222814951
 20
33.32050640322802
 10
57.79348044555354
 20
33.32050640322802
 72
     4
 94
        3
 73
     0
 74
     0
 95
        8
 96
        4
 40
3.500009999937033
 40
3.500009999937033
 40
3.500009999937033
 40
3.500009999937033
 40
3.625007499999998
 40
3.625007499999998
 40
3.625007499999998
 40
3.625007499999998
 10
57.79348044555354
 20
33.32050640322802
 10
57.86753860967383
 20
33.32050640322802
 10
57.9465342217236
 20
33.32050640322802
 10
58.02553022874508
 20
33.32050640322802
 97
        0
 92
        7
 72
     0
 73
     1
 93
        8
 10
64.65565942584453
 20
34.05732422588142
 10
60.72093132239479
 20
34.05732422588142
 10
60.72093132239479
 20
33.27714714854017
 10
62.25943960158202
 20
33.27714714854017
 10
62.25943960158202
 20
28.89955492774868
 10
63.11035157385322
 20
28.89955492774868
 10
63.11035157385322
 20
33.27714714854017
 10
64.65565942584453
 20
33.27714714854017
 97
        0
 92
        7
 72
     0
 73
     1
 93
        4
 10
65.8845743463744
 20
34.05732422588142
 10
65.02433390311216
 20
34.05732422588142
 10
65.02433390311216
 20
28.89955492774868
 10
65.8845743463744
 20
28.89955492774868
 97
        0
 92
        5
 93
        9
 72
     4
 94
        3
 73
     0
 74
     0
 95
       11
 96
        7
 40
8.0
 40
8.0
 40
8.0
 40
8.0
 40
8.5
 40
8.5
 40
8.5
 40
9.5
 40
9.5
 40
9.5
 40
9.5
 10
70.24248308672304
 20
32.37485049348277
 10
70.45649254499494
 20
32.37485049348277
 10
70.67050200328322
 20
32.37485049348277
 10
70.67050200328322
 20
32.37485049348277
 10
70.56776732917479
 20
33.43673041760474
 10
69.69800620420483
 20
34.05043676976845
 10
68.59541359836203
 20
34.05732422588142
 72
     4
 94
        3
 73
     0
 74
     0
 95
        8
 96
        4
 40
7.0
 40
7.0
 40
7.0
 40
7.0
 40
8.0
 40
8.0
 40
8.0
 40
8.0
 10
68.59541359836203
 20
34.05732422588142
 10
67.12985047934399
 20
34.05732422588142
 10
66.25324882121367
 20
32.88509620082357
 10
66.25324882121367
 20
31.47843957681823
 72
     4
 94
        3
 73
     0
 74
     0
 95
        8
 96
        4
 40
6.0
 40
6.0
 40
6.0
 40
6.0
 40
7.0
 40
7.0
 40
7.0
 40
7.0
 10
66.25324882121367
 20
31.47843957681823
 10
66.25324882121367
 20
30.07176169522506
 10
67.12985047934399
 20
28.89955492774868
 10
68.59541359836203
 20
28.89955492774868
 72
     4
 94
        3
 73
     0
 74
     0
 95
        8
 96
        4
 40
5.0
 40
5.0
 40
5.0
 40
5.0
 40
6.0
 40
6.0
 40
6.0
 40
6.0
 10
68.59541359836203
 20
28.89955492774868
 10
69.780219278794
 20
28.89955492774868
 10
70.60885275371311
 20
29.7132100831094
 10
70.6773425364454
 20
30.89232556428476
 72
     4
 94
        3
 73
     0
 74
     0
 95
       11
 96
        7
 40
3.0
 40
3.0
 40
3.0
 40
3.0
 40
4.0
 40
4.0
 40
4.0
 40
5.0
 40
5.0
 40
5.0
 40
5.0
 10
70.6773425364454
 20
30.89232556428476
 10
70.6773425364454
 20
30.89232556428476
 10
69.84182630284431
 20
30.89232556428476
 10
69.84182630284431
 20
30.89232556428476
 10
69.77337874563182
 20
30.17520108246742
 10
69.35559951606137
 20
29.60288323975135
 10
68.59541359836203
 20
29.60288323975135
 72
     4
 94
        3
 73
     0
 74
     0
 95
        8
 96
        4
 40
2.0
 40
2.0
 40
2.0
 40
2.0
 40
3.0
 40
3.0
 40
3.0
 40
3.0
 10
68.59541359836203
 20
29.60288323975135
 10
67.54762970891443
 20
29.60288323975135
 10
67.10932887983381
 20
30.53375269458945
 10
67.10932887983381
 20
31.47843957681823
 72
     4
 94
        3
 73
     0
 74
     0
 95
        8
 96
        4
 40
1.0
 40
1.0
 40
1.0
 40
1.0
 40
2.0
 40
2.0
 40
2.0
 40
2.0
 10
67.10932887983381
 20
31.47843957681823
 10
67.10932887983381
 20
32.42310520146918
 10
67.54762970891443
 20
33.35399591387784
 10
68.59541359836203
 20
33.35399591387784
 72
     4
 94
        3
 73
     0
 74
     0
 95
        8
 96
        4
 40
0.0
 40
0.0
 40
0.0
 40
0.0
 40
1.0
 40
1.0
 40
1.0
 40
1.0
 10
68.59541359836203
 20
33.35399591387784
 10
69.30767355835542
 20
33.35399591387784
 10
69.6706440715343
 20
32.94025962249805
 10
69.81446417016468
 20
32.37485049348277
 72
     4
 94
        3
 73
     0
 74
     0
 95
        8
 96
        4
 40
9.5
 40
9.5
 40
9.5
 40
9.5
 40
10.0
 40
10.0
 40
10.0
 40
10.0
 10
69.81446417016468
 20
32.37485049348277
 10
69.81446417016468
 20
32.37485049348277
 10
70.02847362844568
 20
32.37485049348277
 10
70.24248308672304
 20
32.37485049348277
 97
        0
 92
        5
 93
       15
 72
     4
 94
        3
 73
     0
 74
     0
 95
        8
 96
        4
 40
13.0
 40
13.0
 40
13.0
 40
13.0
 40
14.0
 40
14.0
 40
14.0
 40
14.0
 10
73.12251127038417
 20
28.89955492774868
 10
74.1119952412837
 20
28.89955492774868
 10
75.10143624903412
 20
29.34086230117452
 10
75.10143624903412
 20
30.44413073473959
 72
     4
 94
        3
 73
     0
 74
     0
 95
        8
 96
        4
 40
12.0
 40
12.0
 40
12.0
 40
12.0
 40
13.0
 40
13.0
 40
13.0
 40
13.0
 10
75.10143624903412
 20
30.44413073473959
 10
75.10143624903412
 20
30.95437644208312
 10
74.78789128706285
 20
31.5060106588661
 10
74.13287532507366
 20
31.69909326352615
 72
     4
 94
        3
 73
     0
 74
     0
 95
        8
 96
        4
 40
11.0
 40
11.0
 40
11.0
 40
11.0
 40
12.0
 40
12.0
 40
12.0
 40
12.0
 10
74.13287532507366
 20
31.69909326352615
 10
73.87505354966288
 20
31.77494031113918
 10
72.77412320560416
 20
32.05764487564909
 10
72.6974769720955
 20
32.07832850158036
 72
     4
 94
        3
 73
     0
 74
     0
 95
        8
 96
        4
 40
10.0
 40
10.0
 40
10.0
 40
10.0
 40
11.0
 40
11.0
 40
11.0
 40
11.0
 10
72.6974769720955
 20
32.07832850158036
 10
72.34208591623337
 20
32.17488043270157
 10
72.10518718775438
 20
32.36794177978652
 10
72.10518718775438
 20
32.7127184796708
 72
     4
 94
        3
 73
     0
 74
     0
 95
        8
 96
        4
 40
9.0
 40
9.0
 40
9.0
 40
9.0
 40
10.0
 40
10.0
 40
10.0
 40
10.0
 10
72.10518718775438
 20
32.7127184796708
 10
72.10518718775438
 20
33.20918927477749
 10
72.613827747512
 20
33.35399591387784
 10
73.01798196201253
 20
33.35399591387784
 72
     4
 94
        3
 73
     0
 74
     0
 95
        8
 96
        4
 40
8.0
 40
8.0
 40
8.0
 40
8.0
 40
9.0
 40
9.0
 40
9.0
 40
9.0
 10
73.01798196201253
 20
33.35399591387784
 10
73.61723177426302
 20
33.35399591387784
 10
74.0492690636338
 20
33.11954605734797
 10
74.09107219435373
 20
32.485177336839
 72
     4
 94
        3
 73
     0
 74
     0
 95
       11
 96
        7
 40
6.0
 40
6.0
 40
6.0
 40
6.0
 40
7.0
 40
7.0
 40
7.0
 40
8.0
 40
8.0
 40
8.0
 40
8.0
 10
74.09107219435373
 20
32.485177336839
 10
74.09107219435373
 20
32.485177336839
 10
74.96210680100285
 20
32.485177336839
 10
74.96210680100285
 20
32.485177336839
 10
74.96210680100285
 20
33.51257746521139
 10
74.09107219435373
 20
34.05732422588142
 10
73.05282506480489
 20
34.05732422588142
 72
     4
 94
        3
 73
     0
 74
     0
 95
        8
 96
        4
 40
5.0
 40
5.0
 40
5.0
 40
5.0
 40
6.0
 40
6.0
 40
6.0
 40
6.0
 10
73.05282506480489
 20
34.05732422588142
 10
72.1539503464146
 20
34.05732422588142
 10
71.23415258111436
 20
33.5953332265243
 10
71.23415258111436
 20
32.60927909243208
 72
     4
 94
        3
 73
     0
 74
     0
 95
        8
 96
        4
 40
4.0
 40
4.0
 40
4.0
 40
4.0
 40
5.0
 40
5.0
 40
5.0
 40
5.0
 10
71.23415258111436
 20
32.60927909243208
 10
71.23415258111436
 20
32.09903338509127
 10
71.48501432857393
 20
31.58876642016992
 10
72.33512588831309
 20
31.36122527733903
 72
     4
 94
        3
 73
     0
 74
     0
 95
        8
 96
        4
 40
3.0
 40
3.0
 40
3.0
 40
3.0
 40
4.0
 40
4.0
 40
4.0
 40
4.0
 10
72.33512588831309
 20
31.36122527733903
 10
73.01798196201253
 20
31.17503012879831
 10
73.47089933516418
 20
31.08538691136971
 10
73.81933036308419
 20
30.95437644208312
 72
     4
 94
        3
 73
     0
 74
     0
 95
        8
 96
        4
 40
2.0
 40
2.0
 40
2.0
 40
2.0
 40
3.0
 40
3.0
 40
3.0
 40
3.0
 10
73.81933036308419
 20
30.95437644208312
 10
74.02138598877445
 20
30.87852939447191
 10
74.23044460551228
 20
30.7268352992495
 10
74.23044460551228
 20
30.34757880362019
 72
     4
 94
        3
 73
     0
 74
     0
 95
        8
 96
        4
 40
1.0
 40
1.0
 40
1.0
 40
1.0
 40
2.0
 40
2.0
 40
2.0
 40
2.0
 10
74.23044460551228
 20
30.34757880362019
 10
74.23044460551228
 20
29.97523102168623
 10
73.94473975526398
 20
29.60288323975135
 10
73.17827742011195
 20
29.60288323975135
 72
     4
 94
        3
 73
     0
 74
     0
 95
        8
 96
        4
 40
0.0
 40
0.0
 40
0.0
 40
0.0
 40
1.0
 40
1.0
 40
1.0
 40
1.0
 10
73.17827742011195
 20
29.60288323975135
 10
72.48145832741193
 20
29.60288323975135
 10
71.91705161793197
 20
29.89938397407684
 10
71.91705161793197
 20
30.65787570776035
 72
     4
 94
        3
 73
     0
 74
     0
 95
        8
 96
        4
 40
15.5
 40
15.5
 40
15.5
 40
15.5
 40
16.0
 40
16.0
 40
16.0
 40
16.0
 10
71.91705161793197
 20
30.65787570776035
 10
71.91705161793197
 20
30.65787570776035
 10
71.6992929662747
 20
30.65787570776035
 10
71.48153431461196
 20
30.65787570776035
 72
     4
 94
        3
 73
     0
 74
     0
 95
       11
 96
        7
 40
14.0
 40
14.0
 40
14.0
 40
14.0
 40
14.5
 40
14.5
 40
14.5
 40
15.5
 40
15.5
 40
15.5
 40
15.5
 10
71.48153431461196
 20
30.65787570776035
 10
71.26377566295469
 20
30.65787570776035
 10
71.04601701128468
 20
30.65787570776035
 10
71.04601701128468
 20
30.65787570776035
 10
71.06694005822374
 20
29.43739297471882
 10
71.98669486038398
 20
28.89955492774868
 10
73.12251127038417
 20
28.89955492774868
 97
        0
 75
     1
 76
     1
 47
0.0244899890509677
 98
       14
 10
32.57274795604553
 20
34.86014099309602
 10
32.57274795604553
 20
34.86014099309602
 10
32.57274795604553
 20
34.86014099309602
 10
32.57274795604553
 20
34.86014099309602
 10
43.49608448314484
 20
33.57784484118827
 10
46.69831712371433
 20
32.80738916952839
 10
53.84403428784481
 20
33.78527551520153
 10
53.84403428784481
 20
33.78527551520153
 10
58.29157945093266
 20
33.78527551520153
 10
58.29157945093266
 20
33.78527551520153
 10
63.09492687246438
 20
33.72601005535932
 10
65.58554883886336
 20
33.13335232779252
 10
68.90638325846248
 20
33.63711030102957
 10
72.58301993649457
 20
29.36997528838208
1001
GRADIENTCOLOR1ACI
1070
     5
1001
GRADIENTCOLOR2ACI
1070
     2
1001
ACAD
1010
0.0
1020
0.0
1030
0.0
  0
MTEXT
  5
FFA
330
1F
100
AcDbEntity
  8
6文字层
100
AcDbMText
 10
65.24250839169417
 20
11.03916427600495
 30
0.0
 40
2.5
 41
17.84855769230755
 71
     5
 72
     5
  1
{\fSimHei|b1|i0|c134|p49;270638}
1001
ACDBBLOCKREPETAG
1000

1001
ACAD
1000
ACAD_MTEXT_DEFINED_HEIGHT_BEGIN
1070
    46
1040
4.283653846153733
1000
ACAD_MTEXT_DEFINED_HEIGHT_END
  0
MTEXT
  5
FFB
330
1F
100
AcDbEntity
  8
6文字层
100
AcDbMText
 10
92.87714946534379
 20
19.18526086245731
 30
0.0
 40
2.5
 41
71.44564321082993
 71
     5
 72
     5
  1
{\fSimHei|b1|i0|c134|p49;K9偏心平凹球面反射镜 未镀膜^J25.00X20.00mm F=150.00mm}
1001
ACDBBLOCKREPETAG
1000

1001
ACAD
1000
ACAD_MTEXT_DEFINED_HEIGHT_BEGIN
1070
    46
1040
4.283653846153733
1000
ACAD_MTEXT_DEFINED_HEIGHT_END
  0
LINE
  5
FFC
330
1F
100
AcDbEntity
  8
6文字层
 62
     0
100
AcDbLine
 10
-5.716136906986321
 20
8.049823817072934
 30
0.0
 11
-125.7161369070463
 21
8.049823817071115
 31
0.0
  0
MTEXT
  5
FFD
102
{ACAD_XDICTIONARY
360
FFE
102
}
330
1F
100
AcDbEntity
  8
6文字层
100
AcDbMText
 10
-131.6735369097578
 20
68.91401059812608
 30
0.0
 40
2.5
 41
114.6703060300538
 71
     1
 72
     5
  1
{\fSimSun|b1|i0|c134|p49;\C1;注：}\P{\fSimSun|b1|i0|c134|p49;\C1;1：本图仅供参考,禁止使用本图加工生产.}\P{\fSimSun|b1|i0|c134|p49;\C1;2：图纸细节如有更改不再另行通知.}
  7
标准
1001
ACAD
1000
ACAD_MTEXT_COLUMN_INFO_BEGIN
1070
    75
1070
     2
1070
    79
1070
     0
1070
    76
1070
     1
1070
    78
1070
     0
1070
    48
1040
114.6703060300538
1070
    49
1040
1.0
1070
    50
1070
     1
1040
-12.28937728937729
1000
ACAD_MTEXT_COLUMN_INFO_END
  0
INSERT
  5
FFF
330
1F
100
AcDbEntity
  8
2细线层
100
AcDbBlockReference
  2
*T83
 10
-142.7161376368449
 20
39.71649023006751
 30
0.0
  0
MTEXT
  5
1000
330
1F
100
AcDbEntity
  8
6文字层
100
AcDbMText
 10
-126.5921187388294
 20
161.8009453482783
 30
0.0
 40
2.5
 41
73.0012707428877
 71
     1
 72
     1
  3
{\fSimSun|b1|i0|c134|p34;\W1;注释：\fSimSun|b1|i0|c0|p34; \P1.\fSimSun|b1|i0|c134|p34;材料：精退火\fSimSun|b1|i0|c0|p34;K9\fSimSun|b1|i0|c134|p34;光学玻璃\fSimSun|b1|i0|c0|p34; Nd=1.5168                                                \P2.\fSimSun|b1
  3
|i0|c134|p34;表面面型：\fSimSun|b1|i0|c0|p34;\U+03BB/4 @ 633 nm            \P3.\fSimSun|b1|i0|c134|p34;焦距：150\fSimSun|b1|i0|c0|p34;.00\U+00B12%mm \P4.\fSimSun|b1|i0|c134|p34;镀膜：\A1;未镀膜\A0;   \P\fSimSun|b1|i0|c0|p34;5.\fSimSun|b1|i0|c134|p34
  1
;倒边：\fSimSun|b1|i0|c0|p34;0.2~0.5mmX45\U+00B0}
  7
TH-GBD2M
1001
ACAD
1000
ACAD_MTEXT_DEFINED_HEIGHT_BEGIN
1070
    46
1040
26.01190476190477
1000
ACAD_MTEXT_DEFINED_HEIGHT_END
  0
LINE
  5
1001
330
1F
100
AcDbEntity
  8
3中心线层
100
AcDbLine
 10
-16.17585879405715
 20
150.3462163107589
 30
0.0
 11
89.81003185502368
 21
150.3462163107589
 31
0.0
  0
LINE
  5
1002
102
{ACAD_REACTORS
330
1037
102
}
330
1F
100
AcDbEntity
  8
3中心线层
100
AcDbLine
 10
11.88042334200145
 20
165.7531660736846
 30
0.0
 11
11.88042334200145
 21
89.23092683012908
 31
0.0
  0
LINE
  5
1003
102
{ACAD_REACTORS
330
103D
102
}
330
1F
100
AcDbEntity
  8
1轮廓实线层
100
AcDbLine
 10
1.883820720614494
 20
137.8462163107589
 30
0.0
 11
1.883820720614494
 21
162.8462163107589
 31
0.0
  0
LINE
  5
1004
102
{ACAD_REACTORS
330
1045
102
}
330
1F
100
AcDbEntity
  8
1轮廓实线层
100
AcDbLine
 10
1.883820720614494
 20
162.8462163107589
 30
0.0
 11
21.88382072061449
 21
162.8462163107589
 31
0.0
  0
LINE
  5
1005
102
{ACAD_REACTORS
330
1033
102
}
330
1F
100
AcDbEntity
  8
1轮廓实线层
100
AcDbLine
 10
21.88382072061449
 20
162.8462163107589
 30
0.0
 11
21.88382072061449
 21
137.8462163107589
 31
0.0
  0
DIMENSION
  5
1006
330
1F
100
AcDbEntity
  8
7标注层
100
AcDbDimension
  2
*D84
 10
21.88382072061449
 20
170.4489860661234
 30
0.0
 11
32.26172841292237
 21
170.4489860661234
 31
0.0
 70
   160
  1
<>{}{\H0.71x;\C3;\S 0.00^ -0.10;}
  3
透镜标注
100
AcDbAlignedDimension
 13
1.883820720614494
 23
162.8462163107589
 33
0.0
 14
21.88382072061449
 24
162.8462163107589
 34
0.0
100
AcDbRotatedDimension
1001
GENIUS_GENDTOL_13
1000
TolSmNrm
1000

1000
{\H0.71x;$2\S$+$P^ $-$M;}
1040
50.0
1001
ACAD_DSTYLE_DIMINSPECT
1070
   396
1000
100%
1070
   395
1000

1070
   394
1070
    33
1070
   393
1070
     0
1001
ACAD
1000
DSTYLE
1002
{
1070
    48
1040
0.1
1070
   288
1070
     1
1002
}
  0
DIMENSION
  5
1007
330
1F
100
AcDbEntity
  8
7标注层
100
AcDbDimension
  2
*D85
 10
-2.752667631141367
 20
162.846216310759
 30
0.0
 11
-2.752667631141321
 21
150.3462163107589
 31
0.0
 70
   160
  1
<>{}{\H0.71x;\C3;\S 0.00^ -0.10;}
  3
透镜标注
100
AcDbAlignedDimension
 13
1.883820720614494
 23
137.8462163107589
 33
0.0
 14
1.883820720614494
 24
162.8462163107589
 34
0.0
 50
90.0
100
AcDbRotatedDimension
1001
GENIUS_GENDTOL_13
1000
TolSmNrm
1000

1000
{\H0.71x;$2\S$+$P^ $-$M;}
1040
50.0
1001
ACAD_DSTYLE_DIMINSPECT
1070
   396
1000
100%
1070
   395
1000

1070
   394
1070
    33
1070
   393
1070
     0
1001
ACAD
1000
DSTYLE
1002
{
1070
    48
1040
0.1
1070
   288
1070
     1
1002
}
  0
LINE
  5
1008
102
{ACAD_REACTORS
330
1039
102
}
330
1F
100
AcDbEntity
  8
1轮廓实线层
100
AcDbLine
 10
1.883820720614494
 20
137.8462163107589
 30
0.0
 11
21.88382072061449
 21
137.8462163107589
 31
0.0
  0
DIMENSION
  5
1009
330
1F
100
AcDbEntity
  8
7标注层
100
AcDbDimension
  2
*D86
 10
-13.00996843554825
 20
97.62798202286416
 30
0.0
 11
-13.00996843554822
 21
84.71567433055577
 31
0.0
 70
   160
  3
TH-GBD2M
100
AcDbAlignedDimension
 13
2.237138598334241
 23
107.6679820228634
 33
0.0
 14
2.237138598337879
 24
97.6279820228641
 34
0.0
 50
90.0
100
AcDbRotatedDimension
  0
LINE
  5
100A
102
{ACAD_REACTORS
330
1038
102
}
330
1F
100
AcDbEntity
  8
7标注层
 62
     0
100
AcDbLine
 10
2.251111542250783
 20
107.6679820228884
 30
0.0
 11
2.251111542250783
 21
97.62798202288838
 31
0.0
  0
LINE
  5
100B
102
{ACAD_REACTORS
330
102F
102
}
330
1F
100
AcDbEntity
  8
0
100
AcDbLine
 10
22.25111154225078
 20
107.6679820228636
 30
0.0
 11
22.25111154225075
 21
98.63002647395138
 31
0.0
  0
LINE
  5
100C
102
{ACAD_REACTORS
330
1051
102
}
330
1F
100
AcDbEntity
  8
0
100
AcDbLine
 10
2.251111542250783
 20
107.6679820228884
 30
0.0
 11
22.25111154225078
 21
107.6679820228884
 31
0.0
  0
ARC
  5
100D
102
{ACAD_REACTORS
330
103E
102
}
330
1F
100
AcDbEntity
  8
0
100
AcDbCircle
 10
27.25458534138792
 20
-201.3282460406458
 30
0.0
 40
300.0
100
AcDbArc
 50
90.95563741277834
 51
94.78085760998997
  0
DIMENSION
  5
100E
330
1F
100
AcDbEntity
  8
7标注层
100
AcDbDimension
  2
*D87
 10
20.68912491134549
 20
98.63002647395086
 30
0.0
 11
20.68912491134552
 21
86.4454110893347
 31
0.0
 70
   160
  3
TH-GBD2M
100
AcDbAlignedDimension
 13
22.25111154225078
 23
107.6679820228636
 33
0.0
 14
22.25111154225078
 24
98.6300264739508
 34
0.0
 50
90.0
100
AcDbRotatedDimension
  0
ARC
  5
100F
102
{ACAD_REACTORS
330
1043
102
}
330
1F
100
AcDbEntity
  8
0
  6
CENTER
100
AcDbCircle
 10
27.25111154225078
 20
-201.3285365546466
 30
0.0
 40
300.0
100
AcDbArc
 50
85.21980815280084
 51
94.78019184719916
  0
LINE
  5
1010
102
{ACAD_REACTORS
330
1047
102
}
330
1F
100
AcDbEntity
  8
3中心线层
100
AcDbLine
 10
27.23713859833833
 20
111.5161244447021
 30
0.0
 11
27.23713859833833
 21
87.52313744469859
 31
0.0
  0
DIMENSION
  5
1011
330
1F
100
AcDbEntity
  8
7标注层
100
AcDbDimension
  2
*D88
 10
27.23713859833833
 20
120.4284884083471
 30
0.0
 11
40.34597051519995
 21
120.4284884083471
 31
0.0
 70
   160
  3
TH-GBD2M
100
AcDbAlignedDimension
 13
22.23713859833833
 23
108.7279820228645
 33
0.0
 14
27.23713859833833
 24
108.7792250108142
 34
0.0
100
AcDbRotatedDimension
  0
LINE
  5
1012
102
{ACAD_REACTORS
330
103F
102
}
330
1F
100
AcDbEntity
  8
0
100
AcDbLine
 10
2.251111542250783
 20
97.62798202288838
 30
0.0
 11
52.25111154225078
 21
97.62798202288838
 31
0.0
  0
LINE
  5
1013
330
1F
100
AcDbEntity
  8
3中心线层
100
AcDbLine
 10
48.76537707075795
 20
150.3462163107589
 30
0.0
 11
80.0988370521568
 21
150.3462163107589
 31
0.0
  0
LINE
  5
1014
330
1F
100
AcDbEntity
  8
3中心线层
100
AcDbLine
 10
53.83608625319675
 20
150.3462163107589
 30
0.0
 11
85.1695462345956
 21
150.3462163107589
 31
0.0
  0
LEADER
  5
1015
330
1F
100
AcDbEntity
  8
7标注层
100
AcDbLeader
  3
TH-GBD2M
 76
     3
 10
75.06477192321063
 20
150.3579962033069
 30
0.0
 10
79.63068611007066
 20
159.1584805352769
 30
0.0
 10
84.65599809938658
 20
159.1584805352769
 30
0.0
1001
ACAD
1000
DSTYLE
1002
{
1070
     5
1000

1070
   340
1005
2F2
1070
   147
1040
1.5
1070
    77
1070
     0
1002
}
  0
MTEXT
  5
1016
330
1F
100
AcDbEntity
  8
7标注层
 62
     3
100
AcDbMText
 10
82.19672493523194
 20
161.8541188401317
 30
0.0
 40
2.5
 41
0.0
 71
     5
 72
     1
  1
\A1;S2
  7
TH-GBD2M
  0
LEADER
  5
1017
330
1F
100
AcDbEntity
  8
7标注层
100
AcDbLeader
  3
TH-GBD2M
 76
     3
 10
66.05104216636164
 20
150.3462159813377
 30
0.0
 10
61.48512797950161
 20
159.1467003133076
 30
0.0
 10
56.45981599018569
 20
159.1467003133076
 30
0.0
211
-1.0
221
0.0
231
0.0
1001
ACAD
1000
DSTYLE
1002
{
1070
     5
1000

1070
   340
1005
2F2
1070
   147
1040
1.5
1070
    77
1070
     0
1002
}
  0
MTEXT
  5
1018
330
1F
100
AcDbEntity
  8
7标注层
 62
     3
100
AcDbMText
 10
58.69501357802937
 20
162.0208705453275
 30
0.0
 40
2.5
 41
0.0
 71
     5
 72
     1
  1
\A1;S1
  7
TH-GBD2M
  0
LINE
  5
1019
102
{ACAD_REACTORS
330
1046
102
}
330
1F
100
AcDbEntity
  8
1轮廓实线层
100
AcDbLine
 10
66.0510419954503
 20
162.8462163107801
 30
0.0
 11
66.0510419954503
 21
137.8462163107801
 31
0.0
  0
ARC
  5
101A
102
{ACAD_REACTORS
330
104C
102
}
330
1F
100
AcDbEntity
  8
1轮廓实线层
100
AcDbCircle
 10
375.0510419954503
 20
150.3462163107801
 30
0.0
 40
300.0
100
AcDbArc
 50
177.6119845367312
 51
182.3880154632688
  0
DIMENSION
  5
101B
330
1F
100
AcDbEntity
  8
7标注层
100
AcDbDimension
  2
*D89
 10
75.05111131870535
 20
170.13983436316
 30
0.0
 11
90.80418824178241
 21
170.13983436316
 31
0.0
 70
   160
  1
<>%%p0.20
  3
TH-GBD2M
100
AcDbAlignedDimension
 13
66.0510419954494
 23
150.3462163107589
 33
0.0
 14
75.05111131870535
 24
150.3462163107589
 34
0.0
100
AcDbRotatedDimension
1001
ACAD_DSTYLE_DIMINSPECT
1070
   396
1000
100%
1070
   395
1000

1070
   394
1070
    33
1070
   393
1070
     0
  0
DIMENSION
  5
101C
330
1F
100
AcDbEntity
  8
7标注层
100
AcDbDimension
  2
*D90
 10
75.31157178840431
 20
132.7416975359453
 30
0.0
 11
70.68130689192685
 21
132.7416975359453
 31
0.0
 70
   160
  3
TH-GBD2M
100
AcDbAlignedDimension
 13
66.0510419954494
 23
137.8462163107589
 33
0.0
 14
75.31157178840431
 24
137.8462163107587
 34
0.0
100
AcDbRotatedDimension
  0
LINE
  5
101D
102
{ACAD_REACTORS
330
1048
102
}
330
1F
100
AcDbEntity
  8
1轮廓实线层
100
AcDbLine
 10
66.0510419954503
 20
137.8462163107801
 30
0.0
 11
75.31157178840522
 21
137.8462163107801
 31
0.0
  0
LINE
  5
101E
102
{ACAD_REACTORS
330
1042
102
}
330
1F
100
AcDbEntity
  8
1轮廓实线层
100
AcDbLine
 10
66.0510419954503
 20
162.8462163107801
 30
0.0
 11
75.31157178840522
 21
162.8462163107801
 31
0.0
  0
DIMENSION
  5
101F
102
{ACAD_REACTORS
330
1030
102
}
102
{ACAD_XDICTIONARY
360
1193
102
}
330
1F
100
AcDbEntity
  8
ADSK_CONSTRAINTS
 60
     1
100
AcDbDimension
 10
2.251111542250783
 20
121.084889666591
 30
0.0
 11
2.251111542250783
 21
121.084889666591
 31
0.0
 70
   128
  1
d2=20
  3
ISO-25
100
AcDbAlignedDimension
 13
22.25111154225078
 23
103.1490042484075
 33
0.0
 14
2.251111542250783
 24
102.6479820228636
 34
0.0
100
AcDbRotatedDimension
  0
DIMENSION
  5
1020
102
{ACAD_REACTORS
330
1049
102
}
102
{ACAD_XDICTIONARY
360
1195
102
}
330
1F
100
AcDbEntity
  8
ADSK_CONSTRAINTS
 60
     1
100
AcDbDimension
 10
27.25458534138821
 20
-201.3282460406518
 30
0.0
 11
31.78017158292999
 21
91.86026823516096
 31
0.0
 70
   132
  1
半径1=300
  3
ISO-25
100
AcDbRadialDimension
 15
31.88476044580869
 25
98.63602096211304
 35
0.0
 40
0.0
1001
ACAD
1000
DSTYLE
1002
{
1070
   288
1070
     1
1002
}
1001
ACAD_DSTYLE_DIMRADIAL_EXTE
1070
   387
1070
     1
1070
   388
1040
0.6462361007784128
1070
   390
1040
2.510730858992122
  0
DIMENSION
  5
1021
102
{ACAD_REACTORS
330
1052
102
}
102
{ACAD_XDICTIONARY
360
1197
102
}
330
1F
100
AcDbEntity
  8
ADSK_CONSTRAINTS
 60
     1
100
AcDbDimension
 10
21.88382072061404
 20
157.137186147094
 30
0.0
 11
21.88382072061404
 21
157.137186147094
 31
0.0
 70
   128
  1
d1=20
  3
ISO-25
100
AcDbAlignedDimension
 13
1.883820720614494
 23
162.8462163107589
 33
0.0
 14
21.88382072061449
 24
162.8462163107589
 34
0.0
100
AcDbRotatedDimension
  0
DIMENSION
  5
1022
102
{ACAD_REACTORS
330
102C
102
}
102
{ACAD_XDICTIONARY
360
1199
102
}
330
1F
100
AcDbEntity
  8
ADSK_CONSTRAINTS
 60
     1
100
AcDbDimension
 10
27.25111154225078
 20
-201.3285365546465
 30
0.0
 11
85.43347995538097
 21
79.7850719436087
 31
0.0
 70
   132
  1
半径3=300
  3
ISO-25
100
AcDbRadialDimension
 15
106.810998730157
 25
87.92952184761745
 35
0.0
 40
0.0
1001
ACAD
1000
DSTYLE
1002
{
1070
   288
1070
     1
1002
}
1001
ACAD_DSTYLE_DIMRADIAL_EXTE
1070
   387
1070
     1
1070
   388
1040
1.357546453390195
1070
   390
1040
1.653637165106711
  0
DIMENSION
  5
1023
102
{ACAD_REACTORS
330
104E
102
}
102
{ACAD_XDICTIONARY
360
119B
102
}
330
1F
100
AcDbEntity
  8
ADSK_CONSTRAINTS
 60
     1
100
AcDbDimension
 10
6.06208557287755
 20
97.62798202286388
 30
0.0
 11
6.06208557287755
 21
97.62798202286388
 31
0.0
 70
   128
  1
d4=10.04
  3
ISO-25
100
AcDbAlignedDimension
 13
2.251111542250783
 23
107.6679820228636
 33
0.0
 14
2.251111542250783
 24
97.62798202286342
 34
0.0
 50
90.0
100
AcDbRotatedDimension
  0
DIMENSION
  5
1024
102
{ACAD_REACTORS
330
1034
102
}
102
{ACAD_XDICTIONARY
360
119D
102
}
330
1F
100
AcDbEntity
  8
ADSK_CONSTRAINTS
 60
     1
100
AcDbDimension
 10
52.25111154225033
 20
91.94455313221363
 30
0.0
 11
52.25111154225033
 21
91.94455313221363
 31
0.0
 70
   128
  1
d5=50
  3
ISO-25
100
AcDbAlignedDimension
 13
2.251111542250783
 23
97.62798202286342
 33
0.0
 14
52.25111154225078
 24
97.62798202286342
 34
0.0
100
AcDbRotatedDimension
  0
DIMENSION
  5
1025
102
{ACAD_REACTORS
330
103A
102
}
102
{ACAD_XDICTIONARY
360
119F
102
}
330
1F
100
AcDbEntity
  8
ADSK_CONSTRAINTS
 60
     1
100
AcDbDimension
 10
375.05104199545
 20
150.3462163107802
 30
0.0
 11
99.59794186901968
 21
125.9740922995913
 31
0.0
 70
   132
  1
半径2=300
  3
TH-GBD2M
100
AcDbRadialDimension
 15
76.21850146319389
 25
123.9054765511339
 35
0.0
 40
0.0
1001
ACAD
1000
DSTYLE
1002
{
1070
   288
1070
     1
1002
}
1001
ACAD_DSTYLE_DIMRADIAL_EXTE
1070
   387
1070
     1
1070
   388
1040
3.019949950077523
1070
   390
1040
3.263235357102063
  0
DIMENSION
  5
1026
102
{ACAD_REACTORS
330
1040
102
}
102
{ACAD_XDICTIONARY
360
11A1
102
}
330
1F
100
AcDbEntity
  8
ADSK_CONSTRAINTS
 60
     1
100
AcDbDimension
 10
60.31035551257446
 20
140.9782040558099
 30
0.0
 11
60.31035551257446
 21
140.9782040558099
 31
0.0
 70
   128
  1
d3=25
  3
TH-GBD2M
100
AcDbAlignedDimension
 13
70.68130689192776
 23
162.8462163107801
 33
0.0
 14
70.68130689192776
 24
137.8462163107801
 34
0.0
 50
90.0
100
AcDbRotatedDimension
  0
DIMENSION
  5
1027
102
{ACAD_REACTORS
330
1054
102
}
102
{ACAD_XDICTIONARY
360
11A3
102
}
330
1F
100
AcDbEntity
  8
ADSK_CONSTRAINTS
 60
     1
100
AcDbDimension
 10
75.0510419954503
 20
146.3058880517034
 30
0.0
 11
75.0510419954503
 21
146.3058880517034
 31
0.0
 70
   128
  1
d6=9
  3
TH-GBD2M
100
AcDbAlignedDimension
 13
66.0510419954503
 23
150.3462163107801
 33
0.0
 14
75.0510419954503
 24
150.3462163107801
 34
0.0
100
AcDbRotatedDimension
  0
ENDSEC
  0
SECTION
  2
OBJECTS
  0
DICTIONARY
  5
C
330
0
100
AcDbDictionary
  3
ACAD_ASSOCNETWORK
350
FD9
  3
ACAD_CIP_PREVIOUS_PRODUCT_INFO
350
216
  3
ACAD_COLOR
350
6B
  3
ACAD_DETAILVIEWSTYLE
350
21B
  3
ACAD_GROUP
350
D
  3
ACAD_LAYOUT
350
1A
  3
ACAD_MATERIAL
350
6A
  3
ACAD_MLEADERSTYLE
350
12D
  3
ACAD_MLINESTYLE
350
17
  3
ACAD_PLOTSETTINGS
350
19
  3
ACAD_RENDER_ACTIVE_RAPIDRT
350
602
  3
ACAD_RENDER_RAPIDRT_SETTINGS
350
5FB
  3
ACAD_SCALELIST
350
10C
  3
ACAD_SECTIONVIEWSTYLE
350
219
  3
ACAD_VISUALSTYLE
350
EF
  3
ACDB_RECOMPOSE_DATA
350
11AB
  3
ACDBHEADERROUNDTRIPXREC
350
116C
  3
ACDBVARIABLEDICTIONARY
350
5E
  3
DWGPROPS
350
1191
  0
DICTIONARY
  5
11A5
330
8
100
AcDbDictionary
280
     1
  3
ACAD_XREC_ROUNDTRIP
360
11A6
  0
DICTIONARY
  5
1FF
330
2
100
AcDbDictionary
280
     1
  3
ACAD_LAYERSTATES
360
200
  0
DICTIONARY
  5
1CE
330
1F
100
AcDbDictionary
280
     1
  3
ACAD_ASSOCNETWORK
360
10D5
  0
DICTIONARY
  5
FFE
330
FFD
100
AcDbDictionary
280
     1
  3
ACAD_MTEXT_RT
360
1192
  0
DICTIONARY
  5
1193
330
101F
100
AcDbDictionary
280
     1
  3
ACAD_XREC_ROUNDTRIP
360
1194
  0
DICTIONARY
  5
1195
330
1020
100
AcDbDictionary
280
     1
  3
ACAD_XREC_ROUNDTRIP
360
1196
  0
DICTIONARY
  5
1197
330
1021
100
AcDbDictionary
280
     1
  3
ACAD_XREC_ROUNDTRIP
360
1198
  0
DICTIONARY
  5
1199
330
1022
100
AcDbDictionary
280
     1
  3
ACAD_XREC_ROUNDTRIP
360
119A
  0
DICTIONARY
  5
119B
330
1023
100
AcDbDictionary
280
     1
  3
ACAD_XREC_ROUNDTRIP
360
119C
  0
DICTIONARY
  5
119D
330
1024
100
AcDbDictionary
280
     1
  3
ACAD_XREC_ROUNDTRIP
360
119E
  0
DICTIONARY
  5
119F
330
1025
100
AcDbDictionary
280
     1
  3
ACAD_XREC_ROUNDTRIP
360
11A0
  0
DICTIONARY
  5
11A1
330
1026
100
AcDbDictionary
280
     1
  3
ACAD_XREC_ROUNDTRIP
360
11A2
  0
DICTIONARY
  5
11A3
330
1027
100
AcDbDictionary
280
     1
  3
ACAD_XREC_ROUNDTRIP
360
11A4
  0
DICTIONARY
  5
FD9
102
{ACAD_REACTORS
330
C
102
}
330
C
100
AcDbDictionary
  3
ACAD_ASSOCNETWORK
350
FDA
  0
XRECORD
  5
216
102
{ACAD_REACTORS
330
C
102
}
330
C
100
AcDbXrecord
300
ACD
300
2021
300

  0
DICTIONARY
  5
6B
102
{ACAD_REACTORS
330
C
102
}
330
C
100
AcDbDictionary
  0
DICTIONARY
  5
21B
102
{ACAD_REACTORS
330
C
102
}
330
C
100
AcDbDictionary
  3
METRIC50
350
21C
  0
DICTIONARY
  5
D
102
{ACAD_REACTORS
330
C
102
}
330
C
100
AcDbDictionary
  0
DICTIONARY
  5
1A
102
{ACAD_REACTORS
330
C
102
}
330
C
100
AcDbDictionary
  0
DICTIONARY
  5
6A
102
{ACAD_REACTORS
330
C
102
}
330
C
100
AcDbDictionary
  3
BYBLOCK
350
ED
  3
BYLAYER
350
EC
  3
GLOBAL
350
EE
  0
DICTIONARY
  5
12D
102
{ACAD_REACTORS
330
C
102
}
330
C
100
AcDbDictionary
  3
ANNOTATIVE
350
13B
  3
STANDARD
350
12E
  0
DICTIONARY
  5
17
102
{ACAD_REACTORS
330
C
102
}
330
C
100
AcDbDictionary
  3
STANDARD
350
18
  0
DICTIONARY
  5
19
102
{ACAD_REACTORS
330
C
102
}
330
C
100
AcDbDictionary
  0
ACAD_PROXY_OBJECT
  5
602
102
{ACAD_REACTORS
330
C
102
}
330
C
100
AcDbProxyObject
 90
      499
 91
      525
 93
      375
310
40902D6D0B911D3A6D3C3203520B8F6E4D6C8BEBCB6B1F090390540501408000000000000084000000000000002102
  0
DICTIONARY
  5
5FB
102
{ACAD_REACTORS
330
C
102
}
330
C
100
AcDbDictionary
  3
茶歇质量
350
5FF
  3
低
350
5FC
  3
高
350
5FE
  3
午餐质量
350
600
  3
夜间质量
350
601
  3
中
350
5FD
  0
DICTIONARY
  5
10C
102
{ACAD_REACTORS
330
C
102
}
330
C
100
AcDbDictionary
  3
A0
350
10D
  3
A1
350
1BE
  3
A2
350
1BF
  3
A3
350
1C0
  3
A4
350
1C1
  3
A5
350
1C2
  3
A6
350
1C3
  3
A7
350
1C4
  3
A8
350
1C5
  3
A9
350
1C6
  3
B0
350
1C7
  3
B1
350
1C8
  3
B2
350
1C9
  3
B3
350
1CA
  3
B4
350
1CB
  3
B5
350
1CC
  3
B6
350
1CD
  0
DICTIONARY
  5
219
102
{ACAD_REACTORS
330
C
102
}
330
C
100
AcDbDictionary
  3
METRIC50
350
21A
  0
DICTIONARY
  5
EF
102
{ACAD_REACTORS
330
C
102
}
330
C
100
AcDbDictionary
  3
2DWIREFRAME
350
F5
  3
BASIC
350
F4
  3
BRIGHTEN
350
FB
  3
COLORCHANGE
350
FF
  3
CONCEPTUAL
350
F8
  3
DIM
350
FA
  3
EDGECOLOROFF
350
1E6
  3
FACEPATTERN
350
FE
  3
FLAT
350
F0
  3
FLATWITHEDGES
350
F1
  3
GOURAUD
350
F2
  3
GOURAUDWITHEDGES
350
F3
  3
HIDDEN
350
F7
  3
JITTEROFF
350
1E4
  3
LINEPATTERN
350
FD
  3
OVERHANGOFF
350
1E5
  3
REALISTIC
350
F9
  3
SHADED
350
1F3
  3
SHADED_WITH_EDGES
350
1F2
  3
SHADES_OF_GRAY
350
1EF
  3
SKETCHY
350
1F0
  3
THICKEN
350
FC
  3
WIREFRAME
350
F6
  3
X-RAY
350
1F1
  0
XRECORD
  5
11AB
102
{ACAD_REACTORS
330
C
102
}
330
C
100
AcDbXrecord
 90
        1
330
FFD
  0
DICTIONARY
  5
116C
102
{ACAD_REACTORS
330
C
102
}
330
C
100
AcDbDictionary
  3
CEPSNID
350
1176
  3
CEPSNTYPE
350
1175
  3
COLORDICT
350
118F
  3
DIMSTYLEDATA
350
118C
  3
FINGERPRINTGUID
350
1177
  3
HYPERLINKBASE
350
116F
  3
INSUNITS
350
1174
  3
LAYOUTDICT
350
1171
  3
LWETCUNION
350
1173
  3
MATERIALDICT
350
1190
  3
PLOTSETDICT
350
1172
  3
PSVPSCALE
350
1179
  3
PUCSBASE
350
117C
  3
PUCSORGBACK
350
1182
  3
PUCSORGBOTTOM
350
117E
  3
PUCSORGFRONT
350
1181
  3
PUCSORGLEFT
350
117F
  3
PUCSORGRIGHT
350
1180
  3
PUCSORGTOP
350
117D
  3
PUCSORTHOREF
350
117A
  3
PUCSORTHOVIEW
350
117B
  3
STYLESHEET
350
1170
  3
TSTACKALIGN
350
116D
  3
TSTACKSIZE
350
116E
  3
UCSBASE
350
1185
  3
UCSORGBACK
350
118B
  3
UCSORGBOTTOM
350
1187
  3
UCSORGFRONT
350
118A
  3
UCSORGLEFT
350
1188
  3
UCSORGRIGHT
350
1189
  3
UCSORGTOP
350
1186
  3
UCSORTHOREF
350
1183
  3
UCSORTHOVIEW
350
1184
  3
VERSIONGUID
350
1178
  0
DICTIONARY
  5
5E
102
{ACAD_REACTORS
330
C
102
}
330
C
100
AcDbDictionary
  3
CANNOSCALE
350
146
  3
CENTEREXE
350
259
  3
CENTERLTYPEFILE
350
25A
  3
CMLEADERSTYLE
350
145
  3
CTABLESTYLE
350
84
  3
CVIEWDETAILSTYLE
350
227
  3
CVIEWSECTIONSTYLE
350
228
  3
DIMASSOC
350
5F
  3
HIDETEXT
350
63
  3
LAYEREVAL
350
1AE
  3
LAYERNOTIFY
350
1AF
  3
MSLTSCALE
350
11A7
  3
PSOLHEIGHT
350
118E
  3
PSOLWIDTH
350
118D
  0
XRECORD
  5
1191
102
{ACAD_REACTORS
330
C
102
}
330
C
100
AcDbXrecord
  1
DWGPROPS COOKIE
  2

  3

  4

  6

  7

  8
MSI
  9

300
=
301
=
302
=
303
=
304
=
305
=
306
=
307
=
308
=
309
=
 40
0.0
 41
2460229.31099537
 42
2460669.129097604
  1

 90
        0
  0
XRECORD
  5
11A6
102
{ACAD_REACTORS
330
11A5
102
}
330
11A5
100
AcDbXrecord
102
VTR_0.000_0.000_1.000_1.000_VISUALSTYLE
340
F5
102
VTR_0.000_0.000_1.000_1.000_GRIDDISPLAY
 70
     3
102
VTR_0.000_0.000_1.000_1.000_GRIDMAJOR
 70
     5
102
VTR_0.000_0.000_1.000_1.000_DEFAULTLIGHTING
280
     1
102
VTR_0.000_0.000_1.000_1.000_DEFAULTLIGHTINGTYPE
 70
     1
102
VTR_0.000_0.000_1.000_1.000_BRIGHTNESS
141
0.0
102
VTR_0.000_0.000_1.000_1.000_CONTRAST
142
0.0
  0
DICTIONARY
  5
200
102
{ACAD_REACTORS
330
1FF
102
}
330
1FF
100
AcDbDictionary
  0
DICTIONARY
  5
10D5
102
{ACAD_REACTORS
330
1CE
102
}
330
1CE
100
AcDbDictionary
  3
ACAD_ASSOCNETWORK
350
10D6
  0
XRECORD
  5
1192
102
{ACAD_REACTORS
330
FFE
102
}
330
FFE
100
AcDbXrecord
 40
116758.0
  1
\pxqj;{\fSimSun|b1|i0|c134|p49;\C1;注：\P1：本图仅供参考,禁止使用本图加工生产.\P2：图纸细节如有更改不再另行通知.}
  0
XRECORD
  5
1194
102
{ACAD_REACTORS
330
1193
102
}
330
1193
100
AcDbXrecord
102
ISDYNAMIC
 70
     1
  0
XRECORD
  5
1196
102
{ACAD_REACTORS
330
1195
102
}
330
1195
100
AcDbXrecord
102
ISDYNAMIC
 70
     1
  0
XRECORD
  5
1198
102
{ACAD_REACTORS
330
1197
102
}
330
1197
100
AcDbXrecord
102
ISDYNAMIC
 70
     1
  0
XRECORD
  5
119A
102
{ACAD_REACTORS
330
1199
102
}
330
1199
100
AcDbXrecord
102
ISDYNAMIC
 70
     1
  0
XRECORD
  5
119C
102
{ACAD_REACTORS
330
119B
102
}
330
119B
100
AcDbXrecord
102
ISDYNAMIC
 70
     1
  0
XRECORD
  5
119E
102
{ACAD_REACTORS
330
119D
102
}
330
119D
100
AcDbXrecord
102
ISDYNAMIC
 70
     1
  0
XRECORD
  5
11A0
102
{ACAD_REACTORS
330
119F
102
}
330
119F
100
AcDbXrecord
102
ISDYNAMIC
 70
     1
  0
XRECORD
  5
11A2
102
{ACAD_REACTORS
330
11A1
102
}
330
11A1
100
AcDbXrecord
102
ISDYNAMIC
 70
     1
  0
XRECORD
  5
11A4
102
{ACAD_REACTORS
330
11A3
102
}
330
11A3
100
AcDbXrecord
102
ISDYNAMIC
 70
     1
  0
ACAD_PROXY_OBJECT
  5
FDA
102
{ACAD_REACTORS
330
FD9
102
}
330
FD9
100
AcDbProxyObject
 90
      499
 91
      529
 93
       52
310
40AAAAA4090140
330
0
360
0
330
10D6
 94
        0
1001
ACAD
1000
AcadProxyRoundTripData
1071
      523
1071
 11403297
1070
     0
  0
ACAD_PROXY_OBJECT
  5
21C
102
{ACAD_REACTORS
330
21B
102
}
330
21B
100
AcDbProxyObject
 90
      499
 91
      516
 93
      877
310
9084D65747269633530481E0000000000000A20500E0000000000000A20233E0000000000000A20400000000000017202029B929E2E20B1AB30B9102B34B2BBA232BA30B4B624B21F129014129E2E20B1AB30B9102B34B2BBA9B1B0B632902E33101112B9B7111F1294A33A33800
340
11
340
0
340
16
340
11
340
16
340
16
 94
        0
  0
MATERIAL
  5
ED
102
{ACAD_REACTORS
330
6A
102
}
102
{ACAD_XDICTIONARY
360
1F9
102
}
330
6A
100
AcDbMaterial
  1
BYBLOCK
 73
     2
 78
     2
172
     2
176
     2
270
     2
274
     2
  0
MATERIAL
  5
EC
102
{ACAD_REACTORS
330
6A
102
}
102
{ACAD_XDICTIONARY
360
1F7
102
}
330
6A
100
AcDbMaterial
  1
BYLAYER
 73
     2
 78
     2
172
     2
176
     2
270
     2
274
     2
  0
MATERIAL
  5
EE
102
{ACAD_REACTORS
330
6A
102
}
102
{ACAD_XDICTIONARY
360
173
102
}
330
6A
100
AcDbMaterial
  1
GLOBAL
 73
     2
 43
0.0007999999797903
 43
0.0
 43
0.0
 43
0.0
 43
0.0
 43
0.0007999999797903
 43
0.0
 43
0.0
 43
0.0
 43
0.0
 43
1.0
 43
0.0
 43
0.0
 43
0.0
 43
0.0
 43
1.0
 78
     2
172
     2
 49
0.0007999999797903
 49
0.0
 49
0.0
 49
0.0
 49
0.0
 49
0.0007999999797903
 49
0.0
 49
0.0
 49
0.0
 49
0.0
 49
1.0
 49
0.0
 49
0.0
 49
0.0
 49
0.0
 49
1.0
176
     2
142
0.0007999999797903
142
0.0
142
0.0
142
0.0
142
0.0
142
0.0007999999797903
142
0.0
142
0.0
142
0.0
142
0.0
142
1.0
142
0.0
142
0.0
142
0.0
142
0.0
142
1.0
270
     2
144
0.0007999999797903
144
0.0
144
0.0
144
0.0
144
0.0
144
0.0007999999797903
144
0.0
144
0.0
144
0.0
144
0.0
144
1.0
144
0.0
144
0.0
144
0.0
144
0.0
144
1.0
274
     2
1001
ACAD
1070
    -1
1070
     3
1070
     0
1000

1071
        0
1070
     0
  0
ACAD_PROXY_OBJECT
  5
13B
102
{ACAD_REACTORS
330
12D
102
}
330
12D
100
AcDbProxyObject
 90
      499
 91
      508
 93
      610
310
40901902A4063FBFFFFFE0000000000000020400000000000020404214DD185B99185C990000000000000104090140501A00000000000004100000000000000041025766000000000000039000
340
14
340
0
340
11
340
0
 94
        0
1001
ACAD_MLEADERVER
1070
     2
  0
ACAD_PROXY_OBJECT
  5
12E
102
{ACAD_REACTORS
330
12D
102
}
330
12D
100
AcDbProxyObject
 90
      499
 91
      508
 93
      610
310
40901902A4063FBFFFFFE0000000000000020400000000000020404214DD185B99185C990000000000000104090140501A00000000000004100000000000000041025764000000000000039000
340
14
340
0
340
11
340
0
 94
        0
1001
ACAD_MLEADERVER
1070
     2
  0
MLINESTYLE
  5
18
102
{ACAD_REACTORS
330
17
102
}
330
17
100
AcDbMlineStyle
  2
STANDARD
 70
     0
  3

 62
   256
 51
90.0
 52
90.0
 71
     2
 49
0.5
 62
   256
  6
BYLAYER
 49
-0.5
 62
   256
  6
BYLAYER
  0
ACAD_PROXY_OBJECT
  5
5FF
102
{ACAD_REACTORS
330
5FB
102
}
330
5FB
100
AcDbProxyObject
 90
      499
 91
      525
 93
      399
310
40908B2E8D0AAD6CAC1BFB90CE4D6C8BE20313020B7D6D6D340D034050142901408000000000000084000000000000002102
  0
ACAD_PROXY_OBJECT
  5
5FC
102
{ACAD_REACTORS
330
5FB
102
}
330
5FB
100
AcDbProxyObject
 90
      499
 91
      525
 93
      367
310
40902B5CDB911D3A6D3C3203120B8F6E4D6C8BEBCB6B1F0903901406408000000000000084000000000000002102
  0
ACAD_PROXY_OBJECT
  5
5FE
102
{ACAD_REACTORS
330
5FB
102
}
330
5FB
100
AcDbProxyObject
 90
      499
 91
      525
 93
      391
310
40902B8DFB912D3A6D3C320313020B8F6E4D6C8BEBCB6B1F04090390A40502408000000000000084000000000000002102
  0
ACAD_PROXY_OBJECT
  5
600
102
{ACAD_REACTORS
330
5FB
102
}
330
5FB
100
AcDbProxyObject
 90
      499
 91
      525
 93
      399
310
40908CEE7B2CDD6CAC1BFB90CE4D6C8BE20363020B7D6D6D341103405014F102408000000000000084000000000000002102
  0
ACAD_PROXY_OBJECT
  5
601
102
{ACAD_REACTORS
330
5FB
102
}
330
5FB
100
AcDbProxyObject
 90
      499
 91
      525
 93
      423
310
40908D2B9BCE4D6CAC1BFB90CE4D6C8BE20313220D0A1CAB1415034050134008000102408000000000000084000000000000002102
  0
ACAD_PROXY_OBJECT
  5
5FD
102
{ACAD_REACTORS
330
5FB
102
}
330
5FB
100
AcDbProxyObject
 90
      499
 91
      525
 93
      383
310
40902D6D0B911D3A6D3C3203520B8F6E4D6C8BEBCB6B1F04050390540501408000000000000084000000000000002102
  0
ACAD_PROXY_OBJECT
  5
10D
102
{ACAD_REACTORS
330
10C
102
}
330
10C
100
AcDbProxyObject
 90
      499
 91
      507
 93
       41
310
903313A31580
  0
ACAD_PROXY_OBJECT
  5
1BE
102
{ACAD_REACTORS
330
10C
102
}
330
10C
100
AcDbProxyObject
 90
      499
 91
      507
 93
      105
310
903313A324000000000000004000
  0
ACAD_PROXY_OBJECT
  5
1BF
102
{ACAD_REACTORS
330
10C
102
}
330
10C
100
AcDbProxyObject
 90
      499
 91
      507
 93
      105
310
903313A344000000000000104000
  0
ACAD_PROXY_OBJECT
  5
1C0
102
{ACAD_REACTORS
330
10C
102
}
330
10C
100
AcDbProxyObject
 90
      499
 91
      507
 93
      105
310
903313A354000000000000144000
  0
ACAD_PROXY_OBJECT
  5
1C1
102
{ACAD_REACTORS
330
10C
102
}
330
10C
100
AcDbProxyObject
 90
      499
 91
      507
 93
      105
310
903313A384000000000000204000
  0
ACAD_PROXY_OBJECT
  5
1C2
102
{ACAD_REACTORS
330
10C
102
}
330
10C
100
AcDbProxyObject
 90
      499
 91
      507
 93
      113
310
904313A31304000000000000244000
  0
ACAD_PROXY_OBJECT
  5
1C3
102
{ACAD_REACTORS
330
10C
102
}
330
10C
100
AcDbProxyObject
 90
      499
 91
      507
 93
      113
310
904313A31364000000000000304000
  0
ACAD_PROXY_OBJECT
  5
1C4
102
{ACAD_REACTORS
330
10C
102
}
330
10C
100
AcDbProxyObject
 90
      499
 91
      507
 93
      113
310
904313A32304000000000000344000
  0
ACAD_PROXY_OBJECT
  5
1C5
102
{ACAD_REACTORS
330
10C
102
}
330
10C
100
AcDbProxyObject
 90
      499
 91
      507
 93
      113
310
904313A333040000000000003E4000
  0
ACAD_PROXY_OBJECT
  5
1C6
102
{ACAD_REACTORS
330
10C
102
}
330
10C
100
AcDbProxyObject
 90
      499
 91
      507
 93
      113
310
904313A34304000000000000444000
  0
ACAD_PROXY_OBJECT
  5
1C7
102
{ACAD_REACTORS
330
10C
102
}
330
10C
100
AcDbProxyObject
 90
      499
 91
      507
 93
      113
310
904313A35304000000000000494000
  0
ACAD_PROXY_OBJECT
  5
1C8
102
{ACAD_REACTORS
330
10C
102
}
330
10C
100
AcDbProxyObject
 90
      499
 91
      507
 93
      121
310
905313A3130304000000000000594000
  0
ACAD_PROXY_OBJECT
  5
1C9
102
{ACAD_REACTORS
330
10C
102
}
330
10C
100
AcDbProxyObject
 90
      499
 91
      507
 93
      105
310
903323A310000000000000010100
  0
ACAD_PROXY_OBJECT
  5
1CA
102
{ACAD_REACTORS
330
10C
102
}
330
10C
100
AcDbProxyObject
 90
      499
 91
      507
 93
      105
310
903343A310000000000000410100
  0
ACAD_PROXY_OBJECT
  5
1CB
102
{ACAD_REACTORS
330
10C
102
}
330
10C
100
AcDbProxyObject
 90
      499
 91
      507
 93
      105
310
903383A310000000000000810100
  0
ACAD_PROXY_OBJECT
  5
1CC
102
{ACAD_REACTORS
330
10C
102
}
330
10C
100
AcDbProxyObject
 90
      499
 91
      507
 93
      113
310
90431303A310000000000000910100
  0
ACAD_PROXY_OBJECT
  5
1CD
102
{ACAD_REACTORS
330
10C
102
}
330
10C
100
AcDbProxyObject
 90
      499
 91
      507
 93
      121
310
9053130303A310000000000001650100
  0
ACAD_PROXY_OBJECT
  5
21A
102
{ACAD_REACTORS
330
219
102
}
330
219
100
AcDbProxyObject
 90
      499
 91
      515
 93
     2015
310
9084D657472696335304B360000000000000A2060000000000000A202209258409E5840A25840A65840B05840B40000000000001220233A65800000000000028800000000000000A2060000000000000A2040000000000001720202AC929E2E20B1AB30B9102B34B2BBA9B2B1BA34B7B729BA30B93A24B21F1296929E2E20B
310
1AB30B9102B34B2BBA9B2B1BA34B7B722B73224B21F129014129E2E20B1AB30B9102B34B2BBA9B1B0B632902E33101112B9B7111F1294E0080A0C829CA6926662C400000000000002204000000000000022020D0305A88A9F643F27E32B9969C2960E81F87FA0718D4DE3E87E32B9969C2960E85F9E5129FC49EA5FA7E
340
11
340
0
340
0
340
16
340
16
340
11
 94
        0
  0
ACAD_PROXY_OBJECT
  5
F5
102
{ACAD_REACTORS
330
EF
102
}
330
EF
100
AcDbProxyObject
 90
      499
 91
      506
 93
      444
310
42CC9915DA5C99599C985B59504902404333333333333E33F0000000000000F90107901411070040501600405405064090741402480A0340
1001
ACAD
1000
AcDbSavedByObjectVersion
1070
     0
  0
ACAD_PROXY_OBJECT
  5
F4
102
{ACAD_REACTORS
330
EF
102
}
330
EF
100
AcDbProxyObject
 90
      499
 91
      506
 93
      388
310
4150985CDA58D07406404333333333333E33F0000000000000F90107A41107004050150841D405064090741402480A0350
1001
ACAD
1000
AcDbSavedByObjectVersion
1070
     0
  0
ACAD_PROXY_OBJECT
  5
FB
102
{ACAD_REACTORS
330
EF
102
}
330
EF
100
AcDbProxyObject
 90
      499
 91
      506
 93
      436
310
42109C9A59DA1D195B90C40902404333333333333E33F0000000000000F9010790141107004050150841D405064090741402480A029950
1001
ACAD
1000
AcDbSavedByObjectVersion
1070
     0
  0
ACAD_PROXY_OBJECT
  5
FF
102
{ACAD_REACTORS
330
EF
102
}
330
EF
100
AcDbProxyObject
 90
      499
 91
      506
 93
      452
310
42D0DBDB1BDC90DA185B99D95104090240C333333333333E33F0000000000000F90108901411070040501508421405064090741402480A0350
1001
ACAD
1000
AcDbSavedByObjectVersion
1070
     0
  0
ACAD_PROXY_OBJECT
  5
F8
102
{ACAD_REACTORS
330
EF
102
}
330
EF
100
AcDbProxyObject
 90
      499
 91
      506
 93
      508
310
4290DBDB98D95C1D1D585B10940D02404333333333333E33F0000000000000F90107902409070040501000000000000111010841D405064090740C02480A0340
1001
ACAD
1000
AcDbSavedByObjectVersion
1070
     0
  0
ACAD_PROXY_OBJECT
  5
FA
102
{ACAD_REACTORS
330
EF
102
}
330
EF
100
AcDbProxyObject
 90
      499
 91
      506
 93
      420
310
40D11A5B50B40902404333333333333E33F0000000000000F9010790141107004050150841D405064090741402480A02677FFFFFD0
1001
ACAD
1000
AcDbSavedByObjectVersion
1070
     0
  0
ACAD_PROXY_OBJECT
  5
1E6
102
{ACAD_REACTORS
330
EF
102
}
330
EF
100
AcDbProxyObject
 90
      499
 91
      506
 93
      452
310
43115919D950DBDB1BDC93D999916409028333333333333E33F0000000000000F9010790141107004050150841D405064090741402480A0350
1001
ACAD
1000
AcDbSavedByObjectVersion
1070
     0
  0
ACAD_PROXY_OBJECT
  5
FE
102
{ACAD_REACTORS
330
EF
102
}
330
EF
100
AcDbProxyObject
 90
      499
 91
      506
 93
      452
310
42D19858D95C185D1D195C9B90F40902404333333333333E33F0000000000000F9010790141107004050150841D405064090741402480A0350
1001
ACAD
1000
AcDbSavedByObjectVersion
1070
     0
  0
ACAD_PROXY_OBJECT
  5
F0
102
{ACAD_REACTORS
330
EF
102
}
330
EF
100
AcDbProxyObject
 90
      499
 91
      506
 93
      380
310
41119B185D240901404333333333333E33F0000000000000F9010740A907004050150841D405064090741402480A1B50
1001
ACAD
1000
AcDbSavedByObjectVersion
1070
     0
  0
ACAD_PROXY_OBJECT
  5
F1
102
{ACAD_REACTORS
330
EF
102
}
330
EF
100
AcDbProxyObject
 90
      499
 91
      506
 93
      468
310
43519B185D15DA5D1A115919D95CD0140901404333333333333E33F0000000000000F90107409019070040501600405405064090741402480A1B50
1001
ACAD
1000
AcDbSavedByObjectVersion
1070
     0
  0
ACAD_PROXY_OBJECT
  5
F2
102
{ACAD_REACTORS
330
EF
102
}
330
EF
100
AcDbProxyObject
 90
      499
 91
      506
 93
      404
310
41D1DBDD5C985D5910240902404333333333333E33F0000000000000F9010740A9070040501641D405064090741402480A1B50
1001
ACAD
1000
AcDbSavedByObjectVersion
1070
     0
  0
ACAD_PROXY_OBJECT
  5
F3
102
{ACAD_REACTORS
330
EF
102
}
330
EF
100
AcDbProxyObject
 90
      499
 91
      506
 93
      492
310
4411DBDD5C985D5915DA5D1A115919D95CD0340902404333333333333E33F0000000000000F90107409019070040501600405405064090741402480A1B50
1001
ACAD
1000
AcDbSavedByObjectVersion
1070
     0
  0
ACAD_PROXY_OBJECT
  5
F7
102
{ACAD_REACTORS
330
EF
102
}
330
EF
100
AcDbProxyObject
 90
      499
 91
      506
 93
      476
310
41921A5919195B90640502408333333333333E33F0000000000000F901079024090700405020000000000001110200405405064090740C02480A0340
1001
ACAD
1000
AcDbSavedByObjectVersion
1070
     0
  0
ACAD_PROXY_OBJECT
  5
1E4
102
{ACAD_REACTORS
330
EF
102
}
330
EF
100
AcDbProxyObject
 90
      499
 91
      506
 93
      428
310
42529A5D1D195C93D999914409028333333333333E33F0000000000000F9010790141107004050150A41D405064090741402480A0350
1001
ACAD
1000
AcDbSavedByObjectVersion
1070
     0
  0
ACAD_PROXY_OBJECT
  5
FD
102
{ACAD_REACTORS
330
EF
102
}
330
EF
100
AcDbProxyObject
 90
      499
 91
      506
 93
      452
310
42D31A5B995C185D1D195C9B90E40902404333333333333E33F0000000000000F9010790141107004050750841D405064090741402483A0350
1001
ACAD
1000
AcDbSavedByObjectVersion
1070
     0
  0
ACAD_PROXY_OBJECT
  5
1E5
102
{ACAD_REACTORS
330
EF
102
}
330
EF
100
AcDbProxyObject
 90
      499
 91
      506
 93
      444
310
42D3DD995C9A185B99D3D999915409028333333333333E33F0000000000000F9010790141107004050150941D405064090741402480A0350
1001
ACAD
1000
AcDbSavedByObjectVersion
1070
     0
  0
ACAD_PROXY_OBJECT
  5
F9
102
{ACAD_REACTORS
330
EF
102
}
330
EF
100
AcDbProxyObject
 90
      499
 91
      506
 93
      428
310
425499585B1A5CDD1A58D08409038333333333333E33F0000000000000F9010740A907004050150800405405064090740C02480A1B40
1001
ACAD
1000
AcDbSavedByObjectVersion
1070
     0
  0
ACAD_PROXY_OBJECT
  5
1F3
102
{ACAD_REACTORS
330
EF
102
}
330
EF
100
AcDbProxyObject
 90
      499
 91
      506
 93
      420
310
4194DA1859195911B40902404333333333333E33F0000000000000F9010740A41107004050150800405405064090840C02480A0B40
1001
ACAD
1000
AcDbSavedByObjectVersion
1070
     0
  0
ACAD_PROXY_OBJECT
  5
1F2
102
{ACAD_REACTORS
330
EF
102
}
330
EF
100
AcDbProxyObject
 90
      499
 91
      506
 93
      516
310
4454DA18591959081DDA5D1A08195919D95CD1A40902404333333333333E33F0000000000000F901074090140907004050250800405405064090740C02480A0B40
1001
ACAD
1000
AcDbSavedByObjectVersion
1070
     0
  0
ACAD_PROXY_OBJECT
  5
1EF
102
{ACAD_REACTORS
330
EF
102
}
330
EF
100
AcDbProxyObject
 90
      499
 91
      506
 93
      532
310
4394DA1859195CC81BD98811DC985E5174090240C333333333333E33F0000000000000F901079024090741D01000000000000111010841D405064090740C02480A0340
1001
ACAD
1000
AcDbSavedByObjectVersion
1070
     0
  0
ACAD_PROXY_OBJECT
  5
1F0
102
{ACAD_REACTORS
330
EF
102
}
330
EF
100
AcDbProxyObject
 90
      499
 91
      506
 93
      476
310
41D4DAD95D18DA1E51840502408333333333333E33F0000000000000F901079024090741D01000000000000111010B41D405064090741802480A0340
1001
ACAD
1000
AcDbSavedByObjectVersion
1070
     0
  0
ACAD_PROXY_OBJECT
  5
FC
102
{ACAD_REACTORS
330
EF
102
}
330
EF
100
AcDbProxyObject
 90
      499
 91
      506
 93
      420
310
41D51A1A58DAD95B90D40902404333333333333E33F0000000000000F9010790141107004050150C41D405064090741402480A0350
1001
ACAD
1000
AcDbSavedByObjectVersion
1070
     0
  0
ACAD_PROXY_OBJECT
  5
F6
102
{ACAD_REACTORS
330
EF
102
}
330
EF
100
AcDbProxyObject
 90
      499
 91
      506
 93
      420
310
4255DA5C99599C985B595059028333333333333E33F0000000000000F90107901411070040501600405405064090740C02480A0340
1001
ACAD
1000
AcDbSavedByObjectVersion
1070
     0
  0
ACAD_PROXY_OBJECT
  5
1F1
102
{ACAD_REACTORS
330
EF
102
}
330
EF
100
AcDbProxyObject
 90
      499
 91
      506
 93
      404
310
41560B54985E51940902404000000000000E03F0000000000000F9010740501907004050150841D405064090740C02480A1B40
1001
ACAD
1000
AcDbSavedByObjectVersion
1070
     0
  0
XRECORD
  5
1176
102
{ACAD_REACTORS
330
116C
102
}
330
116C
100
AcDbXrecord
340
0
  0
XRECORD
  5
1175
102
{ACAD_REACTORS
330
116C
102
}
330
116C
100
AcDbXrecord
 90
        0
  0
XRECORD
  5
118F
102
{ACAD_REACTORS
330
116C
102
}
330
116C
100
AcDbXrecord
340
6B
  0
XRECORD
  5
118C
102
{ACAD_REACTORS
330
116C
102
}
330
116C
100
AcDbXrecord
1000
DSTYLE
1002
{
1070
   340
340
11
1002
}
  0
XRECORD
  5
1177
102
{ACAD_REACTORS
330
116C
102
}
330
116C
100
AcDbXrecord
  1
{EFBEC424-D292-1F4A-9D15-D86478B7194F}
  0
XRECORD
  5
116F
102
{ACAD_REACTORS
330
116C
102
}
330
116C
100
AcDbXrecord
  1

  0
XRECORD
  5
1174
102
{ACAD_REACTORS
330
116C
102
}
330
116C
100
AcDbXrecord
 90
        4
  0
XRECORD
  5
1171
102
{ACAD_REACTORS
330
116C
102
}
330
116C
100
AcDbXrecord
340
1A
  0
XRECORD
  5
1173
102
{ACAD_REACTORS
330
116C
102
}
330
116C
100
AcDbXrecord
 90
    10781
  0
XRECORD
  5
1190
102
{ACAD_REACTORS
330
116C
102
}
330
116C
100
AcDbXrecord
340
6A
  0
XRECORD
  5
1172
102
{ACAD_REACTORS
330
116C
102
}
330
116C
100
AcDbXrecord
340
19
  0
XRECORD
  5
1179
102
{ACAD_REACTORS
330
116C
102
}
330
116C
100
AcDbXrecord
 40
0.0
  0
XRECORD
  5
117C
102
{ACAD_REACTORS
330
116C
102
}
330
116C
100
AcDbXrecord
340
0
  0
XRECORD
  5
1182
102
{ACAD_REACTORS
330
116C
102
}
330
116C
100
AcDbXrecord
 10
0.0
 20
0.0
 30
0.0
  0
XRECORD
  5
117E
102
{ACAD_REACTORS
330
116C
102
}
330
116C
100
AcDbXrecord
 10
0.0
 20
0.0
 30
0.0
  0
XRECORD
  5
1181
102
{ACAD_REACTORS
330
116C
102
}
330
116C
100
AcDbXrecord
 10
0.0
 20
0.0
 30
0.0
  0
XRECORD
  5
117F
102
{ACAD_REACTORS
330
116C
102
}
330
116C
100
AcDbXrecord
 10
0.0
 20
0.0
 30
0.0
  0
XRECORD
  5
1180
102
{ACAD_REACTORS
330
116C
102
}
330
116C
100
AcDbXrecord
 10
0.0
 20
0.0
 30
0.0
  0
XRECORD
  5
117D
102
{ACAD_REACTORS
330
116C
102
}
330
116C
100
AcDbXrecord
 10
0.0
 20
0.0
 30
0.0
  0
XRECORD
  5
117A
102
{ACAD_REACTORS
330
116C
102
}
330
116C
100
AcDbXrecord
340
0
  0
XRECORD
  5
117B
102
{ACAD_REACTORS
330
116C
102
}
330
116C
100
AcDbXrecord
 70
     0
  0
XRECORD
  5
1170
102
{ACAD_REACTORS
330
116C
102
}
330
116C
100
AcDbXrecord
  1

  0
XRECORD
  5
116D
102
{ACAD_REACTORS
330
116C
102
}
330
116C
100
AcDbXrecord
 90
        1
  0
XRECORD
  5
116E
102
{ACAD_REACTORS
330
116C
102
}
330
116C
100
AcDbXrecord
 90
       70
  0
XRECORD
  5
1185
102
{ACAD_REACTORS
330
116C
102
}
330
116C
100
AcDbXrecord
340
0
  0
XRECORD
  5
118B
102
{ACAD_REACTORS
330
116C
102
}
330
116C
100
AcDbXrecord
 10
0.0
 20
0.0
 30
0.0
  0
XRECORD
  5
1187
102
{ACAD_REACTORS
330
116C
102
}
330
116C
100
AcDbXrecord
 10
0.0
 20
0.0
 30
0.0
  0
XRECORD
  5
118A
102
{ACAD_REACTORS
330
116C
102
}
330
116C
100
AcDbXrecord
 10
0.0
 20
0.0
 30
0.0
  0
XRECORD
  5
1188
102
{ACAD_REACTORS
330
116C
102
}
330
116C
100
AcDbXrecord
 10
0.0
 20
0.0
 30
0.0
  0
XRECORD
  5
1189
102
{ACAD_REACTORS
330
116C
102
}
330
116C
100
AcDbXrecord
 10
0.0
 20
0.0
 30
0.0
  0
XRECORD
  5
1186
102
{ACAD_REACTORS
330
116C
102
}
330
116C
100
AcDbXrecord
 10
0.0
 20
0.0
 30
0.0
  0
XRECORD
  5
1183
102
{ACAD_REACTORS
330
116C
102
}
330
116C
100
AcDbXrecord
340
0
  0
XRECORD
  5
1184
102
{ACAD_REACTORS
330
116C
102
}
330
116C
100
AcDbXrecord
 70
     0
  0
XRECORD
  5
1178
102
{ACAD_REACTORS
330
116C
102
}
330
116C
100
AcDbXrecord
  1
{58F12991-9F11-2142-BE10-4F0DA724817A}
  0
DICTIONARYVAR
  5
146
102
{ACAD_REACTORS
330
5E
102
}
330
5E
100
DictionaryVariables
280
     0
  1
1:1
  0
DICTIONARYVAR
  5
259
102
{ACAD_REACTORS
330
5E
102
}
330
5E
100
DictionaryVariables
280
     0
  1
3.500000
  0
DICTIONARYVAR
  5
25A
102
{ACAD_REACTORS
330
5E
102
}
330
5E
100
DictionaryVariables
280
     0
  1
acadiso.lin
  0
DICTIONARYVAR
  5
145
102
{ACAD_REACTORS
330
5E
102
}
330
5E
100
DictionaryVariables
280
     0
  1
Standard
  0
DICTIONARYVAR
  5
84
102
{ACAD_REACTORS
330
5E
102
}
330
5E
100
DictionaryVariables
280
     0
  1
Standard
  0
DICTIONARYVAR
  5
227
102
{ACAD_REACTORS
330
5E
102
}
330
5E
100
DictionaryVariables
280
     0
  1
Metric50
  0
DICTIONARYVAR
  5
228
102
{ACAD_REACTORS
330
5E
102
}
330
5E
100
DictionaryVariables
280
     0
  1
Metric50
  0
DICTIONARYVAR
  5
5F
102
{ACAD_REACTORS
330
5E
102
}
330
5E
100
DictionaryVariables
280
     0
  1
2
  0
DICTIONARYVAR
  5
63
102
{ACAD_REACTORS
330
5E
102
}
330
5E
100
DictionaryVariables
280
     0
  1
1
  0
DICTIONARYVAR
  5
1AE
102
{ACAD_REACTORS
330
5E
102
}
330
5E
100
DictionaryVariables
280
     0
  1
0
  0
DICTIONARYVAR
  5
1AF
102
{ACAD_REACTORS
330
5E
102
}
330
5E
100
DictionaryVariables
280
     0
  1
0
  0
DICTIONARYVAR
  5
11A7
102
{ACAD_REACTORS
330
5E
102
}
330
5E
100
DictionaryVariables
280
     0
  1
1
  0
DICTIONARYVAR
  5
118E
102
{ACAD_REACTORS
330
5E
102
}
330
5E
100
DictionaryVariables
280
     0
  1
80.000000
  0
DICTIONARYVAR
  5
118D
102
{ACAD_REACTORS
330
5E
102
}
330
5E
100
DictionaryVariables
280
     0
  1
5.000000
  0
ACAD_PROXY_OBJECT
  5
10D6
102
{ACAD_REACTORS
330
10D5
102
}
330
10D5
100
AcDbProxyObject
 90
      499
 91
      529
 93
       69
310
40A40AAAA4950AFFE0
330
FDA
360
0
360
102A
360
1056
360
1057
360
1058
360
1059
360
105A
360
105B
360
105C
360
105D
360
105E
 94
        0
1001
ACAD
1000
AcadProxyRoundTripData
1071
      523
1071
 11403297
1070
     0
  0
DICTIONARY
  5
1F9
330
ED
100
AcDbDictionary
280
     1
  3
ACAD_XREC_ROUNDTRIP
360
11A8
  3
FBXASSET
360
1FA
  0
DICTIONARY
  5
1F7
330
EC
100
AcDbDictionary
280
     1
  3
ACAD_XREC_ROUNDTRIP
360
11A9
  3
FBXASSET
360
1F8
  0
DICTIONARY
  5
173
330
EE
100
AcDbDictionary
280
     1
  3
ACAD_XREC_ROUNDTRIP
360
11AA
  3
FBXASSET
360
1FB
  0
ACAD_PROXY_OBJECT
  5
102A
330
10D6
100
AcDbProxyObject
 90
      499
 91
      529
 93
    33193
310
40A4097AAA9021C0ED065821FEC18020633FA5959713A04D4C9100404000144358F202891014F8812EC40D77208BC1035E4822F44057B20ABE10264881B2641194206CA90465881B2E4119820CCC903668823364199C20ECE9056788435A40DAE208D79036C08236240DB2212D990A6D08138E40DC8208E490372882396415
310
CC204E69037388239E40DD0208E890B748813A640DD4208EA903758823AE42DD8204EC903768823B640DDC208EE905778813BE40DE0208F0903788823C6415E420EF41087A481BD4411EB206F61047B481BDC425EF214F81017E8813F640DFC208FE9037F8823FE414000100002180080800010C0080400008600602000040
310
804010000206028080001040180400008180E0200004100801000020E04808000102028040000818160200004100C010000206068080001040380400008381E02000042C100100002180880800010C048040000860340200004084E01000020627808000104140040000818A2020000410520100002022980800010B150040
310
000810AA02000040C560100002082B808000103160040000820B20200004045A0100002162D808000101170040000810BA02000040C5E0100002082F808000103180040000820C20200004146201000021A31808000108190040000818CA02000041066010000206338080001041A0040000818D20200004246A0100002143
310
580800010C1B0040000860DA0200004306E010000218378080001031C0040000820E202000041872010000206398080001041D0040000830EA02000041C760100002063B8080001041E0040000830F202000040C7A0100002083D8080001061F0040000838FA0200008940154D27D00554CBB20ABC2F4BE336CE00C48154B2
310
38CA3B0A006150779DF408B0814000000000000785FC240AA591C651D8500FEAE3BCEFA0458408902A9647194761400F2E449C9AE0955025DD025E01A01000001800FFFFFFFF5D978409775D802D794097A00804000006013FFFFFFFD765E9025E57600B5EE0080000D83EDAD7743F2030BC112980CE102997C405760095ED
310
9241594659986659E018902A964719C76340141976D3824955D028000000000000F0BF848154B238CE3B1A006150779DF408B08111E552C8E338EC680242B0FF8C6612AA04C9A02CA00C007FFFFFFFB24CA204C9B24016CAA04CB00202000003009FFFFFFFEC932C8132AC9005B2E81B30CCB3A03011FFFFFFFEC93308132E
310
C9005B328132EC9005B3481B36CE33A03011FFFFFFFEBB33681334BB005B3881334BB005B3A8132ECD00480B4CF202C9004A7CD6A08D7B62D9B6803117C157786ACEC8800A9847D931CEB56054B4000000000060392040C16A22A7D908CA0447954B238CE3B1A0090AC3FE31984AA81120552C8E328EC2801E5C893935C12A
310
A04D7204D780202000003001FFFFFFFED6B5E8135CD6805B60813620180800000C027FFFFFFFB5AD8A04D835A016D9202D980C067FFFFFFFB5AD9A04D935A016DA202D68048038E81B92E5B98031C00E2D3478F6C4803870821D9BA2B1A050000000000001E17F0E007169A3C7B62401C38410ECDD158D023801C5A68F1ED8
310
90050D2E317026953409C8405C901800FFFFFFFF71DC9409C871C02DCA405CB01804FFFFFFFF71DCB409CA71C02DCC405C70094F9CD40DCF745D201800C9E76E583B61402002817FD8A417D02680064F3B72C1DB0A0100140BFEC520BE8100193CEDCB176C680400502FFB1482FA04E7202E780C007FFFFFFFB9AE7A04E739
310
A016E8202E880C027FFFFFFFB9AE8A04E839A016E9202E6804A24E9A06EABAEEC00C0064F3B72C1DB0A00810B04FE63D0C48134003279DB960ED85004085827F31E86240800C9E76E58BB63401021609FCC7A189027510175406003FFFFFFFDD375502751D300B7590175C06013FFFFFFFDD375D02759D300B7610174C0251
310
27650376DDD77806003279DB960ED8500800A05FF62905F40A600193CEDCB076C280400502FFB1482FA040064F3B72C1DB0A00810B04FE63D0C4813B480BB603001FFFFFFFEECBB6813B4EC805BB8813BAF400C027FFFFFFFBB2EEA04EE3B2016EF202EC804A7CEFA06F0BC6F200C0064F3B72C5DB1A00810B04FE63D0C481
310
4000000000000785FC003279DB962ED8D004085827F31E86240800C9E76E58BB63402002817FD8A417D0278102785E801800FFFFFFFF77DE1409E077C02DE2405E301804FFFFFFFF77DE3409E277C02DE4405DF0094F9E8409DC78002404000000000000F0BFA7A5047ADED7BDF0018902A964719676440142D33C4D9A75AB
310
02A5A0000000000301C902060B51153EC846502240AA591C661D9D003CB912726B8255408902A9647194761400F2E449C9AE0955027A9027AC1101000001800FFFFFFFF7A5EB409EA7A402DEC415ED008040000030100000240400001201000001804FFFFFFFF7A5ED409EC7A402DEE405EF0180CFFFFFFFF7A5EF409EE7A4
310
02DF0405E9009007EA008405BF48B3C4E44402030BEB8C01249F0299FB40DFD7FC00010000018500633D0A6666440242C58B150BED61028000000000000F0BF8280319E85333322012162C58A85F6B0810A00C67A14CCCC880000D05565AFDA9204FE202FE80C007FFFFFFFBF6FEA04FE3F6016FF202FF80C027FFFFFFFBF6
310
FFA04FF3F601600008000202FD804BF400808000204D732A01201008000204F62F201201808000204D83D8012020080002040300800001002000003120552C8E328EC2807F571DE77D022C204D0902A9647194761403FAB8EF3BE8116102240AA591C671D8D00FEAE3BCEFA04584080501000040C060100000240400001A01
310
000001800FFFFFFFF010040000060100004080501000001004000002C070100004040801000001804FFFFFFFF010040000080100004080701000001004000002C09010000408050100007B0024066028040001030300400000E01000004004000006240AA591C651D85003CB912726B8255409A120552C8E328EC2801E5C89
310
3935C12AA0448154B238CC3B3A00797224E4D704AA81016020000818180200000780800002402000003001FFFFFFFE05008000018020000810160200000500800000581A0200008181C0200000780800002202000003009FFFFFFFE0500800001C0200008101A0200000500800000581E02000081016020000068080000048
310
08000000000001E17F40800800020205008000004A2408808000204F501A02000001209008000204058080003D80120D008000204028080002EE0122700800020C280080000A40200002A0080000C60200003A0080000EA0200000316038AC9F6480D280280802FFB1482FA04D0B01C564FB24069401404017FD8A417D022C
310
2A3A64421A5A900501005FF62905F4084F010000408500100001B804000006003FFFFFFFC4E0100001400400010213C0400004E01000000B144040001021480400006D01000001804FFFFFFFF138040000520100004085101000013804000002C5301000080210180E15A7D997100803C4219B5833E409A150040001011380
310
40000024530100001540400010615C0400005901000016C040000630100001C404000072010000018B01C564FB24069400A22209FCC7A1890268580E2B27D92034A00511104FE63D0C48116151D32210D2D4801444413F98F4312042B0080002042B8080000DE02000003001FFFFFFFE2A8080000AE020000810AC0200002A
310
8080000058B0020000810B20200003600800000C027FFFFFFF8AA0200002C8080002042C0080000AA0200000162D008000401080C070AD3ECCB880705BF946ED60A5A04D0B6020000808AA0200000122D0080000B802000100420301C2B4FB32E201007884336B067C814C2E80800020A2F8080000C2020000310080000F60
310
200003E00800000C580E2B27D92034A00511104FE63D0C4814000000000000785FC2C071593EC901A5002888827F31E862408B01C564FB24069401404017FD8A417D021780400010217C0400006F01000001800FFFFFFFF1740400005F0100004085E01000017404000002C60010000408610100001B804000006013FFFFFF
310
FC5D010000184040001021800400005D01000000B188040001011740400000245C01000018C040001021540400004E01000000919004000106198040000680100001A80400006B0100001E004000079010000018580EAB2759F07F400A22209FCC5618502A5A0000000000301C902060B51153EC8465022D2A3A64421A5A90
310
02988827F31E862408B4A8E99108696A401744017FD8A417D02194040001021980400006C01000001800FFFFFFFF190040000660100004086501000019004000002C67010000408680100001B404000006013FFFFFFFC640100001A00400010219C0400006401000000B1A4040001011A804000006033FFFFFFFC640100001
310
A8040001021A40400006401000000B1AC04000101190040000024006C010000408580100001940400000246D010000408670100001440400000246E0100004086001000013C0400000246F0100004085E0100001580400000247001000040C710100001C80400007601000001808FFFFFFFF15404000071010000408700100
310
0015404000002C720100004087001000015404000002C7301000040C740100001D40400007601000001808FFFFFFFF138040000740100004087301000013804000002C750100004087301000013804000002C76010000408700100001CC0400000240661DC040001031E0040000790100001F404000006023FFFFFFFC64010
310
0001E0040001021DC0400006401000000B1E4040001021DC0400006401000000B1E8040001031EC0400007C0100001F404000006023FFFFFFFC5D0100001EC040001021E80400005D01000000B1F0040001021E80400005D01000000B1F4040001021E804000077010000009010000000000003C2FE9164100630043006F00
310
6E00730074007200610069006E006500640044006100740075006D004C0069006E00650046104018C010C01BC01B801CC01D001C8018401A401B801940190010801BC01D401B8019001940190013001A401B80194011A4100630043006F006E00730074007200610069006E006500640049006D0070006C006900630069007
310
40050006F0069006E00740045904018C014001BC01A401B801D0010C01D401C801D80194010C01BC01B801CC01D001C8018401A401B801D001144100630056006500720074006900630061006C0043006F006E00730074007200610069006E00740045104018C013401A40190014001BC01A401B801D0010C01BC01B801CC0
310
1D001C8018401A401B801D0011441006300440069007300740061006E006300650043006F006E00730074007200610069006E00740044104018C010C01BC01B801CC01D001C8018401A401B801940190010401C8018C011741006300430065006E0074006500720050006F0069006E00740043006F006E0073007400720061
310
0069006E00740046904018C01480184019001A401D401CC011001A4018401B4019401D0019401C8010C01BC01B801CC01D001C8018401A401B801D001164100630048006F00720069007A006F006E00740061006C0043006F006E00730074007200610069006E00740047104018C014001BC01A401B801D0010C01BC01A401
310
B8018C01A40190019401B8018C0194010C01BC01B801CC01D001C8018401A401B801D001174100630045007100750061006C004C0065006E0067007400680043006F006E00730074007200610069006E007400C21280
330
10D6
360
0
360
0
360
103F
360
1037
360
1033
360
103C
360
1038
360
1030
360
1034
360
103E
360
103A
360
1032
360
1036
360
102B
360
102F
360
102C
360
102E
360
103D
360
1039
360
1047
360
104B
360
1043
360
104E
360
1046
360
1042
360
104C
360
1048
360
1044
360
1040
360
104D
360
1049
360
1045
360
1052
360
1051
360
1054
360
1050
330
0
330
0
330
1038
330
0
330
0
330
0
330
102F
330
0
330
0
330
0
330
0
340
1032
340
1030
330
103E
330
0
330
0
330
0
340
104B
340
1049
330
1037
330
0
330
0
330
1039
330
0
330
0
330
1045
330
0
330
0
330
103D
330
0
330
0
330
1033
330
0
330
0
340
103C
340
1052
330
1043
330
0
330
0
330
0
340
1044
340
102C
330
0
330
1047
330
0
330
0
330
1051
330
0
330
0
340
1036
340
104E
330
103F
330
0
330
0
340
102B
340
1034
330
1048
330
0
330
0
330
0
330
1042
330
0
330
0
330
0
330
0
330
1046
330
0
330
0
330
104C
330
0
330
0
330
0
340
102E
340
103A
330
0
330
0
340
104D
340
1040
330
0
330
0
340
1050
340
1054
 94
        0
1001
ACAD
1000
AcadProxyRoundTripData
1071
      517
1071
 11403297
1070
     0
  0
ACAD_PROXY_OBJECT
  5
1056
102
{ACAD_REACTORS
330
1032
102
}
330
10D6
100
AcDbProxyObject
 90
      499
 91
      529
 93
      373
310
40A442AA9025691424099000C801023200300043104018C01100188010C018401B0018C00E800C400B800C00220018
330
10D6
360
0
 94
        0
1001
ACAD
1000
AcadProxyRoundTripData
1071
      522
1071
 11403297
1070
     0
  0
ACAD_PROXY_OBJECT
  5
1057
102
{ACAD_REACTORS
330
104B
102
}
330
10D6
100
AcDbProxyObject
 90
      499
 91
      529
 93
      429
310
40A44EAA9025682C010000240D294E117CC4010333003000300043104018C01100188010C018401B0018C00E800C400B800C00240018
330
10D6
360
0
 94
        0
1001
ACAD
1000
AcadProxyRoundTripData
1071
      522
1071
 11403297
1070
     0
  0
ACAD_PROXY_OBJECT
  5
1058
102
{ACAD_REACTORS
330
103C
102
}
330
10D6
100
AcDbProxyObject
 90
      499
 91
      529
 93
      373
310
40A45EAA9025691424099000C401023200300043104018C01100188010C018401B0018C00E800C400B800C00220018
330
10D6
360
0
 94
        0
1001
ACAD
1000
AcadProxyRoundTripData
1071
      522
1071
 11403297
1070
     0
  0
ACAD_PROXY_OBJECT
  5
1059
102
{ACAD_REACTORS
330
1044
102
}
330
10D6
100
AcDbProxyObject
 90
      499
 91
      529
 93
      429
310
40A462AA9025682C010000240D294E117CCC010333003000300043104018C01100188010C018401B0018C00E800C400B800C00240018
330
10D6
360
0
 94
        0
1001
ACAD
1000
AcadProxyRoundTripData
1071
      522
1071
 11403297
1070
     0
  0
ACAD_PROXY_OBJECT
  5
105A
102
{ACAD_REACTORS
330
1036
102
}
330
10D6
100
AcDbProxyObject
 90
      499
 91
      529
 93
      477
310
40A46EAA9024A014AE47E17A14244024099000D00105310030002E003000340043104018C01100188010C018401B0018C00E800C400B800C00250018
330
10D6
360
0
 94
        0
1001
ACAD
1000
AcadProxyRoundTripData
1071
      522
1071
 11403297
1070
     0
  0
ACAD_PROXY_OBJECT
  5
105B
102
{ACAD_REACTORS
330
102B
102
}
330
10D6
100
AcDbProxyObject
 90
      499
 91
      529
 93
      373
310
40A472AA9025693224099000D401023500300043104018C01100188010C018401B0018C00E800C400B800C00220018
330
10D6
360
0
 94
        0
1001
ACAD
1000
AcadProxyRoundTripData
1071
      522
1071
 11403297
1070
     0
  0
ACAD_PROXY_OBJECT
  5
105C
102
{ACAD_REACTORS
330
102E
102
}
330
10D6
100
AcDbProxyObject
 90
      499
 91
      529
 93
      429
310
40A48EAA9025682C010000240D294E117CC8010333003000300043104018C01100188010C018401B0018C00E800C400B800C00240019
330
10D6
360
0
 94
        0
1001
ACAD
1000
AcadProxyRoundTripData
1071
      522
1071
 11403297
1070
     0
  0
ACAD_PROXY_OBJECT
  5
105D
102
{ACAD_REACTORS
330
104D
102
}
330
10D6
100
AcDbProxyObject
 90
      499
 91
      529
 93
      373
310
40A492AA9025691924099000CC01023200350043104018C01100188010C018401B0018C00E800C400B800C00220018
330
10D6
360
0
 94
        0
1001
ACAD
1000
AcadProxyRoundTripData
1071
      522
1071
 11403297
1070
     0
  0
ACAD_PROXY_OBJECT
  5
105E
102
{ACAD_REACTORS
330
1050
102
}
330
10D6
100
AcDbProxyObject
 90
      499
 91
      529
 93
      357
310
40A496AA9025690924099000D80101390043104018C01100188010C018401B0018C00E800C400B800C00210018
330
10D6
360
0
 94
        0
1001
ACAD
1000
AcadProxyRoundTripData
1071
      522
1071
 11403297
1070
     0
  0
XRECORD
  5
11A8
102
{ACAD_REACTORS
330
1F9
102
}
330
1F9
100
AcDbXrecord
102
MATERIAL
148
0.0
149
0.0
149
0.0
 93
        0
 94
       63
282
     0
 72
     1
 77
     1
171
     1
175
     1
179
     1
273
     0
  0
XRECORD
  5
1FA
102
{ACAD_REACTORS
330
1F9
102
}
330
1F9
100
AcDbXrecord
 70
     1
 90
429727718
  1
D62C5603-E3A1-4AEA-B7FB-FE5D8D0755AF
310
504B03040A0000080000CC70623B3DEE336E79000000790000001B0000006175746F6465736B2D64657369676E2D7061636B6167652E786D6C3C3F786D6C2076657273696F6E3D22312E302220656E636F64696E673D227574662D3822203F3E3C666F726D6174733E3C666F726D61743E687474703A2F2F736368656D612E
310
6175746F6465736B2E636F6D2F64657369676E2D7061636B6167652F323030393C2F666F726D61743E3C2F666F726D6174733E504B0304140006080800CC70623BD486FD9CA0000000F4000000130000005B436F6E74656E745F54797065735D2E786D6C7D8EC10E82300C865F65E91D8A1E8C310C0EEA1BF002731658846E
310
D98AC1B77784ABF1D8FE5FBFBF75BBCE937A534CCEB38643598122B6FEE978D0B0485F9C41B54DDD7D022595594E1A469170414C76A4D9A4D207E29CF43ECE46F218070CC6BECC4078ACAA135ACF422C856C0E68EA1BF5669944DDD7BCDE7B1F8E415D77AECB980613C2E4AC91FC167A2B244592486606FC29C8FD7F045B9A
310
EF7053A7E60B504B0304140006080800CC70623B853B8169EB0000007C01000008000000636F72652E786D6C8D90416EC3201045AF62CDB6C206821CC7C244919D9CA01740401C94182C03558F5F9C3852BBEB6A467FFE9B197D7EFC9E1EC5975982F5AE035262288C535E5B377690E21535501C055FBC8FBF6C503839990E
310
5619041F179FE64D52DE45E362569DD7661365082642A11EB9E920A89B99642953CC8E702F67A9EE7234257977194EC9EAE275C4EABCCF5EAD5940D4AC6F0E35A568B8F43562CD7046CD199FD07E60174276A7BE677B5EADB0E0D14EEFFB6A31321A0D82627C4084204C3F096B71DD52F6819B16635EADF63F509AF53FA164
310
5DDCD1EDDD17164090FCC8732078B56691CB33A85CD7DCC40F504B0304140006080800CC70623B55019EA25F0000007C00000007000000636E782E786D6C4DCB3B0E80201045D1AD90E915ED2CF8AC45050C11660C8261F98AB1B07AC9C97D42D718D865D3E909258CFD00CCE24AC6E326A164D74DC0B4128928FF32603847
310
2BA13128B1252AC747C6BAB984FC68F0B87FE8960A5C09FE86CFB69FBA01504B0304140006080800CC70623BDBABAAF470010000D40300000C0000006662782F636F72652E786D6CC553D16E823014FD95A6AF4B694182CC941A83FA05FB810A9511A125A5257EFE2E82712ECEB8A7F100CD39F7F69E734AF9FADC366850B6
310
AF8DCE7018308C942E4C59EB2AC3DE1D498AD15A706B8CFB56869196ADCAF00863C12B6B7C374385D14E6907A836A59A41D9F7CA615434B0C8705F7CAA5606D23BA8E84F41278B93AC54100640439DE0BDB320004D43C63716C7C399D30917DCFBBA9CD9BA8469F5B156168B24CED3F7248AC8769F27244EB73B92EED8862C
310
B7F13E0C179B3C8F979C8ECD82BBBABDAA2BAC924E9558448CBD9330242CFA08E3154B5651FCC6D215639C8EE5774DBE2B5F6CF2B5768B68963BB5F5588420E442FC700B1139D4CB01F450C1E918227C2E09DF070D8140C84E1E9AAB8F1340832A9CB13130A5F1376A908D57309505ECF2A0DF179C4E9D30F5B239B87E3823
310
7A79C6F31DE1A8A5AEC08474B03C7837EAE4938639B44E5932B833D2C6B6B279CDC613877FA26EE21F4A2A4C63EC7F29A2F301D1F9F7A0E37D145F504B0304140006080800CC70623B9C113CC27E0000009D0000000B0000006662782F636E782E786D6C4DCCDF0A83201C86E15B91DFB94BFB330DD428C8FB886521330DA7
310
6397BF1A1DECE883878F57749FCDA1B7892F1BBC047A23808C7F84D9FA55424E0BE6803A256208E9EF06C84F9B91703228B1C690F78B66B34CD9A5439DF5CF0BFBF65E35BCA1B8D6A5C6F540381E886698B5741C695F9503EBA150A2F8958E3DC3EA0B504B0304140006080800CC70623B7DF2F77C2A010000120200003100
310
00006662782F41393633353835312D344632462D344230382D423046372D3739314545314133324237412F636F72652E786D6C8D51DB8EC22014FC15C2939B0D2DB4B45643319AE817EC0F6041255A68B86CFCFC856D4D76DF7CE190393373060EDB3DC707F856CE6B6B7A480A0C81328395DA5C7B18C3057510EC3873D686
310
3F34088C18550F330C39BB3A1BA7051AAC09CA84841A2BD5020AEF55806078A44B0FFD7053A328440C89E1EFC52486BBB8AA8214A99D789CF9E05200300FC927E4FB4D5B375D43103D5527440FB843077C5AA3F5861C8F645F5787F59E95B390B318B55CE45AA638FAA2957BD7248B390B7A7CC51F9C124149C82B8C378810
310
84AB2F42B7B8DD56F413775B8C5999E9FF4471926F8AA236A1AE96B8B3CC434E5839373893369E1FAF30EA395917409EB7F26AF8801C171837A4A6AC9C89E9F9C9B1A58BA30FD6A5EF5DDDCF894B9AD9B6A59C957943A9FCAE2FD5BC4DFE03504B0304140006080800CC70623BAD7543B64E01000033030000300000006662
310
782F41393633353835312D344632462D344230382D423046372D3739314545314133324237412F636E782E786D6CD593CD6EC32010845F0571AD6CE3D48AD20813A9873E410FBD12D82434182C7EAAE6EDBB2424CD25871E7B41D6EC30B3FA84F9E67BB2E40B4234DE8DB46F1925E094D7C6ED479AD3AE5951B2113C789FEE
310
6C943839C1488B4C05DF079FE72A69D8C96C13AAD6B8631503449F83828872B949AC57D26200B826A308D316B4064D6E46FCDA41C05550DC9E483A00797BFD207EFB092A45DE9514C1BBD22178396BD39D891265658C238DEA00936C654E5E433CB65A26D9F6EDB5EBC14EBF49A45CB856E66048291F6939A9A81BB5C89177
310
38143CA680F4AA299D66A042CEB3354A2684DC9D8D178FE0D9B8B41CAAD720F880EE7EF93C0C18769E099ECC04D5A102C8049A8A05632F4DDF376CF1DE0F6BB65C2F8627B65A33C6BB62177CEBBDAD973006829F89F22E814B54F4BC2BE347F8AA8F681390B50FA73F804400B5F542E796F19FF974E7F78DB802FE05E20750
310
4B0304140006080800CC70623BE75B7789680500003C100000340000006662782F41393633353835312D344632462D344230382D423046372D3739314545314133324237412F6F626A656374732E786D6CAD575B8F9B3818FD2B887D06C22499CB8AA1CA655245D5B455A356FB305264C061D8018C6C3393D95FBFC7600890
310
A4CD5EF210B0B1BFEBF98E3F7B1FF6596ABC522E1296DF9BAE3D320D9A872C4AF2F8DE2CE5CEBA358D0FBEC719939D65A691938CDE9B6ADAF4BD98B3B2D05311DD91329583D9D5FC0F438434A7A611A644887B5384CF34233629258BA878B12322891DEFF6B66BD70BFB62634E8AE781D082709A4B588AF91C528CDA28B73F
310
1C998EEF39EABBEFA97FBD6A7C7E9553F9D3D79FE442923C3C523610337627CB87ABE99D359D4CC6D6E4FACAB5E6ABF9D2726FC6A3C5F56271377BB88362213924694B38DD99FE47C48627A1E7D49F5A8BB5E1A74C0A599ED3B0F21F1E56366B89112D681E218F0915D0D6F17AD41FBA2A369DCF6335D62ABBD39779D5DDD1
310
11D4D8DE3CBB96B2E04FB8202E41051754A1AA8E8F76B4C6DFE810B580B1547F4B84911149794252234D024EF8BBE963A95AE27B3D310A9D5C215C7960FAEE415ED75694C6AFB17BCACA5D99A60A9AA65F217B0BFC53292ACB92BF283FAD0D3621576592CB5BED907C2FA8E9DF794E35E97BEA31BED21FEB401ABB94C44839
310
DCACBF0E1C5DA8DA5B2F4DFFD32AD86F543D9E565E7056502E157C00AD2671CD534549AB752FCA9CDA00677A313F04E51B22FF19E57B300579E3C97EB29F682D92935CEC18CF901B7B54FD8C51F362B56FC72FE0B3C1EAE335EDCCBF5AEC39ADB17DC238973F804BA5E6F6BFE7AF1FB32E523BE9F3BD571418E3631DCA4D48
310
5250CF639223210A9446CA30052EDF057BD35F8329C1ECD84552BF0DC8D18BE7BCE23BFE6BD960AB4A7DE79923A103BEBD80F911CBAA2C60DB19B01CF164A5583B772EE6D3FFA56666CBCDA74DC97724A48F9A58967497E489C4D979006FD7A05E227A1EBDD0F737C623387A9C844D3709995625106D157315F8B8392CD4E0
310
A0B9A720C4BE9829CEF37EA1E13111214D53925356365ADA634861B52519DD27A00AEB808EAF0628E6F435519D446F45CF2C9CF5214F0A15B2F6D06B79DA3EE3CBF7F56780D2F4E7EF73A0F5E5B02A38D07DC852C6B7C1FBB6664213E0C39E3EBA7FF4E1AD23EA2829407C85E586727488B751B2DB9502BC7B228A3FD68B6E
310
A65A22397E690AA8D158D7E404EC8CDA235CC3B7D1898680131CEC2CDF2638C65196279577750F15884AEE19F94199155B92B13297978469D4F8D358DF0AEF7631E28DC8F0D9F437D5D39A83B2231A1D52D543813A824EF8D44BCFF2FA6A31BD1E8DAD87F1CCB526B3879935BF59CDADD5C37479BB1CDD4CA7B3556B516589
310
EF352754B706114D9C885EC9131DE6EFEB43D99AFE2391C2F958179413D7CFEF6B1B6DB1E7600F00DE6E5C67454A339A4BA2E0FBA85ED26F045D454F463DBFCE484C2F90F2E5E3666003662ED8F755951A7D1BECD5B30B550B2785C8E7320B7292A4838DDA71BBC863ED7613CAF659337A3354231D4FF4A182A54904C2898C
310
98B28C4AD0CE056CCF332A80986E571EE9DBC305BB5FEB7E509220A58D25CF042D712A806AC0AD0C657FDEF80D2D9CEAA2EE4D1C76F60BFE74219A06527D6F82DF6412526107381E55E353090704D085B52408A8913C4ED159D79BDA71BB4BC506F4831350EB6F975CD22D69BF7AC49B91A2C0A9DDA3D5CA36AD20FC478E37
310
E61844E2352865EBCB61A275A65283CAAA9DD27703B4102F5AF51EF5F573B75CBB5AD38BC845F7A49F82A0966A49C2E3EA5EA0ECD326CD965F1DB402C6FA8B51A4658C5C5E2EC9E214602E55810345408596591009A82E7E7FFACA19EEA299B14A0081A705CB3296EBC14CDF658DCD336EA6D1136881AAEB87B81AB9EE53D5
310
F5EB8BC8362082DA24122F98680A4E7930C01A0079749CEA14382A0783E5EBA5A10F8C098456A03D6A4AEB6BB881E2513747552A5DB22C7EDAF83BD5528081A365F7FF06504B0304140006080000CC70623B000000000000000000000000350000006662782F41393633353835312D344632462D344230382D423046372D37
310
39314545314133324237412F76657274696365732E62696E504B0304140006080800CC70623BF270F1330600000004000000360000006662782F41393633353835312D344632462D344230382D423046372D3739314545314133324237412F747269616E676C65732E62696E636660600000504B0304140006080000CC7062
310
3B000000000000000000000000370000006662782F41393633353835312D344632462D344230382D423046372D3739314545314133324237412F617474726962757465732E62696E504B0304140006080800CC70623B08DA0BD19000000041010000360000006662782F41393633353835312D344632462D344230382D4230
310
46372D3739314545314133324237412F6469726563746F72792E786D6C858F410AC3201045AF22B36F53E9A60B35CBEEBAE80D244E44489C6234F4F835464A48035D0DF398FF9F8AF63D0E6CC63039F212F8F9020C7D47C6792B21C5FE7403D62A1188E2E60C98D7234A5830286103A55745067B9D86B8A3CF9C7F90C11DE6
310
07FB144396D7B6A82D282E9A152AD114D5EF2CB866EEE831B8EEA07A7BB5A8D7D61A2BAAEB7FD5F70921FF497D00504B0304140006080800CC70623BEDD1DC58FD000000A00100003B0000006662782F41393633353835312D344632462D344230382D423046372D3739314545314133324237412F7265736F75726365732F
310
636F72652E786D6C8D504B6E833010BD0A9A6D65B00922041947112427E8052C33A156828DFCA97AFC9A40A576D7CDCCE87D344F8F9FBFE667F689CE6B6B3A6039850C8DB2A336530731DC4903D95970676DF82583CCC8193B5861107C72362E3BA4AC096842428D1D7107A5F7182053CF7474E0D507CE32973124857FE48B
310
540F3961CEF244279DE03EB81420DB9EAC1384436FA353E879B1B182C7A8C75DA3C7F453DF353A1075D537A7BA6464B8F535A99AE14A9A2BBD90E350DD183B5CFABE3AF262350B1EF4FC9351399401471025A527C218A1E53BAB5A5AB765F5469B96525EACF23FA6B88CFF34456DC2A1DCE36E360F82A5202F42F062ED2BAD
310
579969AFDD8A6F504B010214000A0000080000CC70623B3DEE336E79000000790000001B00000000000000000000000000000000006175746F6465736B2D64657369676E2D7061636B6167652E786D6C504B01021400140006080800CC70623BD486FD9CA0000000F40000001300000000000000000000000000B20000005B
310
436F6E74656E745F54797065735D2E786D6C504B01021400140006080800CC70623B853B8169EB0000007C010000080000000000000000000000000083010000636F72652E786D6C504B01021400140006080800CC70623B55019EA25F0000007C000000070000000000000000000000000094020000636E782E786D6C504B
310
01021400140006080800CC70623BDBABAAF470010000D40300000C00000000000000000000000000180300006662782F636F72652E786D6C504B01021400140006080800CC70623B9C113CC27E0000009D0000000B00000000000000000000000000B20400006662782F636E782E786D6C504B01021400140006080800CC70
310
623B7DF2F77C2A010000120200003100000000000000000000000000590500006662782F41393633353835312D344632462D344230382D423046372D3739314545314133324237412F636F72652E786D6C504B01021400140006080800CC70623BAD7543B64E010000330300003000000000000000000000000000D2060000
310
6662782F41393633353835312D344632462D344230382D423046372D3739314545314133324237412F636E782E786D6C504B01021400140006080800CC70623BE75B7789680500003C10000034000000000000000000000000006E0800006662782F41393633353835312D344632462D344230382D423046372D3739314545
310
314133324237412F6F626A656374732E786D6C504B01021400140006080000CC70623B0000000000000000000000003500000000000000000000000000280E00006662782F41393633353835312D344632462D344230382D423046372D3739314545314133324237412F76657274696365732E62696E504B01021400140006
310
080800CC70623BF270F133060000000400000036000000000000000000000000007B0E00006662782F41393633353835312D344632462D344230382D423046372D3739314545314133324237412F747269616E676C65732E62696E504B01021400140006080000CC70623B0000000000000000000000003700000000000000
310
000000000000D50E00006662782F41393633353835312D344632462D344230382D423046372D3739314545314133324237412F617474726962757465732E62696E504B01021400140006080800CC70623B08DA0BD1900000004101000036000000000000000000000000002A0F00006662782F41393633353835312D344632
310
462D344230382D423046372D3739314545314133324237412F6469726563746F72792E786D6C504B01021400140006080800CC70623BEDD1DC58FD000000A00100003B000000000000000000000000000E1000006662782F41393633353835312D344632462D344230382D423046372D3739314545314133324237412F7265
310
736F75726365732F636F72652E786D6C504B0506000000000E000E0080040000641100000000
  0
XRECORD
  5
11A9
102
{ACAD_REACTORS
330
1F7
102
}
330
1F7
100
AcDbXrecord
102
MATERIAL
148
0.0
149
0.0
149
0.0
 93
        0
 94
       63
282
     0
 72
     1
 77
     1
171
     1
175
     1
179
     1
273
     0
  0
XRECORD
  5
1F8
102
{ACAD_REACTORS
330
1F7
102
}
330
1F7
100
AcDbXrecord
 70
     1
 90
429727718
  1
30362254-06B7-45E0-A893-8CFA70E3D6BC
310
504B03040A0000080000CC70623B3DEE336E79000000790000001B0000006175746F6465736B2D64657369676E2D7061636B6167652E786D6C3C3F786D6C2076657273696F6E3D22312E302220656E636F64696E673D227574662D3822203F3E3C666F726D6174733E3C666F726D61743E687474703A2F2F736368656D612E
310
6175746F6465736B2E636F6D2F64657369676E2D7061636B6167652F323030393C2F666F726D61743E3C2F666F726D6174733E504B0304140006080800CC70623BD486FD9CA0000000F4000000130000005B436F6E74656E745F54797065735D2E786D6C7D8EC10E82300C865F65E91D8A1E8C310C0EEA1BF002731658846E
310
D98AC1B77784ABF1D8FE5FBFBF75BBCE937A534CCEB38643598122B6FEE978D0B0485F9C41B54DDD7D022595594E1A469170414C76A4D9A4D207E29CF43ECE46F218070CC6BECC4078ACAA135ACF422C856C0E68EA1BF5669944DDD7BCDE7B1F8E415D77AECB980613C2E4AC91FC167A2B244592486606FC29C8FD7F045B9A
310
EF7053A7E60B504B0304140006080800CC70623B1EC5D7A3EB0000007C01000008000000636F72652E786D6C8D90416EC3201045AF82665B6103C6756C6122AB4D4ED00B204C5C94182C03558F5F9C3852BBEB6A467FFE9B197D71FC9E6FE8CBACC17AD7032D0820E3B41FAD9B7A48F1820F808E52ACDEC75F36404ECDA687
310
4D0629A6D5A76597B477D1B89855E747B38B2A041301E95B6E7A08FAD3CCAA50296647B8168BD2573599823EBB0CA76447F43862C7BCCF5EAC59410E4DDD9C7973C2755553CCCFA4C603E3040F1565ED3B1FDE4E432BCA0D9622DAF9795FAF464533826484B498524CD807E51D79ED187F21878E10516EF63F505AC67F42C9
310
BA58B1FDDD071640D2FCC87D2045B96591CB3DA85CB7DCE40F504B0304140006080800CC70623B55019EA25F0000007C00000007000000636E782E786D6C4DCB3B0E80201045D1AD90E915ED2CF8AC45050C11660C8261F98AB1B07AC9C97D42D718D865D3E909258CFD00CCE24AC6E326A164D74DC0B4128928FF32603847
310
2BA13128B1252AC747C6BAB984FC68F0B87FE8960A5C09FE86CFB69FBA01504B0304140006080800CC70623B8C9102E971010000D40300000C0000006662782F636F72652E786D6CC5535B6E833010BC8AE5DF0A6C08340F1947A84D4ED00B38C6A128602363A31CBFCB234A53A551FA553EC09AD9F5CE8C31DB9E9B1AF5CA
310
7695D1198E428A91D2D214952E33ECDD315861B4E5CC1AE3BE9561A445A3323CC098B3D21ADFCE9034DA29ED00D5A6503328BA4E398C640D8B0C77F253352214DE4145770A5B214FA2546114020D759C75CE8200340D19DE981F0F6746269C33EFAB6266AB02A655C74A59CCF365BADC27CB5D902ED22848F6340DF238A141
310
BE88E2F57B92BFEDF23523433367AE6A2EEAA455C2A902F398D2751045018D3FA264435F3771F242571B4A1919CA6F9A7C5B3CD9E42BED16F12C776AEB308F40C848FC700B1139D4891EF410CEC810227CC6846F8386402064270EF5C5C709A05E49676C024C61FC95EA45ED154CA5211D1FF4FB8291A913A68E9B83EBBB33
310
E2A7673CDE118E5AE8124C0807CB8377834E366998436B950D7A7746DAD846D4CFD978E0F04FD455FC5D49D2D4C6FE9722321F10997F0F32DC47FE05504B0304140006080800CC70623BFFEA85907E0000009D0000000B0000006662782F636E782E786D6C4DCCD10A83201886E15B91FFDC95D95A811AB6F23E625948A6C3
310
E9D8E5AF46073BFAE0E1E365ED67B3E8ADC3CB78C7815C7240DA3DFC64DCC221C519D7805AC182F7F1EF06C88D9BE6703008B6049F9E274D7A1E938DBB5AE3D6131B2589BA0D3D965551E0B2EA732C9B9A624AAEB41E3A557677029960D9AFB4EF11165F504B0304140006080800CC70623B4FEEA4082C0100001202000031
310
0000006662782F39464131463745442D413632322D343644302D413938332D3331353338454246344243312F636F72652E786D6C8D515B6EC32010BC0AE2AB55850DD871ED0813254D72825EC00192A2C460F1A872FC42ED48ED5F7E00CDCECCCEB26C731F6FE05B39AFADE921293004CA082BB5B9F43086336A21D870E6AC
310
0D7F68109861543DCC30E4ECE26C9C164858139409093556AA051CBC570102714B8F1E7AF1A5C6A11862480C7F2DA6415C878B2A4891CA89C7990F2E050073937C42DE1DB7E4F87ED8A36D4329AA9B3D46DBAEAD504556557BD81DEBDD0761E52CE42C462D17B996298E3E6BE59E35C962CE821E1FF18553435012728A7187
310
0841987E927A8D9B35ADDF70BBC6989599FE4F1427F9A4286A132ABAC49D651EF234CD5CE04CDA78BA3DC2A8FB645D00B9DF8B57E215725C60BCA2A463E54C4CE327C7A65E1C7DB02E7DEFCBF594B864C5CA6CDBD49C957943E9FA5D5FBAF336F90F504B0304140006080800CC70623BAD7543B64E01000033030000300000
310
006662782F39464131463745442D413632322D343644302D413938332D3331353338454246344243312F636E782E786D6CD593CD6EC32010845F0571AD6CE3D48AD20813A9873E410FBD12D82434182C7EAAE6EDBB2424CD25871E7B41D6EC30B3FA84F9E67BB2E40B4234DE8DB46F1925E094D7C6ED479AD3AE5951B2113C
310
789FEE6C943839C1488B4C05DF079FE72A69D8C96C13AAD6B8631503449F83828872B949AC57D26200B826A308D316B4064D6E46FCDA41C05550DC9E483A00797BFD207EFB092A45DE9514C1BBD22178396BD39D891265658C238DEA00936C654E5E433CB65A26D9F6EDB5EBC14EBF49A45CB856E66048291F6939A9A81BB5
310
C8917738143CA680F4AA299D66A042CEB3354A2684DC9D8D178FE0D9B8B41CAAD720F880EE7EF93C0C18769E099ECC04D5A102C8049A8A05632F4DDF376CF1DE0F6BB65C2F8627B65A33C6BB62177CEBBDAD973006829F89F22E814B54F4BC2BE347F8AA8F681390B50FA73F804400B5F542E796F19FF974E7F78DB802FE05
310
E207504B0304140006080800CC70623B16AB87BA640500003C100000340000006662782F39464131463745442D413632322D343644302D413938332D3331353338454246344243312F6F626A656374732E786D6CAD575B6FA33818FD2B887DE6924B3BED8A326A92B68A663B534DD4D13E548A0C38942D60649B369D5FBFC7
310
600890A493BDE42160637FD7F31D7FF63E6FB3D478A55C242CBF3247B66B1A340F5994E4F19559CA8D75611A9F7D8F33263BCB4C232719BD32D5B4E97B316765A1A722BA21652A07B3B7B33F0D11D29C9A46981221AE4C113ED38CD8A4942CA2E2C58E882476BCD9DA23BB5ED8171B73523C0F841684D35CC252CCE79062D4
310
468DFA43D7747CCF51DF7D4FFDEB5593E3AB9CCA9FBEFE241792E4E19EB28198C968BAB8199F5D5A67D3E9C49A9E8F47D6EC76B6B0469F26EEFC7C3EBFBCBEB98462213924694B38DD98FE1D62C393D073EA4FADC5DAF04326852CCF6958F90F0F2B9BB5C48816348F90C7840A68EB78EDF68723159BCEE7891A6B95DDE9D3
310
BCEAEEE8086A6C6F9E5D4B59F0175C10A7A0820BAA5055C7473B5AE3CFDD452D602CD5DF12616444529E90D448938013FE6EFA58AA96F85E4F8C42275708571E98FE6827AF6B2B4AE3D7D83D64E5A64C53054DD3AF90BD06FEA9149565C94FCA0F6B834DC85599E4F2423B24DF0B6AFA979E534DFA9E7A4CC6FA631D486393
310
921829879BF5D781A373557BCB85E97FB90DB62B558F8795179C15944B051F40AB495CF35451D26A4727654E6D8033BD98EF82F21D91FF8AF2DD9982BCF1643BDD4EB516C9492E368C67C88DED563FC36D5EACF66DFF057C3658BDBFA69DF9578B3DA735B64F18C7F20770A9D45CFCF7FCF563D6456A277DBEF78A02637CA2
310
43B90A490AEAB94F72244481D24819A6C0E59B606BFA4B3025981DBB48EAB701D97BF19C577CC77F2D1B6C55A9EF3C732474C0B727303F625995056C3B02963D9EAC146BE78EC5FCEC7FA999EBC5EACBAAE41B12D27B4D2C0BBA49F244E2ECDC81B76B502F113D8F5EE8FB1BE3111CDD4FC2AA9B844CAB1288B68AB90A7CDC
310
1C166AB0D3DC5310625FCC14E779BFD0709F8890A629C9292B1B2DED31A4B0DA928CEE135085754027E3018A397D4D5427D15BD1330B677DC8934285AC3DF45A9EB68FF8F2B8FC0A509AFEECFD0FF2DE25CC6047F7214B195F07EFEB9A094D800F7BFAE8FED187B78EA8A3A400F115961BCAD1215E47C966530AF0EE8128FE
310
58CEBB996A8964FFA529A046635D9353B0336A8F700DDF46271A024E70B0B37C9DE01847591E54DED53D54202AB947E4076556AC49C6CA5C9E1226B7F1A7B1BE15DEED62C41B91E1B3E9AFAAA735036547343A925075041DF0A9979E893B391F8FCFA6967B3EFB644DCF6E5CEBFAE272625DCC6FAF3FB93793C5F90CE1EF57
310
407342756B10D1C489E8953CD1617E5CEECAD6F4EF8914CE5D5D504E5C3F1F9736DA62CFC11E00BCDDB8CC8A9466349744C1F75EBDA4DF09BA8A9E8C7A7E9991989E20E5DBDD6A6003664ED8F7A04A8DBE0DF6EAD9B9AA858342E47399053949D2C146EDB85DE4B176BB0965FBAC19BD19AA918E27FA50C1D22402E144464C
310
59462568E704B6E71915404CB72B8FF4EDE184DDAF753F284990D2C6926782963815403548A70C657FDEF80D2D9CEAA2AE4C1C76F60BFE74219A06527D6582DF6412526107381E55E353090704D085B52408D0933C4ED159D79BDA71BB4BC506F4831350EB6F979CD22D69BF7AC49B91A2C0A9DDA3D5CA36AD20FC478E37E6
310
1844E2352865EBCB6EA275A652E3836BE04EFB400BF1A2556F515F1FBB35B2AB35BD889C744FFA1004B5544B121E57F70215746DD2F5E2C1412B602CBF19455AC6C8E5E9922C4E01E65215385004546899059180EAFCF7A707CE7017CD8CDB0410789AB32C63B91E5CEBBBACB17AC6CD347A022D5075FD106377347AAABA7E
310
7D11590744509B44E205134DC1290F06580320F78E537D3D73540E06CB970B431F185308AD40BBD794D6D77003C5A36E8EAA54BA64597CD8F83BD552A080A365F7FF06504B0304140006080000CC70623B000000000000000000000000350000006662782F39464131463745442D413632322D343644302D413938332D3331
310
353338454246344243312F76657274696365732E62696E504B0304140006080800CC70623BF270F1330600000004000000360000006662782F39464131463745442D413632322D343644302D413938332D3331353338454246344243312F747269616E676C65732E62696E636660600000504B0304140006080000CC70623B
310
000000000000000000000000370000006662782F39464131463745442D413632322D343644302D413938332D3331353338454246344243312F617474726962757465732E62696E504B0304140006080800CC70623B08DA0BD19000000041010000360000006662782F39464131463745442D413632322D343644302D413938
310
332D3331353338454246344243312F6469726563746F72792E786D6C858F410AC3201045AF22B36F53E9A60B35CBEEBAE80D244E44489C6234F4F835464A48035D0DF398FF9F8AF63D0E6CC63039F212F8F9020C7D47C6792B21C5FE7403D62A1188E2E60C98D7234A5830286103A55745067B9D86B8A3CF9C7F90C11DE607
310
FB144396D7B6A82D282E9A152AD114D5EF2CB866EEE831B8EEA07A7BB5A8D7D61A2BAAEB7FD5F70921FF497D00504B0304140006080800CC70623B0D6EF93BFE000000A00100003B0000006662782F39464131463745442D413632322D343644302D413938332D3331353338454246344243312F7265736F75726365732F63
310
6F72652E786D6C8D50596E833010BD0A9ADFCA60B334011947A8694ED00B586642AC041B79A97AFC9A40A5F6AF3F33A3B7689E1E3F7DCD8FEC139DD7D6F4C0720A191A65476DA61E62B892236427C19DB5E1970C322367EC618541F0C9D9B8EC90B226A009093576C41D94DE63804C3DD2D18357379C652E63480A7FCF17A9
310
EE72C29CE5894E3AC17D702940B63D59270887DE46A7D0F36263058F518FBB468FE9A7BE6A7420864373B8D4873369AA8691FA421B3294352543C5CAF65C0F6FEF43CB8BD52C78D0F34F46E550061C419494B6843142CB0F5677F4B52BEB177AEC28E5C52AFF638ACBF84F53D42654E51E77B379102C05791282176B5F693D
310
CB4C7BED567C03504B010214000A0000080000CC70623B3DEE336E79000000790000001B00000000000000000000000000000000006175746F6465736B2D64657369676E2D7061636B6167652E786D6C504B01021400140006080800CC70623BD486FD9CA0000000F40000001300000000000000000000000000B20000005B
310
436F6E74656E745F54797065735D2E786D6C504B01021400140006080800CC70623B1EC5D7A3EB0000007C010000080000000000000000000000000083010000636F72652E786D6C504B01021400140006080800CC70623B55019EA25F0000007C000000070000000000000000000000000094020000636E782E786D6C504B
310
01021400140006080800CC70623B8C9102E971010000D40300000C00000000000000000000000000180300006662782F636F72652E786D6C504B01021400140006080800CC70623BFFEA85907E0000009D0000000B00000000000000000000000000B30400006662782F636E782E786D6C504B01021400140006080800CC70
310
623B4FEEA4082C0100001202000031000000000000000000000000005A0500006662782F39464131463745442D413632322D343644302D413938332D3331353338454246344243312F636F72652E786D6C504B01021400140006080800CC70623BAD7543B64E010000330300003000000000000000000000000000D5060000
310
6662782F39464131463745442D413632322D343644302D413938332D3331353338454246344243312F636E782E786D6C504B01021400140006080800CC70623B16AB87BA640500003C1000003400000000000000000000000000710800006662782F39464131463745442D413632322D343644302D413938332D3331353338
310
454246344243312F6F626A656374732E786D6C504B01021400140006080000CC70623B0000000000000000000000003500000000000000000000000000270E00006662782F39464131463745442D413632322D343644302D413938332D3331353338454246344243312F76657274696365732E62696E504B01021400140006
310
080800CC70623BF270F133060000000400000036000000000000000000000000007A0E00006662782F39464131463745442D413632322D343644302D413938332D3331353338454246344243312F747269616E676C65732E62696E504B01021400140006080000CC70623B0000000000000000000000003700000000000000
310
000000000000D40E00006662782F39464131463745442D413632322D343644302D413938332D3331353338454246344243312F617474726962757465732E62696E504B01021400140006080800CC70623B08DA0BD190000000410100003600000000000000000000000000290F00006662782F39464131463745442D413632
310
322D343644302D413938332D3331353338454246344243312F6469726563746F72792E786D6C504B01021400140006080800CC70623B0D6EF93BFE000000A00100003B000000000000000000000000000D1000006662782F39464131463745442D413632322D343644302D413938332D3331353338454246344243312F7265
310
736F75726365732F636F72652E786D6C504B0506000000000E000E0080040000641100000000
  0
XRECORD
  5
11AA
102
{ACAD_REACTORS
330
173
102
}
330
173
100
AcDbXrecord
102
MATERIAL
148
0.0
149
0.0
149
0.0
 93
        0
 94
       63
282
     0
 72
     1
 77
     1
171
     1
175
     1
179
     1
273
     0
  0
XRECORD
  5
1FB
102
{ACAD_REACTORS
330
173
102
}
330
173
100
AcDbXrecord
 70
     0
 90
1673772943
  1
ECE7A1D2-D628-4531-984C-D00F80459256
310
504B03040A0000080000CC70623B3DEE336E79000000790000001B0000006175746F6465736B2D64657369676E2D7061636B6167652E786D6C3C3F786D6C2076657273696F6E3D22312E302220656E636F64696E673D227574662D3822203F3E3C666F726D6174733E3C666F726D61743E687474703A2F2F736368656D612E
310
6175746F6465736B2E636F6D2F64657369676E2D7061636B6167652F323030393C2F666F726D61743E3C2F666F726D6174733E504B0304140006080800CC70623BD486FD9CA0000000F4000000130000005B436F6E74656E745F54797065735D2E786D6C7D8EC10E82300C865F65E91D8A1E8C310C0EEA1BF002731658846E
310
D98AC1B77784ABF1D8FE5FBFBF75BBCE937A534CCEB38643598122B6FEE978D0B0485F9C41B54DDD7D022595594E1A469170414C76A4D9A4D207E29CF43ECE46F218070CC6BECC4078ACAA135ACF422C856C0E68EA1BF5669944DDD7BCDE7B1F8E415D77AECB980613C2E4AC91FC167A2B244592486606FC29C8FD7F045B9A
310
EF7053A7E60B504B0304140006080800CC70623BD9DDAED0EC0000007C01000008000000636F72652E786D6C8D90416EC3201045AF82665B61836D9CD8C2444DD39CA01740405C94182C03558F5F9C3852BBEB6A467FFE9B197D7EF89E6EE8CB2CC17A37002D0820E394D7D68D03A478C17B4007C117EFE32F1B20272733C0
310
2A83E0E3E2D3BC49CABB685CCCAAF3DA6CA20CC14440EA969B0182FA34932C648AD911AEC52CD5558EA6A0CF2EC329598D1E47ACCEFBECC59A050463A7EA5833865FEBDD0E37353BE3EE8DBDE3F6786A48D375FBF6CC78B9C282473B3DEFABC5C86834888A900E538A49F5419B9EB47DD5BC907D4F082F57FB1F28CDFA9F50
310
B22ED6D5F6EE030B20687EE43E10BC5CB3C8E51E54AE6B6EE207504B0304140006080800CC70623B55019EA25F0000007C00000007000000636E782E786D6C4DCB3B0E80201045D1AD90E915ED2CF8AC45050C11660C8261F98AB1B07AC9C97D42D718D865D3E909258CFD00CCE24AC6E326A164D74DC0B4128928FF326038
310
472BA13128B1252AC747C6BAB984FC68F0B87FE8960A5C09FE86CFB69FBA01504B0304140006080800CC70623BA24EB22D72010000D40300000C0000006662782F636F72652E786D6CC5535B6E833010BC8AE5DF0A6C5E49888CA3A6694ED00B38E05014B091B1518EDFE511A5A9D228FD2A1F60CDEC7A67C6986DCE4D8D7A
310
69BA4AAB0C073EC548AA5C17952A33ECECD15B61B4E1CC686DBF9561A44423333CC098B3D268D7CE50AE9595CA02AA74216750749DB418E5352C32DCE59FB211BE70162ABA93DF8AFC244AE9073ED050C759670D0840D390E18DF9F1706664C23973AE2A66B62A605A75ACA4C13C4976E1364A12EF355A2EBD384AF65EFA96
310
BC7B8BED2EA6719AAE16FB8491A199335B351775B991C2CA02F390D2D40B028F861F41BCA68B7518BFD0D59A524686F29B26D7164F36B94AD9289CE54E6D1DE6010819891F6E21228B3AD1831EC219194284CF98F06DD01008846CC5A1BEF83801D4CBDC6A1303536877A57A513B0953A94FC707FDBE6064EA84A9E3E6E0FA
310
EE8CF0E9198F7784A316AA0413C2C2F2E0ECA0934D1AE6D05A69BCDE9E91D2A611F573361E38FC1375157F5752AE6B6DFE4B11990F88CCBF0719EE23FF02504B0304140006080800CC70623B408A7D3B7C0000009D0000000B0000006662782F636E782E786D6C4DCCD10A83201886E15B91FFDC552A92A0064DBC8F581632
310
D3703A76F9ABD1C18E3E78F878E5F0D9027ABBFCF2292AE86E2D20171F69F6715550CB827B40839639A5F2770314A7CD293819B45C73AAFB45B35BA61ACAA1C1C7E7855C58C15BC331339661262CC762340413D68D77DA5B42298546CBE6573AF60CEB2F504B0304140006080800CC70623B449FB9BD290100001202000031
310
0000006662782F36394639363044362D344446342D343946362D394244322D3234314243333846323333332F636F72652E786D6C8D515B6EC32010BC0AE22B55850D98B871848994463E412FE002495162B07854397EA176A4F62F3F2C9A9D991D587EB84F37F0AD7D30CEF6905418026DA553C65E7A98E219ED203808EE9D
310
8B7F6810D871D23D2C3014FCE25D9A57483A1BB58D19B54EE9151C43D0110279CB971E06F9A5A7B11A53CC8C70ADE6515EC78BAE4895DB992778883E0700CB907242D17643D7E2538BD869608875438BBAE38922CAC8F1BDD90DB4691A5E2F42C153326A951B95E398B3D1FE599322163C9AE9115F7A3D46ADA0A018778810
310
84E907617BDCEE297BC5BB3DC6BC2EF47FA234AB2745C9D8D8D035EE220B50105E2F0DC1954B9FB747187D9F9D8FA0CCDB042D5FA0C015C65B42DF78BD10F3F3B363CB56C7109DCFDFBBB97E662ED92EB62D13BC2E1BCAE5777DB9966D8A1F504B0304140006080800CC70623BAD7543B64E01000033030000300000006662
310
782F36394639363044362D344446342D343946362D394244322D3234314243333846323333332F636E782E786D6CD593CD6EC32010845F0571AD6CE3D48AD20813A9873E410FBD12D82434182C7EAAE6EDBB2424CD25871E7B41D6EC30B3FA84F9E67BB2E40B4234DE8DB46F1925E094D7C6ED479AD3AE5951B2113C789FEE
310
6C943839C1488B4C05DF079FE72A69D8C96C13AAD6B8631503449F83828872B949AC57D26200B826A308D316B4064D6E46FCDA41C05550DC9E483A00797BFD207EFB092A45DE9514C1BBD22178396BD39D891265658C238DEA00936C654E5E433CB65A26D9F6EDB5EBC14EBF49A45CB856E66048291F6939A9A81BB5C89177
310
38143CA680F4AA299D66A042CEB3354A2684DC9D8D178FE0D9B8B41CAAD720F880EE7EF93C0C18769E099ECC04D5A102C8049A8A05632F4DDF376CF1DE0F6BB65C2F8627B65A33C6BB62177CEBBDAD973006829F89F22E814B54F4BC2BE347F8AA8F681390B50FA73F804400B5F542E796F19FF974E7F78DB802FE05E20750
310
4B0304140006080800CC70623B8D05915C650500003B100000340000006662782F36394639363044362D344446342D343946362D394244322D3234314243333846323333332F6F626A656374732E786D6CAD575B6FA33814FE2B887D06429276DA1565D4266D158D3A339A6846FB502932E050B66023DB74D2FDF5FB190C01
310
9276B2973C046C8ECFF53B17071F77456EBD502133CEAE6CDF9DD81665314F32965ED995DA3A17B6F5310C04E7AA47665B8C14F4CAD6DB7618A48257A5D94AE89654B91AEDDEDDFC61C998326A5B714EA4BCB265FC440BE2924AF184CA6737218AB8E976E7FA6E4338649B0A523E8D98964450A6A029F619B8588D52FE7039
310
B1BD30F0F4F730D0FF866AF6369557DB33949F31A9088B0F848DD8CCFCF9F2767A76E99CCDE733677E3EF59D9BBB9BA5E37F984D16E78BC5E5F5ED25044B25C0C96822E8D60EEFE11B91C581D77CEA34368A1F5329E68CD1B8B61F16D63A1B8E092D294B10C78C4A48EB593D192E7DED9BDEE7995E1B91FDEDD3ACEA9FE831
310
6A756F9F7D4D79F4274C90A7A04248AA51D5F8C718DAE06FB2F75AC4796EBE65D22A88A22223B995679120E2D50E41AA49C260C046A35368846B0BECD0DFF3EBEB8AD4F835768F69B9ADF25C43D30E6B646F807FAA64AD59F61715C7A54127C4AACA98BA3006A9D792DAE165E0D59B61A01FB3A9F9D838D2DAE62445C86166
310
F37564E842E7DE6A69879FEEA2DD5AE7E371E1A5E025154AC307D06A03D73EB5978C58FFA4C8E9033066E0F3BD53BEC1F39F91BE7B55103791EDE6BBB991A2046172CB4581D8B893FA674DDA17A77B3B7C413D1B511FD2743BFF8A38F03A658705E3ADF8015C3A3417FF3D7E439FF591DA0B5F18BC20C1B8981957AE6392A3
310
F43C640C01D1A0B4728E2DD4F26DB4B3C3152A252A3B4E913CEC1C72F012782FF88EFF8637AA552DBEF76408E8A8DE9E50F9E1CB3A2DA0DB1B6039A893B56063DC5B3E3FFB5F72E67AB9FEB4AEC496C4F4C1149625DD662C53E89D7BF0F6151A046260D1337DFDC94502430F83B0EE07A130A224BCAD7DAE1D9FB6CD422FF6
310
920702629C4BB9AE79C12F243C6432A6794E18E5552BA56B431AAB5D91317302B2B071E86C3A42B1A02F999E24061403B5D0EB639195DA655DD3EBEAB4FB862DDF579F014AD0E73C22F99E28DA57FB98E75C6CA2D74D53086D600F4786E0FE3144B771A8A7B900F03594DB8A633CBC49B2EDB69228BB479CF863B5E807AAAB
310
23872F6DFEB4129B949CA33823F58830E86D65621E10047D9DB34D862E8EAC3C2ABC2F7B2C40D67CDFE01F5545B92105AF983AC54D93D69E56FB8E797F88913F898A9FEC705D3F9D1B54EC8426FB500D40A03BD0119B06E1B95DDC7EB8F6975367793EBD70E66733DFB9BC982F9CE564727731999F5D4ECFCE3B8D6A4DC2A0
310
6D50FD148437D110834A64C6CDDF57FBACB5C307A2A477DFE4939736CFEF2B175371E0E10CF0DD1D5C15654E0BCA14D1E87DD02FF93782A162C0A3D95F1524A52770F972BF1EE9809D13CE7DD599467F8ECE9ADD85CE85A34CD45355448C64F9E8A031DC2D596ACC6E5DD93D9B82DE2EF5CAF81363A8E47996A0DE24564A79
310
4115AACE09C55E14540231FDA13C319787134EBF34E3A022514E5B4D9E0826E25C02D5805B15ABE1BEF51B26383D445DD9E875EE33FE4C22DA16427D65A3BCA92CA6D28DD01DF5DC53330704308475351050232CCD31583787BA75774AFB06E5070DD0C8EF484E19968C5D83BA5B90B244D31E54D55A372320FE4786B7EA58
310
44E135AA5467CB7EA333A61683CC6A8C3257034C10CF46F40EF9F5BE59BE5BD30C3C72D235E95D10345C1D45445A5F0BB47E46A5EBE5570F9380B5FA629579952296A773720405982B9DE04011506178964401AA8BDF1FBF0A8EAB6861DD6580C0E38217056766716DAEB2D6FA0917D3E4116581EADB879C4E7CFFB11EFACD
310
3D641311495D92C8676CB409A72D18610D803CE8A626049E8EC1887CB5B44CC39883690DDA8399B4B9855B481E7D71D4A9D22F96E5BB73BF5793020C02137BF837504B0304140006080000CC70623B000000000000000000000000350000006662782F36394639363044362D344446342D343946362D394244322D32343142
310
43333846323333332F76657274696365732E62696E504B0304140006080800CC70623BF270F1330600000004000000360000006662782F36394639363044362D344446342D343946362D394244322D3234314243333846323333332F747269616E676C65732E62696E636660600000504B0304140006080000CC70623B0000
310
00000000000000000000370000006662782F36394639363044362D344446342D343946362D394244322D3234314243333846323333332F617474726962757465732E62696E504B0304140006080800CC70623B08DA0BD19000000041010000360000006662782F36394639363044362D344446342D343946362D394244322D
310
3234314243333846323333332F6469726563746F72792E786D6C858F410AC3201045AF22B36F53E9A60B35CBEEBAE80D244E44489C6234F4F835464A48035D0DF398FF9F8AF63D0E6CC63039F212F8F9020C7D47C6792B21C5FE7403D62A1188E2E60C98D7234A5830286103A55745067B9D86B8A3CF9C7F90C11DE607FB14
310
4396D7B6A82D282E9A152AD114D5EF2CB866EEE831B8EEA07A7BB5A8D7D61A2BAAEB7FD5F70921FF497D00504B0304140006080800CC70623BCA768048FE000000A00100003B0000006662782F36394639363044362D344446342D343946362D394244322D3234314243333846323333332F7265736F75726365732F636F72
310
652E786D6C8D50596E833010BD0A9ADFCA60D600328E9AA639412F609909B1126CE4A5EAF16B0295DABFFECC8CDEA2797AECF8353F924FB44E193D409E5248504B332A3D0D10FC95B4901C39B3C6F85F3248B49871801506CE266BC2B243D2688FDA47549B11775038871E12F988C7004EDE7016A9083E2ADC3D5D84BC8B09
310
D33C8D74D471E6BC8D0192EDC93A815B742658898E651BCB59086ADC356A8C3FD555A1055ED7E7E254D615792D0F075295F585746FF53B694EE78A565DD736979A65AB9933AFE69F8CD2A2F038022F28ED489E135A7CE4554F9BBEA85E68DB53CAB255FEC71496F19FA6A0B42F8B3DEE6673C0F318E4497096AD7DC5F52C33
310
EEB55BFE0D504B010214000A0000080000CC70623B3DEE336E79000000790000001B00000000000000000000000000000000006175746F6465736B2D64657369676E2D7061636B6167652E786D6C504B01021400140006080800CC70623BD486FD9CA0000000F40000001300000000000000000000000000B20000005B436F
310
6E74656E745F54797065735D2E786D6C504B01021400140006080800CC70623BD9DDAED0EC0000007C010000080000000000000000000000000083010000636F72652E786D6C504B01021400140006080800CC70623B55019EA25F0000007C000000070000000000000000000000000095020000636E782E786D6C504B0102
310
1400140006080800CC70623BA24EB22D72010000D40300000C00000000000000000000000000190300006662782F636F72652E786D6C504B01021400140006080800CC70623B408A7D3B7C0000009D0000000B00000000000000000000000000B50400006662782F636E782E786D6C504B01021400140006080800CC70623B
310
449FB9BD290100001202000031000000000000000000000000005A0500006662782F36394639363044362D344446342D343946362D394244322D3234314243333846323333332F636F72652E786D6C504B01021400140006080800CC70623BAD7543B64E010000330300003000000000000000000000000000D20600006662
310
782F36394639363044362D344446342D343946362D394244322D3234314243333846323333332F636E782E786D6C504B01021400140006080800CC70623B8D05915C650500003B10000034000000000000000000000000006E0800006662782F36394639363044362D344446342D343946362D394244322D32343142433338
310
46323333332F6F626A656374732E786D6C504B01021400140006080000CC70623B0000000000000000000000003500000000000000000000000000250E00006662782F36394639363044362D344446342D343946362D394244322D3234314243333846323333332F76657274696365732E62696E504B010214001400060808
310
00CC70623BF270F13306000000040000003600000000000000000000000000780E00006662782F36394639363044362D344446342D343946362D394244322D3234314243333846323333332F747269616E676C65732E62696E504B01021400140006080000CC70623B00000000000000000000000037000000000000000000
310
00000000D20E00006662782F36394639363044362D344446342D343946362D394244322D3234314243333846323333332F617474726962757465732E62696E504B01021400140006080800CC70623B08DA0BD190000000410100003600000000000000000000000000270F00006662782F36394639363044362D344446342D
310
343946362D394244322D3234314243333846323333332F6469726563746F72792E786D6C504B01021400140006080800CC70623BCA768048FE000000A00100003B000000000000000000000000000B1000006662782F36394639363044362D344446342D343946362D394244322D3234314243333846323333332F7265736F
310
75726365732F636F72652E786D6C504B0506000000000E000E0080040000621100000000
  0
ACAD_PROXY_OBJECT
  5
103F
330
102A
100
AcDbProxyObject
 90
      499
 91
      529
 93
       77
310
40AF3C363FFFCA152020
330
1012
330
0
330
0
360
0
 94
        0
1001
ACAD
1000
AcadProxyRoundTripData
1071
      518
1071
 11403297
1070
     0
  0
ACAD_PROXY_OBJECT
  5
1037
330
102A
100
AcDbProxyObject
 90
      499
 91
      529
 93
       77
310
40AF3C363FFFC98D2020
330
1002
330
0
330
0
360
0
 94
        0
1001
ACAD
1000
AcadProxyRoundTripData
1071
      518
1071
 11403297
1070
     0
  0
ACAD_PROXY_OBJECT
  5
1033
330
102A
100
AcDbProxyObject
 90
      499
 91
      529
 93
       77
310
40AF3C363FFFC9AD2020
330
1005
330
0
330
0
360
0
 94
        0
1001
ACAD
1000
AcadProxyRoundTripData
1071
      518
1071
 11403297
1070
     0
  0
ACAD_PROXY_OBJECT
  5
103C
330
102A
100
AcDbProxyObject
 90
      499
 91
      529
 93
       70
310
40AB89B4AD22901004
330
1058
330
0
330
0
360
0
 94
        0
1001
ACAD
1000
AcadProxyRoundTripData
1071
      521
1071
 11403297
1070
     0
  0
ACAD_PROXY_OBJECT
  5
1038
330
102A
100
AcDbProxyObject
 90
      499
 91
      529
 93
       77
310
40AF3C363FFFC8DD2020
330
100A
330
0
330
0
360
0
 94
        0
1001
ACAD
1000
AcadProxyRoundTripData
1071
      518
1071
 11403297
1070
     0
  0
ACAD_PROXY_OBJECT
  5
1030
330
102A
100
AcDbProxyObject
 90
      499
 91
      529
 93
       30
310
40A78920
330
101F
330
0
330
0
360
1031
 94
        0
1001
ACAD
1000
AcadProxyRoundTripData
1071
      519
1071
 11403297
1070
     0
  0
ACAD_PROXY_OBJECT
  5
1034
330
102A
100
AcDbProxyObject
 90
      499
 91
      529
 93
       30
310
40A78A20
330
1024
330
0
330
0
360
1035
 94
        0
1001
ACAD
1000
AcadProxyRoundTripData
1071
      519
1071
 11403297
1070
     0
  0
ACAD_PROXY_OBJECT
  5
103E
330
102A
100
AcDbProxyObject
 90
      499
 91
      529
 93
       77
310
40AF3C363FFFC9452020
330
100D
330
0
330
0
360
0
 94
        0
1001
ACAD
1000
AcadProxyRoundTripData
1071
      518
1071
 11403297
1070
     0
  0
ACAD_PROXY_OBJECT
  5
103A
330
102A
100
AcDbProxyObject
 90
      499
 91
      529
 93
       30
310
40A78AC0
330
1025
330
0
330
0
360
103B
 94
        0
1001
ACAD
1000
AcadProxyRoundTripData
1071
      519
1071
 11403297
1070
     0
  0
ACAD_PROXY_OBJECT
  5
1032
330
102A
100
AcDbProxyObject
 90
      499
 91
      529
 93
       70
310
40AB891CAD22901005
330
1056
330
0
330
0
360
0
 94
        0
1001
ACAD
1000
AcadProxyRoundTripData
1071
      521
1071
 11403297
1070
     0
  0
ACAD_PROXY_OBJECT
  5
1036
330
102A
100
AcDbProxyObject
 90
      499
 91
      529
 93
      126
310
40AB8A04940295C8FC2F428488101004
330
105A
330
0
330
0
360
0
 94
        0
1001
ACAD
1000
AcadProxyRoundTripData
1071
      521
1071
 11403297
1070
     0
  0
ACAD_PROXY_OBJECT
  5
102B
330
102A
100
AcDbProxyObject
 90
      499
 91
      529
 93
       70
310
40AB8A1CAD26501004
330
105B
330
0
330
0
360
0
 94
        0
1001
ACAD
1000
AcadProxyRoundTripData
1071
      521
1071
 11403297
1070
     0
  0
ACAD_PROXY_OBJECT
  5
102F
330
102A
100
AcDbProxyObject
 90
      499
 91
      529
 93
       77
310
40AF3C363FFFC9152020
330
100B
330
0
330
0
360
0
 94
        0
1001
ACAD
1000
AcadProxyRoundTripData
1071
      518
1071
 11403297
1070
     0
  0
ACAD_PROXY_OBJECT
  5
102C
330
102A
100
AcDbProxyObject
 90
      499
 91
      529
 93
       30
310
40A789D0
330
1022
330
0
330
0
360
102D
 94
        0
1001
ACAD
1000
AcadProxyRoundTripData
1071
      519
1071
 11403297
1070
     0
  0
ACAD_PROXY_OBJECT
  5
102E
330
102A
100
AcDbProxyObject
 90
      499
 91
      529
 93
       94
310
40AB8ACCAD05802000101004
330
105C
330
0
330
0
360
0
 94
        0
1001
ACAD
1000
AcadProxyRoundTripData
1071
      521
1071
 11403297
1070
     0
  0
ACAD_PROXY_OBJECT
  5
103D
330
102A
100
AcDbProxyObject
 90
      499
 91
      529
 93
       77
310
40AF3C363FFFC9A52020
330
1003
330
0
330
0
360
0
 94
        0
1001
ACAD
1000
AcadProxyRoundTripData
1071
      518
1071
 11403297
1070
     0
  0
ACAD_PROXY_OBJECT
  5
1039
330
102A
100
AcDbProxyObject
 90
      499
 91
      529
 93
       77
310
40AF3C363FFFC9952020
330
1008
330
0
330
0
360
0
 94
        0
1001
ACAD
1000
AcadProxyRoundTripData
1071
      518
1071
 11403297
1070
     0
  0
ACAD_PROXY_OBJECT
  5
1047
330
102A
100
AcDbProxyObject
 90
      499
 91
      529
 93
       77
310
40AF3C363FFFC9F52020
330
1010
330
0
330
0
360
0
 94
        0
1001
ACAD
1000
AcadProxyRoundTripData
1071
      518
1071
 11403297
1070
     0
  0
ACAD_PROXY_OBJECT
  5
104B
330
102A
100
AcDbProxyObject
 90
      499
 91
      529
 93
       94
310
40AB894CAD05802000101005
330
1057
330
0
330
0
360
0
 94
        0
1001
ACAD
1000
AcadProxyRoundTripData
1071
      521
1071
 11403297
1070
     0
  0
ACAD_PROXY_OBJECT
  5
1043
330
102A
100
AcDbProxyObject
 90
      499
 91
      529
 93
       77
310
40AF3C363FFFC9C52020
330
100F
330
0
330
0
360
0
 94
        0
1001
ACAD
1000
AcadProxyRoundTripData
1071
      518
1071
 11403297
1070
     0
  0
ACAD_PROXY_OBJECT
  5
104E
330
102A
100
AcDbProxyObject
 90
      499
 91
      529
 93
       30
310
40A78A08
330
1023
330
0
330
0
360
104F
 94
        0
1001
ACAD
1000
AcadProxyRoundTripData
1071
      519
1071
 11403297
1070
     0
  0
ACAD_PROXY_OBJECT
  5
1046
330
102A
100
AcDbProxyObject
 90
      499
 91
      529
 93
       77
310
40AF3C363FFFCA8D2020
330
1019
330
0
330
0
360
0
 94
        0
1001
ACAD
1000
AcadProxyRoundTripData
1071
      518
1071
 11403297
1070
     0
  0
ACAD_PROXY_OBJECT
  5
1042
330
102A
100
AcDbProxyObject
 90
      499
 91
      529
 93
       77
310
40AF3C363FFFCAB52020
330
101E
330
0
330
0
360
0
 94
        0
1001
ACAD
1000
AcadProxyRoundTripData
1071
      518
1071
 11403297
1070
     0
  0
ACAD_PROXY_OBJECT
  5
104C
330
102A
100
AcDbProxyObject
 90
      499
 91
      529
 93
       77
310
40AF3C363FFFCAA52020
330
101A
330
0
330
0
360
0
 94
        0
1001
ACAD
1000
AcadProxyRoundTripData
1071
      518
1071
 11403297
1070
     0
  0
ACAD_PROXY_OBJECT
  5
1048
330
102A
100
AcDbProxyObject
 90
      499
 91
      529
 93
       77
310
40AF3C363FFFCAD52020
330
101D
330
0
330
0
360
0
 94
        0
1001
ACAD
1000
AcadProxyRoundTripData
1071
      518
1071
 11403297
1070
     0
  0
ACAD_PROXY_OBJECT
  5
1044
330
102A
100
AcDbProxyObject
 90
      499
 91
      529
 93
       94
310
40AB89CCAD05802000101004
330
1059
330
0
330
0
360
0
 94
        0
1001
ACAD
1000
AcadProxyRoundTripData
1071
      521
1071
 11403297
1070
     0
  0
ACAD_PROXY_OBJECT
  5
1040
330
102A
100
AcDbProxyObject
 90
      499
 91
      529
 93
       30
310
40A78A90
330
1026
330
0
330
0
360
1041
 94
        0
1001
ACAD
1000
AcadProxyRoundTripData
1071
      519
1071
 11403297
1070
     0
  0
ACAD_PROXY_OBJECT
  5
104D
330
102A
100
AcDbProxyObject
 90
      499
 91
      529
 93
       70
310
40AB8AACAD23301004
330
105D
330
0
330
0
360
0
 94
        0
1001
ACAD
1000
AcadProxyRoundTripData
1071
      521
1071
 11403297
1070
     0
  0
ACAD_PROXY_OBJECT
  5
1049
330
102A
100
AcDbProxyObject
 90
      499
 91
      529
 93
       30
310
40A78950
330
1020
330
0
330
0
360
104A
 94
        0
1001
ACAD
1000
AcadProxyRoundTripData
1071
      519
1071
 11403297
1070
     0
  0
ACAD_PROXY_OBJECT
  5
1045
330
102A
100
AcDbProxyObject
 90
      499
 91
      529
 93
       77
310
40AF3C363FFFC99D2020
330
1004
330
0
330
0
360
0
 94
        0
1001
ACAD
1000
AcadProxyRoundTripData
1071
      518
1071
 11403297
1070
     0
  0
ACAD_PROXY_OBJECT
  5
1052
330
102A
100
AcDbProxyObject
 90
      499
 91
      529
 93
       30
310
40A789B8
330
1021
330
0
330
0
360
1053
 94
        0
1001
ACAD
1000
AcadProxyRoundTripData
1071
      519
1071
 11403297
1070
     0
  0
ACAD_PROXY_OBJECT
  5
1051
330
102A
100
AcDbProxyObject
 90
      499
 91
      529
 93
       77
310
40AF3C363FFFC9FD2020
330
100C
330
0
330
0
360
0
 94
        0
1001
ACAD
1000
AcadProxyRoundTripData
1071
      518
1071
 11403297
1070
     0
  0
ACAD_PROXY_OBJECT
  5
1054
330
102A
100
AcDbProxyObject
 90
      499
 91
      529
 93
       30
310
40A78A98
330
1027
330
0
330
0
360
1055
 94
        0
1001
ACAD
1000
AcadProxyRoundTripData
1071
      519
1071
 11403297
1070
     0
  0
ACAD_PROXY_OBJECT
  5
1050
330
102A
100
AcDbProxyObject
 90
      499
 91
      529
 93
       70
310
40AB8ABCAD21301005
330
105E
330
0
330
0
360
0
 94
        0
1001
ACAD
1000
AcadProxyRoundTripData
1071
      521
1071
 11403297
1070
     0
  0
ACAD_PROXY_OBJECT
  5
1031
330
1030
100
AcDbProxyObject
 90
      499
 91
      529
 93
      137
310
4050140505640032003D00320030005A0080
1001
ACAD
1000
AcadProxyRoundTripData
1071
      520
1071
 11403297
1070
     0
  0
ACAD_PROXY_OBJECT
  5
1035
330
1034
100
AcDbProxyObject
 90
      499
 91
      529
 93
      137
310
4050140505640035003D00350030005A00C3
1001
ACAD
1000
AcadProxyRoundTripData
1071
      520
1071
 11403297
1070
     0
  0
ACAD_PROXY_OBJECT
  5
103B
330
103A
100
AcDbProxyObject
 90
      499
 91
      529
 93
      169
310
40501405074A53845F32003D003300300030007A0080
1001
ACAD
1000
AcadProxyRoundTripData
1071
      520
1071
 11403297
1070
     0
  0
ACAD_PROXY_OBJECT
  5
102D
330
102C
100
AcDbProxyObject
 90
      499
 91
      529
 93
      169
310
40501405074A53845F33003D003300300030007A0080
1001
ACAD
1000
AcadProxyRoundTripData
1071
      520
1071
 11403297
1070
     0
  0
ACAD_PROXY_OBJECT
  5
104F
330
104E
100
AcDbProxyObject
 90
      499
 91
      529
 93
      185
310
4050140508640034003D00310030002E00300034008A0080
1001
ACAD
1000
AcadProxyRoundTripData
1071
      520
1071
 11403297
1070
     0
  0
ACAD_PROXY_OBJECT
  5
1041
330
1040
100
AcDbProxyObject
 90
      499
 91
      529
 93
      137
310
4050140505640033003D00320035005A00C3
1001
ACAD
1000
AcadProxyRoundTripData
1071
      520
1071
 11403297
1070
     0
  0
ACAD_PROXY_OBJECT
  5
104A
330
1049
100
AcDbProxyObject
 90
      499
 91
      529
 93
      169
310
40501405074A53845F31003D003300300030007A0080
1001
ACAD
1000
AcadProxyRoundTripData
1071
      520
1071
 11403297
1070
     0
  0
ACAD_PROXY_OBJECT
  5
1053
330
1052
100
AcDbProxyObject
 90
      499
 91
      529
 93
      137
310
4050140505640031003D00320030005A00C3
1001
ACAD
1000
AcadProxyRoundTripData
1071
      520
1071
 11403297
1070
     0
  0
ACAD_PROXY_OBJECT
  5
1055
330
1054
100
AcDbProxyObject
 90
      499
 91
      529
 93
      121
310
4050140504640036003D0039004A00DA
1001
ACAD
1000
AcadProxyRoundTripData
1071
      520
1071
 11403297
1070
     0
  0
ENDSEC
  0
EOF
