  0
SECTION
  2
HEADER
  9
$ACADVER
  1
AC1014
  9
$ACADMAINTVER
 70
     9
  9
$DWGCODEPAGE
  3
ANSI_936
  9
$INSBASE
 10
0.0
 20
0.0
 30
0.0
  9
$EXTMIN
 10
2574.004977998819
 20
1185.786515271973
 30
0.0
  9
$EXTMAX
 10
3212.939229167062
 20
1469.468653560576
 30
0.0
  9
$LIMMIN
 10
0.0
 20
0.0
  9
$LIMMAX
 10
420.0
 20
297.0
  9
$ORTHOMODE
 70
     0
  9
$REGENMODE
 70
     1
  9
$FILLMODE
 70
     1
  9
$QTEXTMODE
 70
     0
  9
$MIRRTEXT
 70
     0
  9
$DRAGMODE
 70
     2
  9
$LTSCALE
 40
1.0
  9
$OSMODE
 70
    37
  9
$ATTMODE
 70
     1
  9
$TEXTSIZE
 40
2.5
  9
$TRACEWID
 40
1.0
  9
$TEXTSTYLE
  7
STANDARD
  9
$CLAYER
  8
0
  9
$CELTYPE
  6
BYLAYER
  9
$CECOLOR
 62
   256
  9
$CELTSCALE
 40
1.0
  9
$DELOBJ
 70
     1
  9
$DISPSILH
 70
     0
  9
$DIMSCALE
 40
1.0
  9
$DIMASZ
 40
2.5
  9
$DIMEXO
 40
0.625
  9
$DIMDLI
 40
3.75
  9
$DIMRND
 40
0.0
  9
$DIMDLE
 40
0.0
  9
$DIMEXE
 40
1.25
  9
$DIMTP
 40
0.0
  9
$DIMTM
 40
0.0
  9
$DIMTXT
 40
2.5
  9
$DIMCEN
 40
2.5
  9
$DIMTSZ
 40
0.0
  9
$DIMTOL
 70
     0
  9
$DIMLIM
 70
     0
  9
$DIMTIH
 70
     0
  9
$DIMTOH
 70
     0
  9
$DIMSE1
 70
     0
  9
$DIMSE2
 70
     0
  9
$DIMTAD
 70
     1
  9
$DIMZIN
 70
     8
  9
$DIMBLK
  1

  9
$DIMASO
 70
     1
  9
$DIMSHO
 70
     1
  9
$DIMPOST
  1

  9
$DIMAPOST
  1

  9
$DIMALT
 70
     0
  9
$DIMALTD
 70
     3
  9
$DIMALTF
 40
0.03937007874016
  9
$DIMLFAC
 40
1.0
  9
$DIMTOFL
 70
     1
  9
$DIMTVP
 40
0.0
  9
$DIMTIX
 70
     0
  9
$DIMSOXD
 70
     0
  9
$DIMSAH
 70
     0
  9
$DIMBLK1
  1

  9
$DIMBLK2
  1

  9
$DIMSTYLE
  2
ISO-25
  9
$DIMCLRD
 70
     0
  9
$DIMCLRE
 70
     0
  9
$DIMCLRT
 70
     0
  9
$DIMTFAC
 40
1.0
  9
$DIMGAP
 40
0.625
  9
$DIMJUST
 70
     0
  9
$DIMSD1
 70
     0
  9
$DIMSD2
 70
     0
  9
$DIMTOLJ
 70
     0
  9
$DIMTZIN
 70
     8
  9
$DIMALTZ
 70
     0
  9
$DIMALTTZ
 70
     0
  9
$DIMFIT
 70
     3
  9
$DIMUPT
 70
     0
  9
$DIMUNIT
 70
     2
  9
$DIMDEC
 70
     2
  9
$DIMTDEC
 70
     2
  9
$DIMALTU
 70
     2
  9
$DIMALTTD
 70
     3
  9
$DIMTXSTY
  7
STANDARD
  9
$DIMAUNIT
 70
     0
  9
$LUNITS
 70
     2
  9
$LUPREC
 70
     4
  9
$SKETCHINC
 40
1.0
  9
$FILLETRAD
 40
0.0
  9
$AUNITS
 70
     0
  9
$AUPREC
 70
     0
  9
$MENU
  1
.
  9
$ELEVATION
 40
0.0
  9
$PELEVATION
 40
0.0
  9
$THICKNESS
 40
0.0
  9
$LIMCHECK
 70
     0
  9
$CHAMFERA
 40
0.0
  9
$CHAMFERB
 40
0.0
  9
$CHAMFERC
 40
0.0
  9
$CHAMFERD
 40
0.0
  9
$SKPOLY
 70
     0
  9
$TDCREATE
 40
2460229.623148148
  9
$TDUPDATE
 40
2460669.462428333
  9
$TDINDWG
 40
0.0545023148
  9
$TDUSRTIMER
 40
0.0545023148
  9
$USRTIMER
 70
     1
  9
$ANGBASE
 50
0.0
  9
$ANGDIR
 70
     0
  9
$PDMODE
 70
     0
  9
$PDSIZE
 40
0.0
  9
$PLINEWID
 40
0.0
  9
$COORDS
 70
     1
  9
$SPLFRAME
 70
     0
  9
$SPLINETYPE
 70
     6
  9
$SPLINESEGS
 70
     8
  9
$ATTDIA
 70
     0
  9
$ATTREQ
 70
     1
  9
$HANDLING
 70
     1
  9
$HANDSEED
  5
953
  9
$SURFTAB1
 70
     6
  9
$SURFTAB2
 70
     6
  9
$SURFTYPE
 70
     6
  9
$SURFU
 70
     6
  9
$SURFV
 70
     6
  9
$UCSNAME
  2

  9
$UCSORG
 10
0.0
 20
0.0
 30
0.0
  9
$UCSXDIR
 10
1.0
 20
0.0
 30
0.0
  9
$UCSYDIR
 10
0.0
 20
1.0
 30
0.0
  9
$PUCSNAME
  2

  9
$PUCSORG
 10
0.0
 20
0.0
 30
0.0
  9
$PUCSXDIR
 10
1.0
 20
0.0
 30
0.0
  9
$PUCSYDIR
 10
0.0
 20
1.0
 30
0.0
  9
$USERI1
 70
     0
  9
$USERI2
 70
     0
  9
$USERI3
 70
     0
  9
$USERI4
 70
     0
  9
$USERI5
 70
     0
  9
$USERR1
 40
0.0
  9
$USERR2
 40
0.0
  9
$USERR3
 40
0.0
  9
$USERR4
 40
0.0
  9
$USERR5
 40
0.0
  9
$WORLDVIEW
 70
     1
  9
$SHADEDGE
 70
     3
  9
$SHADEDIF
 70
    70
  9
$TILEMODE
 70
     1
  9
$MAXACTVP
 70
    64
  9
$PINSBASE
 10
0.0
 20
0.0
 30
0.0
  9
$PLIMCHECK
 70
     0
  9
$PEXTMIN
 10
0.0
 20
0.0
 30
0.0
  9
$PEXTMAX
 10
0.0
 20
0.0
 30
0.0
  9
$PLIMMIN
 10
0.0
 20
0.0
  9
$PLIMMAX
 10
12.0
 20
9.0
  9
$UNITMODE
 70
     0
  9
$VISRETAIN
 70
     1
  9
$PLINEGEN
 70
     0
  9
$PSLTSCALE
 70
     1
  9
$TREEDEPTH
 70
  3020
  9
$PICKSTYLE
 70
     1
  9
$CMLSTYLE
  2
STANDARD
  9
$CMLJUST
 70
     0
  9
$CMLSCALE
 40
20.0
  9
$PROXYGRAPHICS
 70
     1
  9
$MEASUREMENT
 70
     1
  0
ENDSEC
  0
SECTION
  2
CLASSES
  0
CLASS
  1
ACDBDICTIONARYWDFLT
  2
AcDbDictionaryWithDefault
  3
ObjectDBX Classes
 90
        0
280
     0
281
     0
  0
CLASS
  1
ACDBPLACEHOLDER
  2
AcDbPlaceHolder
  3
ObjectDBX Classes
 90
        0
280
     0
281
     0
  0
CLASS
  1
LAYOUT
  2
AcDbLayout
  3
ObjectDBX Classes
 90
        0
280
     0
281
     0
  0
CLASS
  1
DICTIONARYVAR
  2
AcDbDictionaryVar
  3
ObjectDBX Classes
 90
        0
280
     0
281
     0
  0
CLASS
  1
TABLESTYLE
  2
AcDbTableStyle
  3
ObjectDBX Classes
 90
     4095
280
     0
281
     0
  0
CLASS
  1
MATERIAL
  2
AcDbMaterial
  3
ObjectDBX Classes
 90
     1153
280
     0
281
     0
  0
CLASS
  1
VISUALSTYLE
  2
AcDbVisualStyle
  3
ObjectDBX Classes
 90
     4095
280
     0
281
     0
  0
CLASS
  1
SCALE
  2
AcDbScale
  3
ObjectDBX Classes
 90
     1153
280
     0
281
     0
  0
CLASS
  1
MLEADERSTYLE
  2
AcDbMLeaderStyle
  3
ACDB_MLEADERSTYLE_CLASS
 90
     4095
280
     0
281
     0
  0
CLASS
  1
CELLSTYLEMAP
  2
AcDbCellStyleMap
  3
ObjectDBX Classes
 90
     1152
280
     0
281
     0
  0
CLASS
  1
EXACXREFPANELOBJECT
  2
ExAcXREFPanelObject
  3
EXAC_ESW
 90
     1025
280
     1
281
     0
  0
CLASS
  1
NPOCOLLECTION
  2
AcDbImpNonPersistentObjectsCollection
  3
ObjectDBX Classes
 90
     1153
280
     1
281
     0
  0
CLASS
  1
LAYER_INDEX
  2
AcDbLayerIndex
  3
ObjectDBX Classes
 90
        0
280
     0
281
     0
  0
CLASS
  1
SPATIAL_INDEX
  2
AcDbSpatialIndex
  3
AutoCAD 2000
 90
        0
280
     0
281
     0
  0
CLASS
  1
IDBUFFER
  2
AcDbIdBuffer
  3
ObjectDBX Classes
 90
        0
280
     0
281
     0
  0
CLASS
  1
ACDBSECTIONVIEWSTYLE
  2
AcDbSectionViewStyle
  3
ObjectDBX Classes
 90
     1025
280
     0
281
     0
  0
CLASS
  1
ACDBDETAILVIEWSTYLE
  2
AcDbDetailViewStyle
  3
ObjectDBX Classes
 90
     1025
280
     0
281
     0
  0
CLASS
  1
ACDBASSOC2DCONSTRAINTGROUP
  2
AcDbAssoc2dConstraintGroup
  3
ObjectDBX Classes
 90
     1025
280
     1
281
     0
  0
CLASS
  1
ACDBASSOCDEPENDENCY
  2
AcDbAssocDependency
  3
ObjectDBX Classes
 90
     1025
280
     1
281
     0
  0
CLASS
  1
ASSOCDIMDEPENDENCYBODY
  2
AcDbAssocDimDependencyBody
  3
ObjectDBX Classes
 90
     1025
280
     1
281
     0
  0
CLASS
  1
ACDBASSOCVALUEDEPENDENCY
  2
AcDbAssocValueDependency
  3
ObjectDBX Classes
 90
     1025
280
     1
281
     0
  0
CLASS
  1
ACDBASSOCGEOMDEPENDENCY
  2
AcDbAssocGeomDependency
  3
ObjectDBX Classes
 90
     1025
280
     1
281
     0
  0
CLASS
  1
ACDBASSOCVARIABLE
  2
AcDbAssocVariable
  3
ObjectDBX Classes
 90
     1025
280
     1
281
     0
  0
CLASS
  1
ACDBASSOCNETWORK
  2
AcDbAssocNetwork
  3
ObjectDBX Classes
 90
     1025
280
     1
281
     0
  0
CLASS
  1
RAPIDRTRENDERSETTINGS
  2
AcDbRapidRTRenderSettings
  3
ObjectDBX Classes
 90
     1024
280
     0
281
     0
  0
CLASS
  1
ACAD_TABLE
  2
AcDbTable
  3
ObjectDBX Classes
 90
     1025
280
     0
281
     1
  0
CLASS
  1
TABLECONTENT
  2
AcDbTableContent
  3
ObjectDBX Classes
 90
     1152
280
     0
281
     0
  0
CLASS
  1
TABLEGEOMETRY
  2
AcDbTableGeometry
  3
ObjectDBX Classes
 90
     1152
280
     0
281
     0
  0
CLASS
  1
ACAD_PROXY_OBJECT_WRAPPER
  2
AcDbProxyObjectWrapper
  3
AutoCAD 2000
 90
        0
280
     0
281
     0
  0
CLASS
  1
XRECORD
  2
AcDbXrecord
  3
ObjectDBX Classes
 90
        0
280
     0
281
     0
  0
CLASS
  1
LWPOLYLINE
  2
AcDbPolyline
  3
ObjectDBX Classes
 90
        0
280
     0
281
     1
  0
CLASS
  1
HATCH
  2
AcDbHatch
  3
ObjectDBX Classes
 90
        0
280
     0
281
     1
  0
ENDSEC
  0
SECTION
  2
TABLES
  0
TABLE
  2
VPORT
  5
8
102
{ACAD_XDICTIONARY
360
94C
102
}
330
0
100
AcDbSymbolTable
 70
     1
  0
VPORT
  5
EA
330
8
100
AcDbSymbolTableRecord
100
AcDbViewportTableRecord
  2
*ACTIVE
 70
     0
 10
0.0
 20
0.0
 11
1.0
 21
1.0
 12
2985.099157228994
 22
1421.892763475138
 13
0.0
 23
0.0
 14
10.0
 24
10.0
 15
10.0
 25
10.0
 16
0.0
 26
0.0
 36
1.0
 17
0.0
 27
0.0
 37
0.0
 40
499.205663163641
 41
2.100765306122449
 42
50.0
 43
0.0
 44
0.0
 50
0.0
 51
0.0
 71
     0
 72
  1000
 73
     1
 74
     3
 75
     0
 76
     1
 77
     0
 78
     0
1001
ACAD_NAV_VCDISPLAY
1070
     3
  0
ENDTAB
  0
TABLE
  2
LTYPE
  5
5
330
0
100
AcDbSymbolTable
 70
     2
  0
LTYPE
  5
14
330
5
100
AcDbSymbolTableRecord
100
AcDbLinetypeTableRecord
  2
BYBLOCK
 70
     0
  3

 72
    65
 73
     0
 40
0.0
  0
LTYPE
  5
15
330
5
100
AcDbSymbolTableRecord
100
AcDbLinetypeTableRecord
  2
BYLAYER
 70
     0
  3

 72
    65
 73
     0
 40
0.0
  0
LTYPE
  5
16
330
5
100
AcDbSymbolTableRecord
100
AcDbLinetypeTableRecord
  2
CONTINUOUS
 70
     0
  3
Solid line
 72
    65
 73
     0
 40
0.0
  0
LTYPE
  5
2ED
330
5
100
AcDbSymbolTableRecord
100
AcDbLinetypeTableRecord
  2
CENTER
 70
     0
  3
Center ____ _ ____ _ ____ _ ____ _ ____ _ ____
 72
    65
 73
     4
 40
10.16
 49
6.35
 74
     0
 49
-1.27
 74
     0
 49
1.27
 74
     0
 49
-1.27
 74
     0
  0
ENDTAB
  0
TABLE
  2
LAYER
  5
2
102
{ACAD_XDICTIONARY
360
1FF
102
}
330
0
100
AcDbSymbolTable
 70
    10
  0
LAYER
  5
10
330
2
100
AcDbSymbolTableRecord
100
AcDbLayerTableRecord
  2
0
 70
     0
 62
     7
  6
CONTINUOUS
  0
LAYER
  5
2EE
330
2
100
AcDbSymbolTableRecord
100
AcDbLayerTableRecord
  2
粗实线层
 70
     0
 62
     7
  6
CONTINUOUS
  0
LAYER
  5
2F0
330
2
100
AcDbSymbolTableRecord
100
AcDbLayerTableRecord
  2
细实线层
 70
     0
 62
     7
  6
CONTINUOUS
  0
LAYER
  5
2F2
330
2
100
AcDbSymbolTableRecord
100
AcDbLayerTableRecord
  2
DEFPOINTS
 70
     0
 62
     7
  6
CONTINUOUS
  0
LAYER
  5
2F3
330
2
100
AcDbSymbolTableRecord
100
AcDbLayerTableRecord
  2
1轮廓实线层
 70
     0
 62
     7
  6
CONTINUOUS
  0
LAYER
  5
2F5
330
2
100
AcDbSymbolTableRecord
100
AcDbLayerTableRecord
  2
3中心线层
 70
     0
 62
     1
  6
CENTER
  0
LAYER
  5
2F7
330
2
100
AcDbSymbolTableRecord
100
AcDbLayerTableRecord
  2
6文字层
 70
     0
 62
     3
  6
CONTINUOUS
  0
LAYER
  5
2F9
330
2
100
AcDbSymbolTableRecord
100
AcDbLayerTableRecord
  2
7标注层
 70
     0
 62
     4
  6
CONTINUOUS
  0
LAYER
  5
2FB
330
2
100
AcDbSymbolTableRecord
100
AcDbLayerTableRecord
  2
2细线层
 70
     0
 62
     4
  6
CONTINUOUS
  0
LAYER
  5
2FD
330
2
100
AcDbSymbolTableRecord
100
AcDbLayerTableRecord
  2
ADSK_CONSTRAINTS
 70
     0
 62
     7
  6
CONTINUOUS
  0
ENDTAB
  0
TABLE
  2
STYLE
  5
3
330
0
100
AcDbSymbolTable
 70
     5
  0
STYLE
  5
11
330
3
100
AcDbSymbolTableRecord
100
AcDbTextStyleTableRecord
  2
STANDARD
 70
     0
 40
0.0
 41
1.0
 50
0.0
 71
     0
 42
2.5
  3
arial.ttf
  4

1001
ACAD
1000
Arial
1071
       34
  0
STYLE
  5
132
330
3
100
AcDbSymbolTableRecord
100
AcDbTextStyleTableRecord
  2
ANNOTATIVE
 70
     0
 40
0.0
 41
1.0
 50
0.0
 71
     0
 42
2.5
  3
arial.ttf
  4

1001
ACADANNOTATIVE
1000
AnnotativeData
1002
{
1070
     1
1070
     1
1002
}
1001
ACAD
1000
Arial
1071
       34
  0
STYLE
  5
2FE
330
3
100
AcDbSymbolTableRecord
100
AcDbTextStyleTableRecord
  2
标准
 70
     0
 40
9.59
 41
1.0
 50
0.0
 71
     0
 42
2.5
  3

  4

1001
ACAD
1000
SimSun
1071
       34
  0
STYLE
  5
2FF
330
3
100
AcDbSymbolTableRecord
100
AcDbTextStyleTableRecord
  2
TH-GBD2M
 70
     0
 40
2.5
 41
0.8
 50
0.0
 71
     0
 42
2.5
  3
calibri.ttf
  4

1001
ACADANNOTATIVE
1000
AnnotativeData
1002
{
1070
     1
1070
     1
1002
}
1001
ACAD
1000
Calibri
1071
       34
  0
STYLE
  5
300
330
3
100
AcDbSymbolTableRecord
100
AcDbTextStyleTableRecord
  2
TH_GBDIM
 70
     0
 40
1.5
 41
0.8
 50
0.0
 71
     0
 42
5.0
  3
calibri.ttf
  4

1001
ACAD
1000
Calibri
1071
       34
  0
ENDTAB
  0
TABLE
  2
VIEW
  5
6
330
0
100
AcDbSymbolTable
 70
     0
  0
ENDTAB
  0
TABLE
  2
UCS
  5
7
330
0
100
AcDbSymbolTable
 70
     0
  0
ENDTAB
  0
TABLE
  2
APPID
  5
9
330
0
100
AcDbSymbolTable
 70
    21
  0
APPID
  5
12
330
9
100
AcDbSymbolTableRecord
100
AcDbRegAppTableRecord
  2
ACAD
 70
     0
  0
APPID
  5
9E
330
9
100
AcDbSymbolTableRecord
100
AcDbRegAppTableRecord
  2
ACAD_PSEXT
 70
     0
  0
APPID
  5
133
330
9
100
AcDbSymbolTableRecord
100
AcDbRegAppTableRecord
  2
ACADANNOPO
 70
     0
  0
APPID
  5
134
330
9
100
AcDbSymbolTableRecord
100
AcDbRegAppTableRecord
  2
ACADANNOTATIVE
 70
     0
  0
APPID
  5
135
330
9
100
AcDbSymbolTableRecord
100
AcDbRegAppTableRecord
  2
ACAD_DSTYLE_DIMJAG
 70
     0
  0
APPID
  5
136
330
9
100
AcDbSymbolTableRecord
100
AcDbRegAppTableRecord
  2
ACAD_DSTYLE_DIMTALN
 70
     0
  0
APPID
  5
165
330
9
100
AcDbSymbolTableRecord
100
AcDbRegAppTableRecord
  2
ACAD_MLEADERVER
 70
     0
  0
APPID
  5
217
330
9
100
AcDbSymbolTableRecord
100
AcDbRegAppTableRecord
  2
ACAD_NAV_VCDISPLAY
 70
     0
  0
APPID
  5
303
330
9
100
AcDbSymbolTableRecord
100
AcDbRegAppTableRecord
  2
ACAD_DSTYLE_DIMBREAK
 70
     0
  0
APPID
  5
304
330
9
100
AcDbSymbolTableRecord
100
AcDbRegAppTableRecord
  2
ACAD_DSTYLE_DIMRADIAL_EXTE
 70
     0
  0
APPID
  5
305
330
9
100
AcDbSymbolTableRecord
100
AcDbRegAppTableRecord
  2
ACAD_DSTYLE_DIMINSPECT
 70
     0
  0
APPID
  5
306
330
9
100
AcDbSymbolTableRecord
100
AcDbRegAppTableRecord
  2
GENIUS_GENDTOL_13
 70
     0
  0
APPID
  5
307
330
9
100
AcDbSymbolTableRecord
100
AcDbRegAppTableRecord
  2
ACDBBLOCKREPETAG
 70
     0
  0
APPID
  5
308
330
9
100
AcDbSymbolTableRecord
100
AcDbRegAppTableRecord
  2
CAXA_DRAFT_PAPERFRAME
 70
     0
  0
APPID
  5
309
330
9
100
AcDbSymbolTableRecord
100
AcDbRegAppTableRecord
  2
CAXA_DRAFT_BLKHIDE
 70
     0
  0
APPID
  5
516
330
9
100
AcDbSymbolTableRecord
100
AcDbRegAppTableRecord
  2
ACAD_DSTYLE_DIMJAG_POSITIO
 70
     0
  0
APPID
  5
517
330
9
100
AcDbSymbolTableRecord
100
AcDbRegAppTableRecord
  2
ACAD_EXEMPT_FROM_CAD_STAND
 70
     0
  0
APPID
  5
51A
330
9
100
AcDbSymbolTableRecord
100
AcDbRegAppTableRecord
  2
ACADANNOMONITORALERTICONDI
 70
     0
  0
APPID
  5
660
330
9
100
AcDbSymbolTableRecord
100
AcDbRegAppTableRecord
  2
GRADIENTCOLOR1ACI
 70
     0
  0
APPID
  5
661
330
9
100
AcDbSymbolTableRecord
100
AcDbRegAppTableRecord
  2
GRADIENTCOLOR2ACI
 70
     0
  0
APPID
  5
7F9
330
9
100
AcDbSymbolTableRecord
100
AcDbRegAppTableRecord
  2
ACAD_OBJECT_NAME
 70
     0
  0
ENDTAB
  0
TABLE
  2
DIMSTYLE
  5
A
330
0
100
AcDbSymbolTable
 70
     5
  0
DIMSTYLE
105
1B0
330
A
100
AcDbSymbolTableRecord
100
AcDbDimStyleTableRecord
  2
STANDARD
 70
     0
  3

  4

  5

  6

  7

 40
1.0
 41
0.18
 42
0.0625
 43
0.38
 44
0.18
 45
0.0
 46
0.0
 47
0.0
 48
0.0
140
0.18
141
0.09
142
0.0
143
25.4
144
1.0
145
0.0
146
1.0
147
0.09
 71
     0
 72
     0
 73
     1
 74
     1
 75
     0
 76
     0
 77
     0
 78
     0
170
     0
171
     2
172
     0
173
     0
174
     0
175
     0
176
     0
177
     0
178
     0
270
     2
271
     4
272
     4
273
     2
274
     2
340
11
275
     0
280
     0
281
     0
282
     0
283
     1
284
     0
285
     0
286
     0
287
     3
288
     0
  0
DIMSTYLE
105
137
330
A
100
AcDbSymbolTableRecord
100
AcDbDimStyleTableRecord
  2
ANNOTATIVE
 70
     0
  3

  4

  5

  6

  7

 40
0.0
 41
2.5
 42
0.625
 43
3.75
 44
1.25
 45
0.0
 46
0.0
 47
0.0
 48
0.0
140
2.5
141
2.5
142
0.0
143
0.03937007874016
144
1.0
145
0.0
146
1.0
147
0.625
 71
     0
 72
     0
 73
     0
 74
     0
 75
     0
 76
     0
 77
     1
 78
     8
170
     0
171
     3
172
     1
173
     0
174
     0
175
     0
176
     0
177
     0
178
     0
270
     2
271
     2
272
     2
273
     2
274
     3
340
11
275
     0
280
     0
281
     0
282
     0
283
     0
284
     8
285
     0
286
     0
287
     3
288
     0
1001
ACADANNOTATIVE
1000
AnnotativeData
1002
{
1070
     1
1070
     1
1002
}
1001
ACAD_DSTYLE_DIMJAG
1070
   388
1040
1.5
1001
ACAD_DSTYLE_DIMTALN
1070
   392
1070
     0
  0
DIMSTYLE
105
27
102
{ACAD_REACTORS
330
519
330
421
330
424
330
41A
330
41D
330
41E
102
}
330
A
100
AcDbSymbolTableRecord
100
AcDbDimStyleTableRecord
  2
ISO-25
 70
     0
  3

  4

  5

  6

  7

 40
1.0
 41
2.5
 42
0.625
 43
3.75
 44
1.25
 45
0.0
 46
0.0
 47
0.0
 48
0.0
140
2.5
141
2.5
142
0.0
143
0.03937007874016
144
1.0
145
0.0
146
1.0
147
0.625
 71
     0
 72
     0
 73
     0
 74
     0
 75
     0
 76
     0
 77
     1
 78
     8
170
     0
171
     3
172
     1
173
     0
174
     0
175
     0
176
     0
177
     0
178
     0
270
     2
271
     2
272
     2
273
     2
274
     3
340
11
275
     0
280
     0
281
     0
282
     0
283
     0
284
     8
285
     0
286
     0
287
     3
288
     0
  0
DIMSTYLE
105
301
102
{ACAD_REACTORS
330
423
330
3D4
330
3D5
330
414
330
415
330
416
330
41F
102
}
330
A
100
AcDbSymbolTableRecord
100
AcDbDimStyleTableRecord
  2
TH-GBD2M
 70
     0
  3

  4

  5

  6

  7

 40
1.0
 41
4.0
 42
0.0
 43
0.38
 44
2.0
 45
0.0
 46
0.0
 47
0.0
 48
0.0
140
2.5
141
0.0
142
0.0
143
25.4
144
1.0
145
0.0
146
1.0
147
1.5
 71
     0
 72
     0
 73
     0
 74
     0
 75
     0
 76
     0
 77
     1
 78
     1
170
     0
171
     2
172
     0
173
     0
174
     0
175
     0
176
     0
177
     0
178
     3
270
     2
271
     2
272
     2
273
     2
274
     2
340
2FF
275
     0
280
     0
281
     0
282
     0
283
     1
284
     0
285
     0
286
     0
287
     3
288
     0
1001
ACAD_DSTYLE_DIMBREAK
1070
   391
1040
3.75
1001
ACAD_DSTYLE_DIMJAG
1070
   388
1040
1.5
1001
ACAD_DSTYLE_DIMTALN
1070
   392
1070
     0
  0
DIMSTYLE
105
302
102
{ACAD_REACTORS
330
3DA
330
3DB
102
}
330
A
100
AcDbSymbolTableRecord
100
AcDbDimStyleTableRecord
  2
透镜标注
 70
     0
  3

  4

  5

  6

  7

 40
1.0
 41
4.0
 42
0.625
 43
3.75
 44
1.25
 45
0.0
 46
0.0
 47
0.0
 48
0.000000001
140
2.5
141
2.5
142
0.0
143
0.03937007874016
144
1.0
145
0.0
146
1.0
147
0.625
 71
     0
 72
     0
 73
     0
 74
     1
 75
     0
 76
     0
 77
     1
 78
     1
170
     0
171
     3
172
     1
173
     0
174
     0
175
     0
176
     0
177
     0
178
   256
270
     2
271
     2
272
     2
273
     2
274
     3
340
2FF
275
     0
280
     0
281
     0
282
     0
283
     0
284
     0
285
     0
286
     0
287
     3
288
     0
1001
ACAD_DSTYLE_DIMBREAK
1070
   391
1040
3.75
1001
ACAD_DSTYLE_DIMJAG
1070
   388
1040
1.5
1001
ACAD_DSTYLE_DIMTALN
1070
   392
1070
     0
  0
ENDTAB
  0
TABLE
  2
BLOCK_RECORD
  5
1
330
0
100
AcDbSymbolTable
 70
    10
  0
BLOCK_RECORD
  5
1F
102
{ACAD_XDICTIONARY
360
1CE
102
}
330
1
100
AcDbSymbolTableRecord
100
AcDbBlockTableRecord
  2
*MODEL_SPACE
  0
BLOCK_RECORD
  5
D2
330
1
100
AcDbSymbolTableRecord
100
AcDbBlockTableRecord
  2
*PAPER_SPACE
  0
BLOCK_RECORD
  5
3A9
330
1
100
AcDbSymbolTableRecord
100
AcDbBlockTableRecord
  2
_CLOSEDBLANK
  0
BLOCK_RECORD
  5
45A
330
1
100
AcDbSymbolTableRecord
100
AcDbBlockTableRecord
  2
*D3
  0
BLOCK_RECORD
  5
467
330
1
100
AcDbSymbolTableRecord
100
AcDbBlockTableRecord
  2
*D4
  0
BLOCK_RECORD
  5
474
330
1
100
AcDbSymbolTableRecord
100
AcDbBlockTableRecord
  2
*D5
  0
BLOCK_RECORD
  5
481
330
1
100
AcDbSymbolTableRecord
100
AcDbBlockTableRecord
  2
*D6
  0
BLOCK_RECORD
  5
48D
330
1
100
AcDbSymbolTableRecord
100
AcDbBlockTableRecord
  2
*D7
  0
BLOCK_RECORD
  5
4A7
330
1
100
AcDbSymbolTableRecord
100
AcDbBlockTableRecord
  2
*D8
  0
BLOCK_RECORD
  5
4B4
330
1
100
AcDbSymbolTableRecord
100
AcDbBlockTableRecord
  2
*D9
  0
BLOCK_RECORD
  5
5CE
330
1
100
AcDbSymbolTableRecord
100
AcDbBlockTableRecord
  2
*X11
  0
BLOCK_RECORD
  5
776
330
1
100
AcDbSymbolTableRecord
100
AcDbBlockTableRecord
  2
*T25
  0
ENDTAB
  0
ENDSEC
  0
SECTION
  2
BLOCKS
  0
BLOCK
  5
20
330
1F
100
AcDbEntity
  8
0
100
AcDbBlockBegin
  2
*MODEL_SPACE
 70
     0
 10
0.0
 20
0.0
 30
0.0
  3
*MODEL_SPACE
  1

  0
ENDBLK
  5
21
330
1F
100
AcDbEntity
  8
0
100
AcDbBlockEnd
  0
BLOCK
  5
D4
330
D2
100
AcDbEntity
 67
     1
  8
0
100
AcDbBlockBegin
  2
*PAPER_SPACE
 70
     0
 10
0.0
 20
0.0
 30
0.0
  3
*PAPER_SPACE
  1

  0
ENDBLK
  5
D5
330
D2
100
AcDbEntity
 67
     1
  8
0
100
AcDbBlockEnd
  0
BLOCK
  5
3AD
330
3A9
100
AcDbEntity
  8
0
100
AcDbBlockBegin
  2
_CLOSEDBLANK
 70
     0
 10
0.0
 20
0.0
 30
0.0
  3
_CLOSEDBLANK
  1

  0
LINE
  5
3AA
330
3A9
100
AcDbEntity
  8
0
  6
BYBLOCK
 62
     0
100
AcDbLine
 10
-1.0
 20
0.1666666666666667
 30
0.0
 11
0.0
 21
0.0
 31
0.0
  0
LINE
  5
3AB
330
3A9
100
AcDbEntity
  8
0
  6
BYBLOCK
 62
     0
100
AcDbLine
 10
0.0
 20
0.0
 30
0.0
 11
-1.0
 21
-0.1666666666666667
 31
0.0
  0
LINE
  5
3AC
330
3A9
100
AcDbEntity
  8
0
  6
BYBLOCK
 62
     0
100
AcDbLine
 10
-1.0
 20
0.1666666666666667
 30
0.0
 11
-1.0
 21
-0.1666666666666667
 31
0.0
  0
ENDBLK
  5
3AE
330
3A9
100
AcDbEntity
  8
0
100
AcDbBlockEnd
  0
BLOCK
  5
45B
330
45A
100
AcDbEntity
  8
0
100
AcDbBlockBegin
  2
*D3
 70
     1
 10
0.0
 20
0.0
 30
0.0
  3
*D3
  1

  0
LINE
  5
888
330
45A
100
AcDbEntity
  8
7标注层
 62
     0
100
AcDbLine
 10
3053.939229167055
 20
1407.936299156048
 30
0.0
 11
3053.939229167055
 21
1429.729917208449
 31
0.0
  0
LINE
  5
889
330
45A
100
AcDbEntity
  8
7标注层
 62
     0
100
AcDbLine
 10
3062.939298490311
 20
1407.936299156048
 30
0.0
 11
3062.939298490311
 21
1429.729917208449
 31
0.0
  0
LINE
  5
88A
330
45A
100
AcDbEntity
  8
7标注层
 62
     0
100
AcDbLine
 10
3049.939229167055
 20
1427.729917208449
 30
0.0
 11
3045.939229167055
 21
1427.729917208449
 31
0.0
  0
LINE
  5
88B
330
45A
100
AcDbEntity
  8
7标注层
 62
     0
100
AcDbLine
 10
3066.939298490311
 20
1427.729917208449
 30
0.0
 11
3086.445452336464
 21
1427.729917208449
 31
0.0
  0
SOLID
  5
88C
330
45A
100
AcDbEntity
  8
7标注层
 62
     0
100
AcDbTrace
 10
3049.939229167055
 20
1428.396583875116
 30
0.0
 11
3049.939229167055
 21
1427.063250541783
 31
0.0
 12
3053.939229167055
 22
1427.729917208449
 32
0.0
 13
3053.939229167055
 23
1427.729917208449
 33
0.0
  0
SOLID
  5
88D
330
45A
100
AcDbEntity
  8
7标注层
 62
     0
100
AcDbTrace
 10
3066.939298490311
 20
1428.396583875116
 30
0.0
 11
3066.939298490311
 21
1427.063250541783
 31
0.0
 12
3062.939298490311
 22
1427.729917208449
 32
0.0
 13
3062.939298490311
 23
1427.729917208449
 33
0.0
  0
MTEXT
  5
88E
330
45A
100
AcDbEntity
  8
7标注层
 62
     3
100
AcDbMText
 10
3078.692375413388
 20
1430.510686439219
 30
0.0
 40
2.5
 41
0.0
 71
     5
 72
     1
  1
\A1;9.00%%p0.20
  7
TH-GBD2M
  0
POINT
  5
88F
330
45A
100
AcDbEntity
  8
DEFPOINTS
 62
     0
100
AcDbPoint
 10
3053.939229167055
 20
1407.936299156048
 30
0.0
  0
POINT
  5
890
330
45A
100
AcDbEntity
  8
DEFPOINTS
 62
     0
100
AcDbPoint
 10
3062.939298490311
 20
1407.936299156048
 30
0.0
  0
POINT
  5
891
330
45A
100
AcDbEntity
  8
DEFPOINTS
 62
     0
100
AcDbPoint
 10
3062.939298490311
 20
1427.729917208449
 30
0.0
  0
ENDBLK
  5
45C
330
45A
100
AcDbEntity
  8
0
100
AcDbBlockEnd
  0
BLOCK
  5
468
330
467
100
AcDbEntity
  8
0
100
AcDbBlockBegin
  2
*D4
 70
     1
 10
0.0
 20
0.0
 30
0.0
  3
*D4
  1

  0
LINE
  5
892
330
467
100
AcDbEntity
  8
7标注层
 62
     0
100
AcDbLine
 10
3053.939229167055
 20
1395.436299156048
 30
0.0
 11
3053.939229167055
 21
1388.331780381235
 31
0.0
  0
LINE
  5
893
330
467
100
AcDbEntity
  8
7标注层
 62
     0
100
AcDbLine
 10
3063.460969878287
 20
1395.436299156048
 30
0.0
 11
3063.460969878287
 21
1388.331780381235
 31
0.0
  0
LINE
  5
894
330
467
100
AcDbEntity
  8
7标注层
 62
     0
100
AcDbLine
 10
3049.939229167055
 20
1390.331780381235
 30
0.0
 11
3045.939229167055
 21
1390.331780381235
 31
0.0
  0
LINE
  5
895
330
467
100
AcDbEntity
  8
7标注层
 62
     0
100
AcDbLine
 10
3067.460969878287
 20
1390.331780381235
 30
0.0
 11
3071.460969878287
 21
1390.331780381235
 31
0.0
  0
SOLID
  5
896
330
467
100
AcDbEntity
  8
7标注层
 62
     0
100
AcDbTrace
 10
3049.939229167055
 20
1390.998447047901
 30
0.0
 11
3049.939229167055
 21
1389.665113714568
 31
0.0
 12
3053.939229167055
 22
1390.331780381235
 32
0.0
 13
3053.939229167055
 23
1390.331780381235
 33
0.0
  0
SOLID
  5
897
330
467
100
AcDbEntity
  8
7标注层
 62
     0
100
AcDbTrace
 10
3067.460969878287
 20
1390.998447047901
 30
0.0
 11
3067.460969878287
 21
1389.665113714568
 31
0.0
 12
3063.460969878287
 22
1390.331780381235
 32
0.0
 13
3063.460969878287
 23
1390.331780381235
 33
0.0
  0
MTEXT
  5
898
330
467
100
AcDbEntity
  8
7标注层
 62
     3
100
AcDbMText
 10
3058.700099522671
 20
1393.112549612004
 30
0.0
 40
2.5
 41
0.0
 71
     5
 72
     1
  1
\A1;9.52
  7
TH-GBD2M
  0
POINT
  5
899
330
467
100
AcDbEntity
  8
DEFPOINTS
 62
     0
100
AcDbPoint
 10
3053.939229167055
 20
1395.436299156048
 30
0.0
  0
POINT
  5
89A
330
467
100
AcDbEntity
  8
DEFPOINTS
 62
     0
100
AcDbPoint
 10
3063.460969878287
 20
1395.436299156048
 30
0.0
  0
POINT
  5
89B
330
467
100
AcDbEntity
  8
DEFPOINTS
 62
     0
100
AcDbPoint
 10
3063.460969878287
 20
1390.331780381235
 30
0.0
  0
ENDBLK
  5
469
330
467
100
AcDbEntity
  8
0
100
AcDbBlockEnd
  0
BLOCK
  5
475
330
474
100
AcDbEntity
  8
0
100
AcDbBlockBegin
  2
*D5
 70
     1
 10
0.0
 20
0.0
 30
0.0
  3
*D5
  1

  0
LINE
  5
89C
330
474
100
AcDbEntity
  8
7标注层
 62
     0
100
AcDbLine
 10
2993.696852616955
 20
1421.061299156048
 30
0.0
 11
2993.696852616955
 21
1429.289068911413
 31
0.0
  0
LINE
  5
89D
330
474
100
AcDbEntity
  8
7标注层
 62
     0
100
AcDbLine
 10
3013.696852616955
 20
1421.061299156048
 30
0.0
 11
3013.696852616955
 21
1429.289068911413
 31
0.0
  0
LINE
  5
89E
330
474
100
AcDbEntity
  8
7标注层
 62
     0
100
AcDbLine
 10
2997.696852616955
 20
1428.039068911413
 30
0.0
 11
3009.696852616955
 21
1428.039068911413
 31
0.0
  0
LINE
  5
89F
330
474
100
AcDbEntity
  8
7标注层
 62
     0
100
AcDbLine
 10
3013.696852616955
 20
1428.039068911413
 30
0.0
 11
3030.45266800157
 21
1428.039068911413
 31
0.0
  0
SOLID
  5
8A0
330
474
100
AcDbEntity
  8
7标注层
 62
     0
100
AcDbTrace
 10
2997.696852616955
 20
1428.70573557808
 30
0.0
 11
2997.696852616955
 21
1427.372402244746
 31
0.0
 12
2993.696852616955
 22
1428.039068911413
 32
0.0
 13
2993.696852616955
 23
1428.039068911413
 33
0.0
  0
SOLID
  5
8A1
330
474
100
AcDbEntity
  8
7标注层
 62
     0
100
AcDbTrace
 10
3009.696852616955
 20
1428.70573557808
 30
0.0
 11
3009.696852616955
 21
1427.372402244746
 31
0.0
 12
3013.696852616955
 22
1428.039068911413
 32
0.0
 13
3013.696852616955
 23
1428.039068911413
 33
0.0
  0
MTEXT
  5
8A2
330
474
100
AcDbEntity
  8
7标注层
100
AcDbMText
 10
3024.074760309263
 20
1430.796863783208
 30
0.0
 40
2.5
 41
0.0
 71
     5
 72
     1
  1
20.00{}{\H0.71x;\C3;\S 0.00^ -0.10;}
  7
TH-GBD2M
  0
POINT
  5
8A3
330
474
100
AcDbEntity
  8
DEFPOINTS
 62
     0
100
AcDbPoint
 10
2993.696852616955
 20
1420.436299156048
 30
0.0
  0
POINT
  5
8A4
330
474
100
AcDbEntity
  8
DEFPOINTS
 62
     0
100
AcDbPoint
 10
3013.696852616955
 20
1420.436299156048
 30
0.0
  0
POINT
  5
8A5
330
474
100
AcDbEntity
  8
DEFPOINTS
 62
     0
100
AcDbPoint
 10
3013.696852616955
 20
1428.039068911413
 30
0.0
  0
ENDBLK
  5
476
330
474
100
AcDbEntity
  8
0
100
AcDbBlockEnd
  0
BLOCK
  5
482
330
481
100
AcDbEntity
  8
0
100
AcDbBlockBegin
  2
*D6
 70
     1
 10
0.0
 20
0.0
 30
0.0
  3
*D6
  1

  0
LINE
  5
8A6
330
481
100
AcDbEntity
  8
7标注层
 62
     0
100
AcDbLine
 10
2993.071852616956
 20
1395.436299156049
 30
0.0
 11
2987.810364265199
 21
1395.436299156049
 31
0.0
  0
LINE
  5
8A7
330
481
100
AcDbEntity
  8
7标注层
 62
     0
100
AcDbLine
 10
2993.071852616956
 20
1420.436299156049
 30
0.0
 11
2987.810364265199
 21
1420.436299156049
 31
0.0
  0
LINE
  5
8A8
330
481
100
AcDbEntity
  8
7标注层
 62
     0
100
AcDbLine
 10
2989.060364265199
 20
1399.436299156049
 30
0.0
 11
2989.060364265199
 21
1416.436299156049
 31
0.0
  0
SOLID
  5
8A9
330
481
100
AcDbEntity
  8
7标注层
 62
     0
100
AcDbTrace
 10
2988.393697598533
 20
1399.436299156049
 30
0.0
 11
2989.727030931866
 21
1399.436299156049
 31
0.0
 12
2989.060364265199
 22
1395.436299156049
 32
0.0
 13
2989.060364265199
 23
1395.436299156049
 33
0.0
  0
SOLID
  5
8AA
330
481
100
AcDbEntity
  8
7标注层
 62
     0
100
AcDbTrace
 10
2988.393697598533
 20
1416.436299156049
 30
0.0
 11
2989.727030931866
 21
1416.436299156049
 31
0.0
 12
2989.060364265199
 22
1420.436299156049
 32
0.0
 13
2989.060364265199
 23
1420.436299156049
 33
0.0
  0
MTEXT
  5
8AB
330
481
100
AcDbEntity
  8
7标注层
100
AcDbMText
 10
2986.302569393404
 20
1407.936299156048
 30
0.0
 40
2.5
 41
0.0
 71
     5
 72
     1
  1
25.00{}{\H0.71x;\C3;\S 0.00^ -0.10;}
  7
TH-GBD2M
 11
6.123233995736766E-17
 21
1.0
 31
0.0
  0
POINT
  5
8AC
330
481
100
AcDbEntity
  8
DEFPOINTS
 62
     0
100
AcDbPoint
 10
2993.696852616956
 20
1395.436299156049
 30
0.0
  0
POINT
  5
8AD
330
481
100
AcDbEntity
  8
DEFPOINTS
 62
     0
100
AcDbPoint
 10
2993.696852616956
 20
1420.436299156049
 30
0.0
  0
POINT
  5
8AE
330
481
100
AcDbEntity
  8
DEFPOINTS
 62
     0
100
AcDbPoint
 10
2989.060364265199
 20
1420.436299156049
 30
0.0
  0
ENDBLK
  5
483
330
481
100
AcDbEntity
  8
0
100
AcDbBlockEnd
  0
BLOCK
  5
48E
330
48D
100
AcDbEntity
  8
0
100
AcDbBlockBegin
  2
*D7
 70
     1
 10
0.0
 20
0.0
 30
0.0
  3
*D7
  1

  0
LINE
  5
8AF
330
48D
100
AcDbEntity
  8
7标注层
 62
     0
100
AcDbLine
 10
2994.05017049468
 20
1366.318064868154
 30
0.0
 11
2976.803063460792
 21
1366.318064868154
 31
0.0
  0
LINE
  5
8B0
330
48D
100
AcDbEntity
  8
7标注层
 62
     0
100
AcDbLine
 10
2994.050170494679
 20
1355.218064868154
 30
0.0
 11
2976.803063460792
 21
1355.218064868154
 31
0.0
  0
LINE
  5
8B1
330
48D
100
AcDbEntity
  8
7标注层
 62
     0
100
AcDbLine
 10
2978.803063460792
 20
1362.318064868154
 30
0.0
 11
2978.803063460792
 21
1359.218064868154
 31
0.0
  0
LINE
  5
8B2
330
48D
100
AcDbEntity
  8
7标注层
 62
     0
100
AcDbLine
 10
2978.803063460792
 20
1355.218064868154
 30
0.0
 11
2978.803063460792
 21
1337.921039140096
 31
0.0
  0
SOLID
  5
8B3
330
48D
100
AcDbEntity
  8
7标注层
 62
     0
100
AcDbTrace
 10
2978.136396794126
 20
1362.318064868154
 30
0.0
 11
2979.469730127459
 21
1362.318064868154
 31
0.0
 12
2978.803063460792
 22
1366.318064868154
 32
0.0
 13
2978.803063460792
 23
1366.318064868154
 33
0.0
  0
SOLID
  5
8B4
330
48D
100
AcDbEntity
  8
7标注层
 62
     0
100
AcDbTrace
 10
2978.136396794126
 20
1359.218064868154
 30
0.0
 11
2979.469730127459
 21
1359.218064868154
 31
0.0
 12
2978.803063460792
 22
1355.218064868154
 32
0.0
 13
2978.803063460792
 23
1355.218064868154
 33
0.0
  0
MTEXT
  5
8B5
330
48D
100
AcDbEntity
  8
7标注层
 62
     3
100
AcDbMText
 10
2976.022294230023
 20
1342.824116063172
 30
0.0
 40
2.5
 41
0.0
 71
     5
 72
     1
  1
\A1;11.10
  7
TH-GBD2M
 11
6.123233995736766E-17
 21
1.0
 31
0.0
  0
POINT
  5
8B6
330
48D
100
AcDbEntity
  8
DEFPOINTS
 62
     0
100
AcDbPoint
 10
2994.05017049468
 20
1366.318064868154
 30
0.0
  0
POINT
  5
8B7
330
48D
100
AcDbEntity
  8
DEFPOINTS
 62
     0
100
AcDbPoint
 10
2994.050170494679
 20
1355.218064868154
 30
0.0
  0
POINT
  5
8B8
330
48D
100
AcDbEntity
  8
DEFPOINTS
 62
     0
100
AcDbPoint
 10
2978.803063460792
 20
1355.218064868154
 30
0.0
  0
ENDBLK
  5
48F
330
48D
100
AcDbEntity
  8
0
100
AcDbBlockEnd
  0
BLOCK
  5
4A8
330
4A7
100
AcDbEntity
  8
0
100
AcDbBlockBegin
  2
*D8
 70
     1
 10
0.0
 20
0.0
 30
0.0
  3
*D8
  1

  0
LINE
  5
8B9
330
4A7
100
AcDbEntity
  8
7标注层
 62
     0
100
AcDbLine
 10
3014.05017049468
 20
1366.318064868154
 30
0.0
 11
3010.502156807686
 21
1366.318064868154
 31
0.0
  0
LINE
  5
8BA
330
4A7
100
AcDbEntity
  8
7标注层
 62
     0
100
AcDbLine
 10
3014.05017049468
 20
1357.234555643557
 30
0.0
 11
3010.502156807686
 21
1357.234555643557
 31
0.0
  0
LINE
  5
8BB
330
4A7
100
AcDbEntity
  8
7标注层
 62
     0
100
AcDbLine
 10
3012.502156807686
 20
1370.318064868154
 30
0.0
 11
3012.502156807686
 21
1374.318064868154
 31
0.0
  0
LINE
  5
8BC
330
4A7
100
AcDbEntity
  8
7标注层
 62
     0
100
AcDbLine
 10
3012.502156807686
 20
1353.234555643557
 30
0.0
 11
3012.502156807686
 21
1340.903786412788
 31
0.0
  0
SOLID
  5
8BD
330
4A7
100
AcDbEntity
  8
7标注层
 62
     0
100
AcDbTrace
 10
3011.835490141019
 20
1370.318064868154
 30
0.0
 11
3013.168823474352
 21
1370.318064868154
 31
0.0
 12
3012.502156807686
 22
1366.318064868154
 32
0.0
 13
3012.502156807686
 23
1366.318064868154
 33
0.0
  0
SOLID
  5
8BE
330
4A7
100
AcDbEntity
  8
7标注层
 62
     0
100
AcDbTrace
 10
3011.835490141019
 20
1353.234555643557
 30
0.0
 11
3013.168823474352
 21
1353.234555643557
 31
0.0
 12
3012.502156807686
 22
1357.234555643557
 32
0.0
 13
3012.502156807686
 23
1357.234555643557
 33
0.0
  0
MTEXT
  5
8BF
330
4A7
100
AcDbEntity
  8
7标注层
 62
     3
100
AcDbMText
 10
3009.721387576917
 20
1345.069171028171
 30
0.0
 40
2.5
 41
0.0
 71
     5
 72
     1
  1
\A1;9.08
  7
TH-GBD2M
 11
6.123233995736766E-17
 21
1.0
 31
0.0
  0
POINT
  5
8C0
330
4A7
100
AcDbEntity
  8
DEFPOINTS
 62
     0
100
AcDbPoint
 10
3014.05017049468
 20
1366.318064868154
 30
0.0
  0
POINT
  5
8C1
330
4A7
100
AcDbEntity
  8
DEFPOINTS
 62
     0
100
AcDbPoint
 10
3014.05017049468
 20
1357.234555643557
 30
0.0
  0
POINT
  5
8C2
330
4A7
100
AcDbEntity
  8
DEFPOINTS
 62
     0
100
AcDbPoint
 10
3012.502156807686
 20
1357.234555643557
 30
0.0
  0
ENDBLK
  5
4A9
330
4A7
100
AcDbEntity
  8
0
100
AcDbBlockEnd
  0
BLOCK
  5
4B5
330
4B4
100
AcDbEntity
  8
0
100
AcDbBlockBegin
  2
*D9
 70
     1
 10
0.0
 20
0.0
 30
0.0
  3
*D9
  1

  0
LINE
  5
8C3
330
4B4
100
AcDbEntity
  8
7标注层
 62
     0
100
AcDbLine
 10
3014.050170494679
 20
1366.318064868154
 30
0.0
 11
3014.050170494679
 21
1380.018571253637
 31
0.0
  0
LINE
  5
8C4
330
4B4
100
AcDbEntity
  8
7标注层
 62
     0
100
AcDbLine
 10
3019.050170494679
 20
1366.369307856104
 30
0.0
 11
3019.050170494679
 21
1380.018571253637
 31
0.0
  0
LINE
  5
8C5
330
4B4
100
AcDbEntity
  8
7标注层
 62
     0
100
AcDbLine
 10
3010.050170494679
 20
1378.018571253637
 30
0.0
 11
3006.050170494679
 21
1378.018571253637
 31
0.0
  0
LINE
  5
8C6
330
4B4
100
AcDbEntity
  8
7标注层
 62
     0
100
AcDbLine
 10
3023.050170494679
 20
1378.018571253637
 30
0.0
 11
3036.319771642309
 21
1378.018571253637
 31
0.0
  0
SOLID
  5
8C7
330
4B4
100
AcDbEntity
  8
7标注层
 62
     0
100
AcDbTrace
 10
3010.050170494679
 20
1378.685237920303
 30
0.0
 11
3010.050170494679
 21
1377.35190458697
 31
0.0
 12
3014.050170494679
 22
1378.018571253637
 32
0.0
 13
3014.050170494679
 23
1378.018571253637
 33
0.0
  0
SOLID
  5
8C8
330
4B4
100
AcDbEntity
  8
7标注层
 62
     0
100
AcDbTrace
 10
3023.050170494679
 20
1378.685237920303
 30
0.0
 11
3023.050170494679
 21
1377.35190458697
 31
0.0
 12
3019.050170494679
 22
1378.018571253637
 32
0.0
 13
3019.050170494679
 23
1378.018571253637
 33
0.0
  0
MTEXT
  5
8C9
330
4B4
100
AcDbEntity
  8
7标注层
 62
     3
100
AcDbMText
 10
3032.15900241154
 20
1380.799340484406
 30
0.0
 40
2.5
 41
0.0
 71
     5
 72
     1
  1
\A1;5.00
  7
TH-GBD2M
  0
POINT
  5
8CA
330
4B4
100
AcDbEntity
  8
DEFPOINTS
 62
     0
100
AcDbPoint
 10
3014.050170494679
 20
1366.318064868154
 30
0.0
  0
POINT
  5
8CB
330
4B4
100
AcDbEntity
  8
DEFPOINTS
 62
     0
100
AcDbPoint
 10
3019.050170494679
 20
1366.369307856104
 30
0.0
  0
POINT
  5
8CC
330
4B4
100
AcDbEntity
  8
DEFPOINTS
 62
     0
100
AcDbPoint
 10
3019.050170494679
 20
1378.018571253637
 30
0.0
  0
ENDBLK
  5
4B6
330
4B4
100
AcDbEntity
  8
0
100
AcDbBlockEnd
  0
BLOCK
  5
5CF
330
5CE
100
AcDbEntity
  8
0
100
AcDbBlockBegin
  2
*X11
 70
     1
 10
0.0
 20
0.0
 30
0.0
  3
*X11
  1

  0
LINE
  5
5D0
330
5CE
100
AcDbEntity
  8
细实线层
100
AcDbLine
 10
-148.5
 20
-105.0
 30
0.0
 11
148.5
 21
-105.0
 31
0.0
  0
LINE
  5
5D1
330
5CE
100
AcDbEntity
  8
细实线层
100
AcDbLine
 10
148.5
 20
-105.0
 30
0.0
 11
148.5
 21
105.0
 31
0.0
  0
LINE
  5
5D2
330
5CE
100
AcDbEntity
  8
细实线层
100
AcDbLine
 10
148.5
 20
105.0
 30
0.0
 11
-148.5
 21
105.0
 31
0.0
  0
LINE
  5
5D3
330
5CE
100
AcDbEntity
  8
细实线层
100
AcDbLine
 10
-148.5
 20
105.0
 30
0.0
 11
-148.5
 21
-105.0
 31
0.0
  0
LINE
  5
5D4
330
5CE
100
AcDbEntity
  8
粗实线层
100
AcDbLine
 10
-138.5
 20
95.0
 30
0.0
 11
-138.5
 21
-95.0
 31
0.0
  0
LINE
  5
5D5
330
5CE
100
AcDbEntity
  8
粗实线层
100
AcDbLine
 10
-138.5
 20
-95.0
 30
0.0
 11
138.5
 21
-95.0
 31
0.0
  0
LINE
  5
5D6
330
5CE
100
AcDbEntity
  8
粗实线层
100
AcDbLine
 10
138.5
 20
-95.0
 30
0.0
 11
138.5
 21
95.0
 31
0.0
  0
LINE
  5
5D7
330
5CE
100
AcDbEntity
  8
粗实线层
100
AcDbLine
 10
138.5
 20
95.0
 30
0.0
 11
-138.5
 21
95.0
 31
0.0
  0
LINE
  5
5D8
330
5CE
100
AcDbEntity
  8
粗实线层
100
AcDbLine
 10
-148.5
 20
0.0
 30
0.0
 11
-133.5
 21
0.0
 31
0.0
  0
LINE
  5
5D9
330
5CE
100
AcDbEntity
  8
粗实线层
100
AcDbLine
 10
148.5
 20
0.0
 30
0.0
 11
133.5
 21
0.0
 31
0.0
  0
LINE
  5
5DA
330
5CE
100
AcDbEntity
  8
粗实线层
100
AcDbLine
 10
0.0
 20
105.0
 30
0.0
 11
0.0
 21
90.0
 31
0.0
  0
LINE
  5
5DB
330
5CE
100
AcDbEntity
  8
粗实线层
100
AcDbLine
 10
0.0
 20
-105.0
 30
0.0
 11
0.0
 21
-95.0
 31
0.0
  0
ENDBLK
  5
5DC
330
5CE
100
AcDbEntity
  8
0
100
AcDbBlockEnd
  0
BLOCK
  5
790
330
776
100
AcDbEntity
  8
0
100
AcDbBlockBegin
  2
*T25
 70
     1
 10
0.0
 20
0.0
 30
0.0
  3
*T25
  1

  0
MTEXT
  5
777
330
776
100
AcDbEntity
  8
2细线层
 62
     3
100
AcDbMText
 10
60.65000000000009
 20
-3.166666666666515
 30
0.0
 40
2.5
 41
33.0
 71
     5
 72
     5
  1
{\fSimSun|b1|i0|c134|p34;S1}
  0
MTEXT
  5
778
330
776
100
AcDbEntity
  8
2细线层
 62
     3
100
AcDbMText
 10
96.65000000000009
 20
-3.166666666666515
 30
0.0
 40
2.5
 41
33.0
 71
     5
 72
     5
  1
{\fSimSun|b1|i0|c134|p34;S2}
  0
MTEXT
  5
779
330
776
100
AcDbEntity
  8
2细线层
 62
     3
100
AcDbMText
 10
21.32499999999982
 20
-9.5
 30
0.0
 40
2.5
 41
39.65
 71
     5
 72
     5
  1
{\fSimSun|b1|i0|c134|p34;形状}
  0
MTEXT
  5
77A
330
776
100
AcDbEntity
  8
2细线层
 62
     3
100
AcDbMText
 10
60.65000000000009
 20
-9.5
 30
0.0
 40
2.5
 41
33.0
 71
     5
 72
     5
  1
{\fSimSun|b1|i0|c134|p34;平面}
  0
MTEXT
  5
77B
330
776
100
AcDbEntity
  8
2细线层
 62
     3
100
AcDbMText
 10
96.65000000000009
 20
-9.5
 30
0.0
 40
2.5
 41
33.0
 71
     5
 72
     5
  1
{\fSimSun|b1|i0|c134|p34;凹面}
  0
MTEXT
  5
77C
330
776
100
AcDbEntity
  8
2细线层
 62
     3
100
AcDbMText
 10
21.32499999999982
 20
-15.83333333333326
 30
0.0
 40
2.5
 41
39.65
 71
     5
 72
     5
  1
{\fSimSun|b1|i0|c134|p34;曲率半径}
  0
MTEXT
  5
77D
330
776
100
AcDbEntity
  8
2细线层
 62
     3
100
AcDbMText
 10
60.65000000000009
 20
-15.83333333333326
 30
0.0
 40
2.5
 41
33.0
 71
     5
 72
     5
  1
{\fSimSun|b1|i0|c134|p34;无穷}
  0
MTEXT
  5
77E
330
776
100
AcDbEntity
  8
2细线层
 62
     3
100
AcDbMText
 10
96.65000000000009
 20
-15.83333333333326
 30
0.0
 40
2.5
 41
33.0
 71
     5
 72
     5
  1
{\fSimSun|b1|i0|c134|p34;150.00}
  0
MTEXT
  5
77F
330
776
100
AcDbEntity
  8
2细线层
 62
     3
100
AcDbMText
 10
21.32499999999982
 20
-22.16666666666629
 30
0.0
 40
2.5
 41
39.65
 71
     5
 72
     5
  1
{\fSimSun|b1|i0|c134|p34;通光孔径}
  0
MTEXT
  5
780
330
776
100
AcDbEntity
  8
2细线层
 62
     3
100
AcDbMText
 10
60.65000000000009
 20
-22.16666666666629
 30
0.0
 40
2.5
 41
33.0
 71
     5
 72
     5
  1
{\fSimSun|b1|i0|c134|p34;/}
  0
MTEXT
  5
781
330
776
100
AcDbEntity
  8
2细线层
 62
     3
100
AcDbMText
 10
96.65000000000009
 20
-22.16666666666629
 30
0.0
 40
2.5
 41
33.0
 71
     5
 72
     5
  1
{\fSimSun|b1|i0|c134|p34;>90%}
  0
MTEXT
  5
782
330
776
100
AcDbEntity
  8
2细线层
 62
     3
100
AcDbMText
 10
21.32499999999982
 20
-28.49999999999977
 30
0.0
 40
2.5
 41
39.65
 71
     5
 72
     5
  1
{\fSimSun|b1|i0|c134|p34;光洁度}
  0
MTEXT
  5
783
330
776
100
AcDbEntity
  8
2细线层
 62
     3
100
AcDbMText
 10
60.65000000000009
 20
-28.49999999999977
 30
0.0
 40
2.5
 41
33.0
 71
     5
 72
     5
  1
{\fSimSun|b1|i0|c134|p34;细磨或检验性抛光}
  0
MTEXT
  5
784
330
776
100
AcDbEntity
  8
2细线层
 62
     3
100
AcDbMText
 10
96.65000000000009
 20
-28.49999999999977
 30
0.0
 40
2.5
 41
33.0
 71
     5
 72
     5
  1
{\fSimSun|b1|i0|c134|p34;40-20}
  0
LINE
  5
785
330
776
100
AcDbEntity
  8
2细线层
  6
BYBLOCK
 62
     0
100
AcDbLine
 10
0.0
 20
0.0
 30
0.0
 11
114.6500000000001
 21
0.0
 31
0.0
  0
LINE
  5
786
330
776
100
AcDbEntity
  8
2细线层
  6
BYBLOCK
 62
     0
100
AcDbLine
 10
0.0
 20
-6.333333333333258
 30
0.0
 11
114.6500000000001
 21
-6.333333333333258
 31
0.0
  0
LINE
  5
787
330
776
100
AcDbEntity
  8
2细线层
  6
BYBLOCK
 62
     0
100
AcDbLine
 10
0.0
 20
-12.66666666666652
 30
0.0
 11
114.6500000000001
 21
-12.66666666666652
 31
0.0
  0
LINE
  5
788
330
776
100
AcDbEntity
  8
2细线层
  6
BYBLOCK
 62
     0
100
AcDbLine
 10
0.0
 20
-18.99999999999977
 30
0.0
 11
114.6500000000001
 21
-18.99999999999977
 31
0.0
  0
LINE
  5
789
330
776
100
AcDbEntity
  8
2细线层
  6
BYBLOCK
 62
     0
100
AcDbLine
 10
0.0
 20
-25.33333333333303
 30
0.0
 11
114.6500000000001
 21
-25.33333333333303
 31
0.0
  0
LINE
  5
78A
330
776
100
AcDbEntity
  8
2细线层
  6
BYBLOCK
 62
     0
100
AcDbLine
 10
0.0
 20
-31.66666666666629
 30
0.0
 11
114.6500000000001
 21
-31.66666666666629
 31
0.0
  0
LINE
  5
78B
330
776
100
AcDbEntity
  8
2细线层
  6
BYBLOCK
 62
     0
100
AcDbLine
 10
0.0
 20
0.0
 30
0.0
 11
0.0
 21
-31.66666666666629
 31
0.0
  0
LINE
  5
78C
330
776
100
AcDbEntity
  8
2细线层
  6
BYBLOCK
 62
     0
100
AcDbLine
 10
42.65000000000009
 20
0.0
 30
0.0
 11
42.65000000000009
 21
-31.66666666666629
 31
0.0
  0
LINE
  5
78D
330
776
100
AcDbEntity
  8
2细线层
  6
BYBLOCK
 62
     0
100
AcDbLine
 10
78.65000000000009
 20
0.0
 30
0.0
 11
78.65000000000009
 21
-31.66666666666629
 31
0.0
  0
LINE
  5
78E
330
776
100
AcDbEntity
  8
2细线层
  6
BYBLOCK
 62
     0
100
AcDbLine
 10
114.6500000000001
 20
0.0
 30
0.0
 11
114.6500000000001
 21
-31.66666666666629
 31
0.0
  0
LINE
  5
78F
330
776
100
AcDbEntity
  8
DEFPOINTS
 62
     8
 60
     1
100
AcDbLine
 10
0.0
 20
0.0
 30
0.0
 11
0.0
 21
0.0
 31
0.0
  0
ENDBLK
  5
791
330
776
100
AcDbEntity
  8
0
100
AcDbBlockEnd
  0
ENDSEC
  0
SECTION
  2
ENTITIES
  0
LINE
  5
3CB
330
1F
100
AcDbEntity
  8
3中心线层
100
AcDbLine
 10
2975.637173102283
 20
1407.936299156048
 30
0.0
 11
3081.623063751364
 21
1407.936299156048
 31
0.0
  0
LINE
  5
3CC
330
1F
100
AcDbEntity
  8
3中心线层
100
AcDbLine
 10
3041.724273424802
 20
1407.936299156048
 30
0.0
 11
3073.0577334062
 21
1407.936299156048
 31
0.0
  0
LINE
  5
3CD
102
{ACAD_REACTORS
330
443
102
}
330
1F
100
AcDbEntity
  8
3中心线层
100
AcDbLine
 10
3003.693455238342
 20
1423.343248918974
 30
0.0
 11
3003.693455238342
 21
1346.821009675419
 31
0.0
  0
LEADER
  5
3CE
330
1F
100
AcDbEntity
  8
7标注层
100
AcDbLeader
  3
TH-GBD2M
 76
     3
 10
3062.952959094815
 20
1407.948079048596
 30
0.0
 10
3067.518873281675
 20
1416.748563380566
 30
0.0
 10
3072.544185270991
 20
1416.748563380566
 30
0.0
1001
ACAD
1000
DSTYLE
1002
{
1070
     5
1000

1070
   340
1005
2FF
1070
   147
1040
1.5
1070
    77
1070
     0
1002
}
  0
MTEXT
  5
3CF
330
1F
100
AcDbEntity
  8
7标注层
 62
     3
100
AcDbMText
 10
3070.084912106837
 20
1419.444201685421
 30
0.0
 40
2.5
 41
0.0
 71
     5
 72
     1
  1
\A1;S2
  7
TH-GBD2M
  0
LEADER
  5
3D0
330
1F
100
AcDbEntity
  8
7标注层
100
AcDbLeader
  3
TH-GBD2M
 76
     3
 10
3053.939229337966
 20
1407.936298826627
 30
0.0
 10
3049.373315151106
 20
1416.736783158597
 30
0.0
 10
3044.348003161791
 20
1416.736783158597
 30
0.0
211
-1.0
221
0.0
231
0.0
1001
ACAD
1000
DSTYLE
1002
{
1070
     5
1000

1070
   340
1005
2FF
1070
   147
1040
1.5
1070
    77
1070
     0
1002
}
  0
MTEXT
  5
3D1
330
1F
100
AcDbEntity
  8
7标注层
 62
     3
100
AcDbMText
 10
3046.971938155527
 20
1419.060346730774
 30
0.0
 40
2.5
 41
0.0
 71
     5
 72
     1
  1
\A1;S1
  7
TH-GBD2M
  0
LINE
  5
3D2
102
{ACAD_REACTORS
330
430
102
}
330
1F
100
AcDbEntity
  8
1轮廓实线层
100
AcDbLine
 10
3053.939229167055
 20
1420.436299156048
 30
0.0
 11
3053.939229167055
 21
1395.436299156048
 31
0.0
  0
ARC
  5
3D3
102
{ACAD_REACTORS
330
43F
102
}
330
1F
100
AcDbEntity
  8
1轮廓实线层
100
AcDbCircle
 10
3212.939229167055
 20
1407.936299156048
 30
0.0
 40
150.0
100
AcDbArc
 50
175.2198081528009
 51
184.7801918471991
  0
DIMENSION
  5
3D4
330
1F
100
AcDbEntity
  8
7标注层
100
AcDbDimension
  2
*D3
 10
3062.939298490311
 20
1427.729917208449
 30
0.0
 11
3078.692375413388
 21
1427.729917208449
 31
0.0
 70
   160
  1
<>%%p0.20
  3
TH-GBD2M
100
AcDbAlignedDimension
 13
3053.939229167055
 23
1407.936299156048
 33
0.0
 14
3062.939298490311
 24
1407.936299156048
 34
0.0
100
AcDbRotatedDimension
1001
ACAD_DSTYLE_DIMINSPECT
1070
   396
1000
100%
1070
   395
1000

1070
   394
1070
    33
1070
   393
1070
     0
  0
DIMENSION
  5
3D5
330
1F
100
AcDbEntity
  8
7标注层
100
AcDbDimension
  2
*D4
 10
3063.460969878287
 20
1390.331780381235
 30
0.0
 11
3058.700099522671
 21
1390.331780381235
 31
0.0
 70
   160
  3
TH-GBD2M
100
AcDbAlignedDimension
 13
3053.939229167055
 23
1395.436299156048
 33
0.0
 14
3063.460969878287
 24
1395.436299156048
 34
0.0
100
AcDbRotatedDimension
  0
LINE
  5
3D6
102
{ACAD_REACTORS
330
449
102
}
330
1F
100
AcDbEntity
  8
1轮廓实线层
100
AcDbLine
 10
2993.696852616955
 20
1395.436299156048
 30
0.0
 11
2993.696852616955
 21
1420.436299156048
 31
0.0
  0
LINE
  5
3D7
102
{ACAD_REACTORS
330
440
102
}
330
1F
100
AcDbEntity
  8
1轮廓实线层
100
AcDbLine
 10
2993.696852616955
 20
1420.436299156048
 30
0.0
 11
3013.696852616955
 21
1420.436299156048
 31
0.0
  0
LINE
  5
3D8
102
{ACAD_REACTORS
330
441
102
}
330
1F
100
AcDbEntity
  8
1轮廓实线层
100
AcDbLine
 10
3013.696852616955
 20
1420.436299156048
 30
0.0
 11
3013.696852616955
 21
1395.436299156048
 31
0.0
  0
LINE
  5
3D9
330
1F
100
AcDbEntity
  8
1轮廓实线层
100
AcDbLine
 10
3043.696852616955
 20
1395.436299156048
 30
0.0
 11
3043.6968526169
 21
1395.436299156048
 31
0.0
  0
DIMENSION
  5
3DA
330
1F
100
AcDbEntity
  8
7标注层
100
AcDbDimension
  2
*D5
 10
3013.696852616955
 20
1428.039068911413
 30
0.0
 11
3024.074760309263
 21
1428.039068911413
 31
0.0
 70
   160
  1
<>{}{\H0.71x;\C3;\S 0.00^ -0.10;}
  3
透镜标注
100
AcDbAlignedDimension
 13
2993.696852616955
 23
1420.436299156048
 33
0.0
 14
3013.696852616955
 24
1420.436299156048
 34
0.0
100
AcDbRotatedDimension
1001
GENIUS_GENDTOL_13
1000
TolSmNrm
1000

1000
{\H0.71x;$2\S$+$P^ $-$M;}
1040
50.0
1001
ACAD_DSTYLE_DIMINSPECT
1070
   396
1000
100%
1070
   395
1000

1070
   394
1070
    33
1070
   393
1070
     0
1001
ACAD
1000
DSTYLE
1002
{
1070
    48
1040
0.1
1070
   288
1070
     1
1002
}
  0
DIMENSION
  5
3DB
330
1F
100
AcDbEntity
  8
7标注层
100
AcDbDimension
  2
*D6
 10
2989.060364265199
 20
1420.436299156049
 30
0.0
 11
2989.060364265199
 21
1407.936299156048
 31
0.0
 70
   160
  1
<>{}{\H0.71x;\C3;\S 0.00^ -0.10;}
  3
透镜标注
100
AcDbAlignedDimension
 13
2993.696852616955
 23
1395.436299156048
 33
0.0
 14
2993.696852616955
 24
1420.436299156048
 34
0.0
 50
90.0
100
AcDbRotatedDimension
1001
GENIUS_GENDTOL_13
1000
TolSmNrm
1000

1000
{\H0.71x;$2\S$+$P^ $-$M;}
1040
50.0
1001
ACAD_DSTYLE_DIMINSPECT
1070
   396
1000
100%
1070
   395
1000

1070
   394
1070
    33
1070
   393
1070
     0
1001
ACAD
1000
DSTYLE
1002
{
1070
    48
1040
0.1
1070
   288
1070
     1
1002
}
  0
LINE
  5
411
102
{ACAD_REACTORS
330
43B
102
}
330
1F
100
AcDbEntity
  8
1轮廓实线层
100
AcDbLine
 10
2993.696852616955
 20
1395.436299156048
 30
0.0
 11
3013.696852616955
 21
1395.436299156048
 31
0.0
  0
LINE
  5
412
102
{ACAD_REACTORS
330
42D
102
}
330
1F
100
AcDbEntity
  8
1轮廓实线层
100
AcDbLine
 10
3053.939229167055
 20
1395.436299156048
 30
0.0
 11
3063.460969878287
 21
1395.436299156048
 31
0.0
  0
LINE
  5
413
102
{ACAD_REACTORS
330
436
102
}
330
1F
100
AcDbEntity
  8
1轮廓实线层
100
AcDbLine
 10
3053.939229167055
 20
1420.436299156048
 30
0.0
 11
3063.460969878287
 21
1420.436299156048
 31
0.0
  0
DIMENSION
  5
414
330
1F
100
AcDbEntity
  8
7标注层
100
AcDbDimension
  2
*D7
 10
2978.803063460792
 20
1355.218064868154
 30
0.0
 11
2978.803063460792
 21
1342.824116063172
 31
0.0
 70
   160
  3
TH-GBD2M
100
AcDbAlignedDimension
 13
2994.050170494679
 23
1366.318064868153
 33
0.0
 14
2994.050170494678
 24
1355.218064868154
 34
0.0
 50
90.0
100
AcDbRotatedDimension
  0
DIMENSION
  5
415
102
{ACAD_REACTORS
330
42A
102
}
102
{ACAD_XDICTIONARY
360
93B
102
}
330
1F
100
AcDbEntity
  8
ADSK_CONSTRAINTS
 60
     1
100
AcDbDimension
 10
3212.939229167063
 20
1407.936299156048
 30
0.0
 11
3086.902399306753
 21
1396.784545024682
 31
0.0
 70
   132
  1
半径2=150
  3
TH-GBD2M
100
AcDbRadialDimension
 15
3063.522958900926
 25
1394.715929276224
 35
0.0
 40
0.0
1001
ACAD
1000
DSTYLE
1002
{
1070
   288
1070
     1
1002
}
1001
ACAD_DSTYLE_DIMRADIAL_EXTE
1070
   387
1070
     1
1070
   388
1040
3.019949950077523
1070
   390
1040
3.263235357102063
  0
DIMENSION
  5
416
102
{ACAD_REACTORS
330
42E
102
}
102
{ACAD_XDICTIONARY
360
93D
102
}
330
1F
100
AcDbEntity
  8
ADSK_CONSTRAINTS
 60
     1
100
AcDbDimension
 10
3048.329148143318
 20
1398.568286901078
 30
0.0
 11
3048.329148143318
 21
1398.568286901078
 31
0.0
 70
   128
  1
d3=25
  3
TH-GBD2M
100
AcDbAlignedDimension
 13
3058.700099522671
 23
1420.436299156048
 33
0.0
 14
3058.700099522671
 24
1395.436299156048
 34
0.0
 50
90.0
100
AcDbRotatedDimension
  0
LINE
  5
418
102
{ACAD_REACTORS
330
432
102
}
330
1F
100
AcDbEntity
  8
7标注层
 62
     0
100
AcDbLine
 10
2994.050170494679
 20
1366.318064868153
 30
0.0
 11
2994.050170494679
 21
1355.218064868154
 31
0.0
  0
LINE
  5
419
102
{ACAD_REACTORS
330
442
102
}
330
1F
100
AcDbEntity
  8
0
100
AcDbLine
 10
3014.050170494679
 20
1366.318064868153
 30
0.0
 11
3014.050170494679
 21
1357.234555643557
 31
0.0
  0
DIMENSION
  5
41A
102
{ACAD_REACTORS
330
439
102
}
102
{ACAD_XDICTIONARY
360
93F
102
}
330
1F
100
AcDbEntity
  8
ADSK_CONSTRAINTS
 60
     1
100
AcDbDimension
 10
2994.050170494678
 20
1379.712195674038
 30
0.0
 11
2994.050170494678
 21
1379.712195674038
 31
0.0
 70
   128
  1
d2=20
  3
ISO-25
100
AcDbAlignedDimension
 13
3014.050170494679
 23
1361.776310255855
 33
0.0
 14
2994.050170494679
 24
1360.768064868153
 34
0.0
100
AcDbRotatedDimension
  0
LINE
  5
41B
102
{ACAD_REACTORS
330
434
102
}
330
1F
100
AcDbEntity
  8
0
100
AcDbLine
 10
2994.050170494679
 20
1366.318064868153
 30
0.0
 11
3014.050170494679
 21
1366.318064868153
 31
0.0
  0
ARC
  5
41C
102
{ACAD_REACTORS
330
435
102
}
330
1F
100
AcDbEntity
  8
0
100
AcDbCircle
 10
3019.063745343926
 20
1207.31836549976
 30
0.0
 40
150.0
100
AcDbArc
 50
91.91540127308895
 51
99.59932703088201
  0
DIMENSION
  5
41D
102
{ACAD_REACTORS
330
446
102
}
102
{ACAD_XDICTIONARY
360
941
102
}
330
1F
100
AcDbEntity
  8
ADSK_CONSTRAINTS
 60
     1
100
AcDbDimension
 10
3019.063745343927
 20
1207.318365499747
 30
0.0
 11
3021.274244033259
 21
1350.524746274188
 31
0.0
 70
   132
  1
半径1=150
  3
ISO-25
100
AcDbRadialDimension
 15
3021.378832896137
 25
1357.30049900114
 35
0.0
 40
0.0
1001
ACAD
1000
DSTYLE
1002
{
1070
   288
1070
     1
1002
}
1001
ACAD_DSTYLE_DIMRADIAL_EXTE
1070
   387
1070
     1
1070
   388
1040
0.6462361007784128
1070
   390
1040
2.510730858992122
  0
DIMENSION
  5
41E
102
{ACAD_REACTORS
330
444
102
}
102
{ACAD_XDICTIONARY
360
943
102
}
330
1F
100
AcDbEntity
  8
ADSK_CONSTRAINTS
 60
     1
100
AcDbDimension
 10
3013.696852616954
 20
1414.727268992383
 30
0.0
 11
3013.696852616954
 21
1414.727268992383
 31
0.0
 70
   128
  1
d1=20
  3
ISO-25
100
AcDbAlignedDimension
 13
2993.696852616955
 23
1420.436299156048
 33
0.0
 14
3013.696852616955
 24
1420.436299156048
 34
0.0
100
AcDbRotatedDimension
  0
DIMENSION
  5
41F
330
1F
100
AcDbEntity
  8
7标注层
100
AcDbDimension
  2
*D8
 10
3012.502156807686
 20
1357.234555643557
 30
0.0
 11
3012.502156807686
 21
1345.069171028171
 31
0.0
 70
   160
  3
TH-GBD2M
100
AcDbAlignedDimension
 13
3014.050170494679
 23
1366.318064868153
 33
0.0
 14
3014.050170494679
 24
1357.234555643557
 34
0.0
 50
90.0
100
AcDbRotatedDimension
  0
ARC
  5
420
102
{ACAD_REACTORS
330
44B
102
}
330
1F
100
AcDbEntity
  8
0
  6
CENTER
100
AcDbCircle
 10
3019.050170494679
 20
1207.316070290663
 30
0.0
 40
150.0
100
AcDbArc
 50
80.40593177313849
 51
99.59406822686046
  0
DIMENSION
  5
421
102
{ACAD_REACTORS
330
450
102
}
102
{ACAD_XDICTIONARY
360
945
102
}
330
1F
100
AcDbEntity
  8
ADSK_CONSTRAINTS
 60
     1
100
AcDbDimension
 10
3019.050170494679
 20
1207.316070290663
 30
0.0
 11
3037.452595313855
 21
1343.800649587786
 31
0.0
 70
   132
  1
半径3=150
  3
ISO-25
100
AcDbRadialDimension
 15
3058.830114088631
 25
1351.945099491795
 35
0.0
 40
0.0
1001
ACAD
1000
DSTYLE
1002
{
1070
   288
1070
     1
1002
}
1001
ACAD_DSTYLE_DIMRADIAL_EXTE
1070
   387
1070
     1
1070
   388
1040
1.357546453390195
1070
   390
1040
1.653637165106711
  0
LINE
  5
422
102
{ACAD_REACTORS
330
44A
102
}
330
1F
100
AcDbEntity
  8
3中心线层
100
AcDbLine
 10
3019.050170494679
 20
1369.106207289991
 30
0.0
 11
3019.050170494679
 21
1345.113220289988
 31
0.0
  0
DIMENSION
  5
423
330
1F
100
AcDbEntity
  8
7标注层
100
AcDbDimension
  2
*D9
 10
3019.050170494679
 20
1378.018571253637
 30
0.0
 11
3032.15900241154
 21
1378.018571253637
 31
0.0
 70
   160
  3
TH-GBD2M
100
AcDbAlignedDimension
 13
3014.050170494679
 23
1366.318064868154
 33
0.0
 14
3019.050170494679
 24
1366.369307856104
 34
0.0
100
AcDbRotatedDimension
  0
DIMENSION
  5
424
102
{ACAD_REACTORS
330
44D
102
}
102
{ACAD_XDICTIONARY
360
947
102
}
330
1F
100
AcDbEntity
  8
ADSK_CONSTRAINTS
 60
     1
100
AcDbDimension
 10
2997.861144525304
 20
1355.218064868154
 30
0.0
 11
2997.861144525304
 21
1355.218064868154
 31
0.0
 70
   128
  1
d4=11.1
  3
ISO-25
100
AcDbAlignedDimension
 13
2994.050170494679
 23
1366.318064868153
 33
0.0
 14
2994.050170494679
 24
1355.218064868154
 34
0.0
 50
90.0
100
AcDbRotatedDimension
  0
DIMENSION
  5
519
102
{ACAD_REACTORS
330
51D
102
}
102
{ACAD_XDICTIONARY
360
949
102
}
330
1F
100
AcDbEntity
  8
ADSK_CONSTRAINTS
 60
     1
100
AcDbDimension
 10
3062.939229167054
 20
1404.829184231085
 30
0.0
 11
3062.939229167054
 21
1404.829184231085
 31
0.0
 70
   128
  1
d6=9
  3
ISO-25
100
AcDbAlignedDimension
 13
3053.939229167055
 23
1407.936299156048
 33
0.0
 14
3062.939229167055
 24
1407.936299156048
 34
0.0
100
AcDbRotatedDimension
  0
LINE
  5
700
330
1F
100
AcDbEntity
  8
6文字层
 62
     0
100
AcDbLine
 10
2991.089698674903
 20
1269.468653560574
 30
0.0
 11
2871.089698674852
 21
1269.468653560574
 31
0.0
  0
INSERT
  5
701
330
1F
100
AcDbEntity
  8
6文字层
100
AcDbBlockReference
  2
*X11
 10
2992.589698674903
 20
1364.468653560576
 30
0.0
1001
CAXA_DRAFT_PAPERFRAME
1071
        2
1041
138.5
1041
-95.0
1041
0.0
1000
A4A-D-Sighted(CHS)
1070
     1
1001
CAXA_DRAFT_BLKHIDE
1070
     0
  0
LINE
  5
702
330
1F
100
AcDbEntity
  8
1轮廓实线层
100
AcDbLine
 10
2991.089698674903
 20
1269.468653560574
 30
0.0
 11
3131.089698674903
 21
1269.468653560574
 31
0.0
  0
LINE
  5
703
330
1F
100
AcDbEntity
  8
粗实线层
100
AcDbLine
 10
3026.090045646302
 20
1275.309661194325
 30
0.0
 11
3131.089698674903
 21
1275.309661194331
 31
0.0
  0
LINE
  5
704
330
1F
100
AcDbEntity
  8
细实线层
100
AcDbLine
 10
3120.845844028911
 20
1275.309661194331
 30
0.0
 11
3120.845844028911
 21
1269.468653560574
 31
0.0
  0
LINE
  5
705
330
1F
100
AcDbEntity
  8
细实线层
100
AcDbLine
 10
3117.958344028912
 20
1272.389157377453
 30
0.0
 11
3124.520844028912
 21
1272.389157377453
 31
0.0
  0
CIRCLE
  5
706
330
1F
100
AcDbEntity
  8
细实线层
100
AcDbCircle
 10
3120.845844028911
 20
1272.389157377453
 30
0.0
 40
2.187499999999943
  0
CIRCLE
  5
707
330
1F
100
AcDbEntity
  8
细实线层
100
AcDbCircle
 10
3120.845844028911
 20
1272.389157377453
 30
0.0
 40
0.6562499999999829
  0
LINE
  5
708
330
1F
100
AcDbEntity
  8
3中心线层
 62
     7
 48
0.1
100
AcDbLine
 10
3109.234262817532
 20
1272.389157377453
 30
0.0
 11
3117.958344028912
 21
1272.389157377453
 31
0.0
  0
LINE
  5
709
330
1F
100
AcDbEntity
  8
3中心线层
 62
     7
100
AcDbLine
 10
3110.384794666921
 20
1272.061032377453
 30
0.0
 11
3110.384794666921
 21
1272.71728237745
 31
0.0
  0
LINE
  5
70A
330
1F
100
AcDbEntity
  8
3中心线层
 62
     7
100
AcDbLine
 10
3116.509794666921
 20
1270.201657377453
 30
0.0
 11
3116.509794666921
 21
1274.576657377451
 31
0.0
  0
LINE
  5
70B
330
1F
100
AcDbEntity
  8
细实线层
100
AcDbLine
 10
3110.384794666921
 20
1272.71728237745
 30
0.0
 11
3116.509794666921
 21
1274.576657377451
 31
0.0
  0
LINE
  5
70C
330
1F
100
AcDbEntity
  8
细实线层
100
AcDbLine
 10
3110.384794666921
 20
1272.061032377453
 30
0.0
 11
3116.509794666921
 21
1270.201657377453
 31
0.0
  0
LINE
  5
70D
330
1F
100
AcDbEntity
  8
粗实线层
100
AcDbLine
 10
3026.090045646302
 20
1285.801986893906
 30
0.0
 11
3131.089698674903
 21
1285.801986893909
 31
0.0
  0
LINE
  5
70E
330
1F
100
AcDbEntity
  8
粗实线层
100
AcDbLine
 10
3026.090045646302
 20
1299.468653560575
 30
0.0
 11
3131.089698674903
 21
1299.468653560576
 31
0.0
  0
MTEXT
  5
70F
330
1F
100
AcDbEntity
  8
6文字层
100
AcDbMText
 10
3038.26913405376
 20
1280.604090859633
 30
0.0
 40
2.5
 41
17.84855769230755
 71
     5
 72
     5
  1
{\fSimHei|b1|i0|c134|p49;名称 }
1001
ACDBBLOCKREPETAG
1000

1001
ACAD
1000
ACAD_MTEXT_DEFINED_HEIGHT_BEGIN
1070
    46
1040
4.283653846153733
1000
ACAD_MTEXT_DEFINED_HEIGHT_END
  0
MTEXT
  5
710
330
1F
100
AcDbEntity
  8
6文字层
100
AcDbMText
 10
3102.514473277031
 20
1292.807487508138
 30
0.0
 40
3.0
 41
63.12269194006068
 71
     5
 72
     5
  1
{\fSimHei|b1|i0|c134|p49;联合光科技（北京）有限公司}
1001
ACDBBLOCKREPETAG
1000

1001
ACAD
1000
ACAD_MTEXT_DEFINED_HEIGHT_BEGIN
1070
    46
1040
3.808394365490182
1000
ACAD_MTEXT_DEFINED_HEIGHT_END
  0
MTEXT
  5
711
330
1F
100
AcDbEntity
  8
6文字层
100
AcDbMText
 10
3038.462980277782
 20
1272.45799427318
 30
0.0
 40
2.5
 41
17.84855769230755
 71
     5
 72
     5
  1
{\fSimHei|b1|i0|c134|p49;产品编号} 
1001
ACDBBLOCKREPETAG
1000

1001
ACAD
1000
ACAD_MTEXT_DEFINED_HEIGHT_BEGIN
1070
    46
1040
4.283653846153733
1000
ACAD_MTEXT_DEFINED_HEIGHT_END
  0
MTEXT
  5
712
330
1F
100
AcDbEntity
  8
6文字层
100
AcDbMText
 10
3097.521336144382
 20
1272.612087566238
 30
0.0
 40
2.5
 41
17.84855769230755
 71
     5
 72
     5
  1
{\fSimHei|b1|i0|c134|p49;mm }
1001
ACDBBLOCKREPETAG
1000

1001
ACAD
1000
ACAD_MTEXT_DEFINED_HEIGHT_BEGIN
1070
    46
1040
4.283653846153733
1000
ACAD_MTEXT_DEFINED_HEIGHT_END
  0
LINE
  5
713
330
1F
100
AcDbEntity
  8
粗实线层
100
AcDbLine
 10
3026.090045646302
 20
1269.409750303844
 30
0.0
 11
3026.090045646302
 21
1299.409750303833
 31
0.0
  0
LINE
  5
714
330
1F
100
AcDbEntity
  8
粗实线层
100
AcDbLine
 10
3050.850031539432
 20
1269.468653560574
 30
0.0
 11
3050.850031539432
 21
1285.8019868939
 31
0.0
  0
LINE
  5
715
330
1F
100
AcDbEntity
  8
粗实线层
100
AcDbLine
 10
3073.725594443653
 20
1285.897175907648
 30
0.0
 11
3073.725594443653
 21
1299.468653560576
 31
0.0
  0
LINE
  5
716
330
1F
100
AcDbEntity
  8
粗实线层
100
AcDbLine
 10
3073.725594443653
 20
1269.468653560568
 30
0.0
 11
3073.725594443642
 21
1275.309661194321
 31
0.0
  0
MTEXT
  5
717
330
1F
100
AcDbEntity
  8
6文字层
100
AcDbMText
 10
3082.286958014443
 20
1272.297511366617
 30
0.0
 40
2.5
 41
17.84855769230755
 71
     5
 72
     5
  1
{\fSimHei|b1|i0|c134|p49;单位}
1001
ACAD
1000
ACAD_MTEXT_DEFINED_HEIGHT_BEGIN
1070
    46
1040
3.291666666666666
1000
ACAD_MTEXT_DEFINED_HEIGHT_END
  0
LINE
  5
718
330
1F
100
AcDbEntity
  8
粗实线层
100
AcDbLine
 10
3090.829851849841
 20
1269.468653560574
 30
0.0
 11
3090.829851849841
 21
1275.309661194329
 31
0.0
  0
LINE
  5
719
330
1F
100
AcDbEntity
  8
粗实线层
100
AcDbLine
 10
3103.394864570451
 20
1269.468653560574
 30
0.0
 11
3103.394864570451
 21
1275.309661194329
 31
0.0
  0
LINE
  5
71A
330
1F
100
AcDbEntity
  8
0
100
AcDbLine
 10
3131.089698674903
 20
1269.468653560574
 30
0.0
 11
3031.089698674903
 21
1269.468653560574
 31
0.0
  0
HATCH
  5
71B
330
1F
100
AcDbEntity
  8
3中心线层
 62
     0
100
AcDbHatch
 10
0.0
 20
0.0
 30
0.0
210
0.0
220
0.0
230
1.0
  2
SOLID
 70
     1
 71
     0
 91
       14
 92
        5
 93
        5
 72
     4
 94
        3
 73
     0
 74
     0
 95
        8
 96
        4
 40
7.0
 40
7.0
 40
7.0
 40
7.0
 40
8.0
 40
8.0
 40
8.0
 40
8.0
 10
3036.751557472393
 20
1295.719355539625
 10
3036.751557472393
 20
1296.533227063057
 10
3036.091783702852
 20
1297.193004377511
 10
3035.277908634502
 20
1297.193004377511
 72
     4
 94
        3
 73
     0
 74
     0
 95
        8
 96
        4
 40
0.0
 40
0.0
 40
0.0
 40
0.0
 40
1.0
 40
1.0
 40
1.0
 40
1.0
 10
3035.277908634502
 20
1297.193004377511
 10
3035.277908634502
 20
1297.193004377511
 10
3029.628923195041
 20
1297.193004377511
 10
3029.628923195041
 20
1297.193004377511
 72
     4
 94
        3
 73
     0
 74
     0
 95
       11
 96
        7
 40
1.0
 40
1.0
 40
1.0
 40
1.0
 40
2.0
 40
2.0
 40
2.0
 40
3.0
 40
3.0
 40
3.0
 40
3.0
 10
3029.628923195041
 20
1297.193004377511
 10
3028.815051671601
 20
1297.193004377511
 10
3028.15527790206
 20
1296.533227063057
 10
3028.15527790206
 20
1295.719355539625
 10
3028.15527790206
 20
1295.719355539625
 10
3028.15527790206
 20
1290.07037010017
 10
3028.15527790206
 20
1290.07037010017
 72
     4
 94
        3
 73
     0
 74
     0
 95
       11
 96
        7
 40
3.0
 40
3.0
 40
3.0
 40
3.0
 40
4.0
 40
4.0
 40
4.0
 40
5.0
 40
5.0
 40
5.0
 40
5.0
 10
3028.15527790206
 20
1290.07037010017
 10
3028.15527790206
 20
1289.256495031809
 10
3028.815051671601
 20
1288.596721262279
 10
3029.628923195041
 20
1288.596721262279
 10
3029.628923195041
 20
1288.596721262279
 10
3035.277908634502
 20
1288.596721262279
 10
3035.277908634502
 20
1288.596721262279
 72
     4
 94
        3
 73
     0
 74
     0
 95
       11
 96
        7
 40
5.0
 40
5.0
 40
5.0
 40
5.0
 40
6.0
 40
6.0
 40
6.0
 40
7.0
 40
7.0
 40
7.0
 40
7.0
 10
3035.277908634502
 20
1288.596721262279
 10
3036.091783702852
 20
1288.596721262279
 10
3036.751557472393
 20
1289.256495031809
 10
3036.751557472393
 20
1290.07037010017
 10
3036.751557472393
 20
1290.07037010017
 10
3036.751557472393
 20
1295.719355539625
 10
3036.751557472393
 20
1295.719355539625
 97
        0
 92
       20
 93
       12
 72
     4
 94
        3
 73
     0
 74
     0
 95
        8
 96
        4
 40
10.0
 40
10.0
 40
10.0
 40
10.0
 40
11.0
 40
11.0
 40
11.0
 40
11.0
 10
3029.014903732152
 20
1292.894861047435
 10
3029.014903732152
 20
1294.793896965402
 10
3030.554403038792
 20
1296.333375002512
 10
3032.453435411844
 20
1296.333375002512
 72
     4
 94
        3
 73
     0
 74
     0
 95
        8
 96
        4
 40
11.0
 40
11.0
 40
11.0
 40
11.0
 40
12.0
 40
12.0
 40
12.0
 40
12.0
 10
3032.453435411844
 20
1296.333375002512
 10
3034.352464239961
 20
1296.333375002512
 10
3035.891928097393
 20
1294.793896965402
 10
3035.891928097393
 20
1292.894861047435
 72
     4
 94
        3
 73
     0
 74
     0
 95
        8
 96
        4
 40
12.0
 40
12.0
 40
12.0
 40
12.0
 40
13.0
 40
13.0
 40
13.0
 40
13.0
 10
3035.891928097393
 20
1292.894861047435
 10
3035.891928097393
 20
1290.995821584547
 10
3034.352464239961
 20
1289.456347092352
 10
3032.453435411844
 20
1289.456347092352
 72
     4
 94
        3
 73
     0
 74
     0
 95
        8
 96
        4
 40
0.0
 40
0.0
 40
0.0
 40
0.0
 40
1.0
 40
1.0
 40
1.0
 40
1.0
 10
3032.453435411844
 20
1289.456347092352
 10
3032.184343937231
 20
1289.456347092352
 10
3031.922927218471
 20
1289.488382551339
 10
3031.671730509503
 20
1289.547079367749
 72
     4
 94
        3
 73
     0
 74
     0
 95
        8
 96
        4
 40
1.0
 40
1.0
 40
1.0
 40
1.0
 40
2.0
 40
2.0
 40
2.0
 40
2.0
 10
3031.671730509503
 20
1289.547079367749
 10
3031.995335792702
 20
1289.768229318921
 10
3032.207807775123
 20
1290.140045539624
 10
3032.207807775123
 20
1290.561586379464
 72
     4
 94
        3
 73
     0
 74
     0
 95
        8
 96
        4
 40
2.0
 40
2.0
 40
2.0
 40
2.0
 40
3.0
 40
3.0
 40
3.0
 40
3.0
 10
3032.207807775123
 20
1290.561586379464
 10
3032.207807775123
 20
1290.652347014231
 10
3032.197669298563
 20
1290.74069710212
 10
3032.178987560272
 20
1290.825849670482
 72
     4
 94
        3
 73
     0
 74
     0
 95
        8
 96
        4
 40
3.0
 40
3.0
 40
3.0
 40
3.0
 40
4.0
 40
4.0
 40
4.0
 40
4.0
 10
3032.178987560272
 20
1290.825849670482
 10
3032.268840695042
 20
1290.813945822826
 10
3032.360320948952
 20
1290.807192746653
 10
3032.453428322002
 20
1290.807192746653
 72
     4
 94
        3
 73
     0
 74
     0
 95
        8
 96
        4
 40
4.0
 40
4.0
 40
4.0
 40
4.0
 40
5.0
 40
5.0
 40
5.0
 40
5.0
 10
3032.453428322002
 20
1290.807192746653
 10
3033.606410616912
 20
1290.807192746653
 10
3034.54108598801
 20
1291.741871662666
 10
3034.54108598801
 20
1292.894861047435
 72
     4
 94
        3
 73
     0
 74
     0
 95
       11
 96
        7
 40
5.0
 40
5.0
 40
5.0
 40
5.0
 40
6.0
 40
6.0
 40
6.0
 40
7.0
 40
7.0
 40
7.0
 40
7.0
 10
3034.54108598801
 20
1292.894861047435
 10
3034.54108598801
 20
1294.047846887277
 10
3033.606410616912
 20
1294.982529348213
 10
3032.453428322002
 20
1294.982529348213
 10
3031.300446027073
 20
1294.982529348213
 10
3030.365749386443
 20
1294.047846887277
 10
3030.365749386443
 20
1292.894861047435
 72
     4
 94
        3
 73
     0
 74
     0
 95
        8
 96
        4
 40
7.0
 40
7.0
 40
7.0
 40
7.0
 40
8.0
 40
8.0
 40
8.0
 40
8.0
 10
3030.365749386443
 20
1292.894861047435
 10
3030.365749386443
 20
1292.475383352123
 10
3030.489814562232
 20
1292.085044914623
 10
3030.702765109101
 20
1291.757866350167
 72
     4
 94
        3
 73
     0
 74
     0
 95
        8
 96
        4
 40
8.0
 40
8.0
 40
8.0
 40
8.0
 40
9.0
 40
9.0
 40
9.0
 40
9.0
 10
3030.702765109101
 20
1291.757866350167
 10
3030.218259366911
 20
1291.646098508375
 10
3029.843312980203
 20
1291.248000236888
 10
3029.766327911831
 20
1290.751115627512
 72
     4
 94
        3
 73
     0
 74
     0
 95
        8
 96
        4
 40
9.0
 40
9.0
 40
9.0
 40
9.0
 40
10.0
 40
10.0
 40
10.0
 40
10.0
 10
3029.766327911831
 20
1290.751115627512
 10
3029.296540685282
 20
1291.339019650953
 10
3029.014903732152
 20
1292.083790012279
 10
3029.014903732152
 20
1292.894861047435
 97
        0
 92
       20
 93
        1
 72
     4
 94
        3
 73
     0
 74
     0
 95
       17
 96
       13
 40
0.0
 40
0.0
 40
0.0
 40
0.0
 40
1.0
 40
1.0
 40
1.0
 40
2.0
 40
2.0
 40
2.0
 40
3.0
 40
3.0
 40
3.0
 40
4.0
 40
4.0
 40
4.0
 40
4.0
 10
3030.856965665742
 20
1292.894861047435
 10
3030.856965665742
 20
1293.776557561108
 10
3031.57173180833
 20
1294.491316613841
 10
3032.453424777081
 20
1294.491316613841
 10
3033.335117745823
 20
1294.491316613841
 10
3034.049869708711
 20
1293.776557561108
 10
3034.049869708711
 20
1292.894861047435
 10
3034.049869708711
 20
1292.013164533762
 10
3033.335117745823
 20
1291.298409025953
 10
3032.453424777081
 20
1291.298409025953
 10
3031.57173180833
 20
1291.298409025953
 10
3030.856965665742
 20
1292.013164533762
 10
3030.856965665742
 20
1292.894861047435
 97
        0
 92
       20
 93
        3
 72
     4
 94
        3
 73
     0
 74
     0
 95
       11
 96
        7
 40
1.0
 40
1.0
 40
1.0
 40
1.0
 40
2.0
 40
2.0
 40
2.0
 40
3.0
 40
3.0
 40
3.0
 40
3.0
 10
3030.120139474344
 20
1290.561586379464
 10
3030.120139474344
 20
1291.036343586498
 10
3030.505015187231
 20
1291.421212209547
 10
3030.979772394261
 20
1291.421212209547
 10
3031.454529601302
 20
1291.421212209547
 10
3031.839394679411
 20
1291.036343586498
 10
3031.839394679411
 20
1290.561586379464
 72
     4
 94
        3
 73
     0
 74
     0
 95
        8
 96
        4
 40
3.0
 40
3.0
 40
3.0
 40
3.0
 40
4.0
 40
4.0
 40
4.0
 40
4.0
 10
3031.839394679411
 20
1290.561586379464
 10
3031.839394679411
 20
1290.086825627515
 10
3031.454529601302
 20
1289.701957004468
 10
3030.979772394261
 20
1289.701957004468
 72
     4
 94
        3
 73
     0
 74
     0
 95
        8
 96
        4
 40
0.0
 40
0.0
 40
0.0
 40
0.0
 40
1.0
 40
1.0
 40
1.0
 40
1.0
 10
3030.979772394261
 20
1289.701957004468
 10
3030.505015187231
 20
1289.701957004468
 10
3030.120139474344
 20
1290.086825627515
 10
3030.120139474344
 20
1290.561586379464
 97
        0
 92
        5
 93
       33
 72
     4
 94
        3
 73
     0
 74
     0
 95
       11
 96
        7
 40
5.0
 40
5.0
 40
5.0
 40
5.0
 40
6.0
 40
6.0
 40
6.0
 40
7.0
 40
7.0
 40
7.0
 40
7.0
 10
3041.522449351092
 20
1293.793680490658
 10
3041.522449351092
 20
1293.793680490658
 10
3042.34584311123
 20
1293.793680490658
 10
3042.34584311123
 20
1293.793680490658
 10
3042.217592261242
 20
1294.903836380341
 10
3041.333443718193
 20
1295.476154223056
 10
3040.280596620341
 20
1295.476154223056
 72
     4
 94
        3
 73
     0
 74
     0
 95
        8
 96
        4
 40
4.0
 40
4.0
 40
4.0
 40
4.0
 40
5.0
 40
5.0
 40
5.0
 40
5.0
 10
3040.280596620341
 20
1295.476154223056
 10
3038.836297301259
 20
1295.476154223056
 10
3037.972414223472
 20
1294.303926197999
 10
3037.972414223472
 20
1292.897269573993
 72
     4
 94
        3
 73
     0
 74
     0
 95
        8
 96
        4
 40
3.0
 40
3.0
 40
3.0
 40
3.0
 40
4.0
 40
4.0
 40
4.0
 40
4.0
 10
3037.972414223472
 20
1292.897269573993
 10
3037.972414223472
 20
1291.4905916924
 10
3038.836297301259
 20
1290.318384924924
 10
3040.280596620341
 20
1290.318384924924
 72
     4
 94
        3
 73
     0
 74
     0
 95
        8
 96
        4
 40
2.0
 40
2.0
 40
2.0
 40
2.0
 40
3.0
 40
3.0
 40
3.0
 40
3.0
 10
3040.280596620341
 20
1290.318384924924
 10
3040.867754145753
 20
1290.318384924924
 10
3041.27947183226
 20
1290.490762646075
 10
3041.731637223553
 20
1291.014825780812
 72
     4
 94
        3
 73
     0
 74
     0
 95
       11
 96
        7
 40
0.5
 40
0.5
 40
0.5
 40
0.5
 40
1.5
 40
1.5
 40
1.5
 40
2.0
 40
2.0
 40
2.0
 40
2.0
 10
3041.731637223553
 20
1291.014825780812
 10
3041.731637223553
 20
1291.014825780812
 10
3041.859888073543
 20
1290.435599224399
 10
3041.859888073543
 20
1290.435599224399
 10
3041.859888073543
 20
1290.435599224399
 10
3041.99486980445
 20
1290.435599224399
 10
3042.129851535361
 20
1290.435599224399
 72
     4
 94
        3
 73
     0
 74
     0
 95
       11
 96
        7
 40
14.749965
 40
14.749965
 40
14.749965
 40
14.749965
 40
15.249965
 40
15.249965
 40
15.249965
 40
15.5
 40
15.5
 40
15.5
 40
15.5
 10
3042.129851535361
 20
1290.435599224399
 10
3042.264833266252
 20
1290.435599224399
 10
3042.39981499715
 20
1290.435599224399
 10
3042.39981499715
 20
1290.435599224399
 10
3042.39981499715
 20
1290.435599224399
 10
3042.39981499715
 20
1290.59768715067
 10
3042.39981499715
 20
1290.840807693916
 72
     4
 94
        3
 73
     0
 74
     0
 95
        8
 96
        4
 40
14.49997
 40
14.49997
 40
14.49997
 40
14.49997
 40
14.749965
 40
14.749965
 40
14.749965
 40
14.749965
 10
3042.39981499715
 20
1290.840807693916
 10
3042.39981499715
 20
1291.083889343329
 10
3042.39981499715
 20
1291.407977684983
 10
3042.39981499715
 20
1291.732056304473
 72
     4
 94
        3
 73
     0
 74
     0
 95
        8
 96
        4
 40
14.3749725
 40
14.3749725
 40
14.3749725
 40
14.3749725
 40
14.49997
 40
14.49997
 40
14.49997
 40
14.49997
 10
3042.39981499715
 20
1291.732056304473
 10
3042.39981499715
 20
1291.894095614219
 10
3042.39981499715
 20
1292.056132493429
 10
3042.39981499715
 20
1292.208039890288
 72
     4
 94
        3
 73
     0
 74
     0
 95
        8
 96
        4
 40
14.18747625
 40
14.18747625
 40
14.18747625
 40
14.18747625
 40
14.3749725
 40
14.3749725
 40
14.3749725
 40
14.3749725
 10
3042.39981499715
 20
1292.208039890288
 10
3042.39981499715
 20
1292.435900985581
 10
3042.39981499715
 20
1292.640970745603
 10
3042.39981499715
 20
1292.789070370525
 72
     4
 94
        3
 73
     0
 74
     0
 95
        8
 96
        4
 40
14.1249775
 40
14.1249775
 40
14.1249775
 40
14.1249775
 40
14.18747625
 40
14.18747625
 40
14.18747625
 40
14.18747625
 10
3042.39981499715
 20
1292.789070370525
 10
3042.39981499715
 20
1292.83843691217
 10
3042.39981499715
 20
1292.881473438802
 10
3042.39981499715
 20
1292.916914068942
 72
     4
 94
        3
 73
     0
 74
     0
 95
        8
 96
        4
 40
14.093728125
 40
14.093728125
 40
14.093728125
 40
14.093728125
 40
14.1249775
 40
14.1249775
 40
14.1249775
 40
14.1249775
 10
3042.39981499715
 20
1292.916914068942
 10
3042.39981499715
 20
1292.934634384017
 10
3042.39981499715
 20
1292.950455724962
 10
3042.39981499715
 20
1292.964219856612
 72
     4
 94
        3
 73
     0
 74
     0
 95
        8
 96
        4
 40
14.06247875
 40
14.06247875
 40
14.06247875
 40
14.06247875
 40
14.093728125
 40
14.093728125
 40
14.093728125
 40
14.093728125
 10
3042.39981499715
 20
1292.964219856612
 10
3042.39981499715
 20
1292.977983988252
 10
3042.39981499715
 20
1292.989690910592
 10
3042.39981499715
 20
1292.99918238844
 72
     4
 94
        3
 73
     0
 74
     0
 95
       11
 96
        7
 40
13.99997958222998
 40
13.99997958222998
 40
13.99997958222998
 40
13.99997958222998
 40
14.0
 40
14.0
 40
14.0
 40
14.00071240722656
 40
14.00071240722656
 40
14.00071240722656
 40
14.00071240722656
 10
3042.399814994593
 20
1293.028280043278
 10
3042.399814996301
 20
1293.028280043278
 10
3042.39981499715
 20
1293.028280043278
 10
3042.39981499715
 20
1293.028280043278
 10
3042.39981499715
 20
1293.028280043278
 10
3042.39981499715
 20
1293.028278727435
 10
3042.39981499715
 20
1293.028276097614
 72
     4
 94
        3
 73
     0
 74
     0
 95
        8
 96
        4
 40
13.49999
 40
13.49999
 40
13.49999
 40
13.49999
 40
13.99997958222998
 40
13.99997958222998
 40
13.99997958222998
 40
13.99997958222998
 10
3042.399814994593
 20
1293.028280043278
 10
3042.399773104722
 20
1293.028280043278
 10
3041.886842956492
 20
1293.028280043278
 10
3041.373923066443
 20
1293.028280043278
 72
     4
 94
        3
 73
     0
 74
     0
 95
       11
 96
        7
 40
12.99902343580856
 40
12.99902343580856
 40
12.99902343580856
 40
12.99902343580856
 40
13.49901343580856
 40
13.49901343580856
 40
13.49901343580856
 40
13.49999
 40
13.49999
 40
13.49999
 40
13.49999
 10
3041.373923066443
 20
1293.028280043278
 10
3040.861002747823
 20
1293.028280043278
 10
3040.348092687402
 20
1293.028280043278
 10
3040.348092687402
 20
1293.028280043278
 10
3040.348092687402
 20
1293.028280043278
 10
3040.348092687402
 20
1293.02827941855
 10
3040.348092687402
 20
1293.02827817031
 72
     4
 94
        3
 73
     0
 74
     0
 95
        8
 96
        4
 40
12.906251875
 40
12.906251875
 40
12.906251875
 40
12.906251875
 40
12.93750125
 40
12.93750125
 40
12.93750125
 40
12.93750125
 10
3040.348092687402
 20
1293.020923547512
 10
3040.348092687402
 20
1293.018524689083
 10
3040.348092687402
 20
1293.015566096171
 10
3040.348092687402
 20
1293.012087748886
 72
     4
 94
        3
 73
     0
 74
     0
 95
        8
 96
        4
 40
12.81250375
 40
12.81250375
 40
12.81250375
 40
12.81250375
 40
12.8750024998249
 40
12.8750024998249
 40
12.8750024998249
 40
12.8750024998249
 10
3040.348092687402
 20
1293.000133424005
 10
3040.348092687402
 20
1292.991177672239
 10
3040.348092687402
 20
1292.980302823506
 10
3040.348092687402
 20
1292.967828718779
 72
     4
 94
        3
 73
     0
 74
     0
 95
        8
 96
        4
 40
12.75000499991749
 40
12.75000499991749
 40
12.75000499991749
 40
12.75000499991749
 40
12.81250375
 40
12.81250375
 40
12.81250375
 40
12.81250375
 10
3040.348092687402
 20
1292.967828718779
 10
3040.348092687402
 20
1292.955354613993
 10
3040.348092687402
 20
1292.941281253198
 10
3040.348092687402
 20
1292.925928477355
 72
     4
 94
        3
 73
     0
 74
     0
 95
        8
 96
        4
 40
12.6250075
 40
12.6250075
 40
12.6250075
 40
12.6250075
 40
12.75000499991749
 40
12.75000499991749
 40
12.75000499991749
 40
12.75000499991749
 10
3040.348092687402
 20
1292.925928477355
 10
3040.348092687402
 20
1292.895222925729
 10
3040.348092687402
 20
1292.859399713936
 10
3040.348092687402
 20
1292.821017569707
 72
     4
 94
        3
 73
     0
 74
     0
 95
        8
 96
        4
 40
12.50000999999212
 40
12.50000999999212
 40
12.50000999999212
 40
12.50000999999212
 40
12.6250075
 40
12.6250075
 40
12.6250075
 40
12.6250075
 10
3040.348092687402
 20
1292.821017569707
 10
3040.348092687402
 20
1292.782635425453
 10
3040.348092687402
 20
1292.741694348767
 10
3040.348092687402
 20
1292.700753067362
 72
     4
 94
        3
 73
     0
 74
     0
 95
        8
 96
        4
 40
12.250015
 40
12.250015
 40
12.250015
 40
12.250015
 40
12.50000999999212
 40
12.50000999999212
 40
12.50000999999212
 40
12.50000999999212
 10
3040.348092687402
 20
1292.700753067362
 10
3040.348092687402
 20
1292.61887050458
 10
3040.348092687402
 20
1292.536987122987
 10
3040.348092687402
 20
1292.475572744473
 72
     4
 94
        3
 73
     0
 74
     0
 95
       11
 96
        7
 40
11.99928759277344
 40
11.99928759277344
 40
11.99928759277344
 40
11.99928759277344
 40
12.24930259277344
 40
12.24930259277344
 40
12.24930259277344
 40
12.250015
 40
12.250015
 40
12.250015
 40
12.250015
 10
3040.348092687402
 20
1292.475572744473
 10
3040.348092687402
 20
1292.41415345271
 10
3040.348092687402
 20
1292.373206439258
 10
3040.348092687402
 20
1292.373206439258
 10
3040.348092687402
 20
1292.373206439258
 10
3040.348093338211
 20
1292.373206439258
 10
3040.34809463893
 20
1292.373206439258
 72
     4
 94
        3
 73
     0
 74
     0
 95
        8
 96
        4
 40
11.906271875
 40
11.906271875
 40
11.906271875
 40
11.906271875
 40
11.93752124974706
 40
11.93752124974706
 40
11.93752124974706
 40
11.93752124974706
 10
3040.362484411344
 20
1292.373206439258
 10
3040.367178904002
 20
1292.373206439258
 10
3040.372969157303
 20
1292.373206439258
 10
3040.379776908001
 20
1292.373206439258
 72
     4
 94
        3
 73
     0
 74
     0
 95
        8
 96
        4
 40
11.8750225
 40
11.8750225
 40
11.8750225
 40
11.8750225
 40
11.906271875
 40
11.906271875
 40
11.906271875
 40
11.906271875
 10
3040.379776908001
 20
1292.373206439258
 10
3040.38658465873
 20
1292.373206439258
 10
3040.394409906883
 20
1292.373206439258
 10
3040.403174389172
 20
1292.373206439258
 72
     4
 94
        3
 73
     0
 74
     0
 95
        8
 96
        4
 40
11.81252375
 40
11.81252375
 40
11.81252375
 40
11.81252375
 40
11.8750225
 40
11.8750225
 40
11.8750225
 40
11.8750225
 10
3040.403174389172
 20
1292.373206439258
 10
3040.420703353753
 20
1292.373206439258
 10
3040.441989254932
 20
1292.373206439258
 10
3040.466405986712
 20
1292.373206439258
 72
     4
 94
        3
 73
     0
 74
     0
 95
        8
 96
        4
 40
11.75002499995332
 40
11.75002499995332
 40
11.75002499995332
 40
11.75002499995332
 40
11.81252375
 40
11.81252375
 40
11.81252375
 40
11.81252375
 10
3040.466405986712
 20
1292.373206439258
 10
3040.490822718511
 20
1292.373206439258
 10
3040.518370280901
 20
1292.373206439258
 10
3040.548422567872
 20
1292.373206439258
 72
     4
 94
        3
 73
     0
 74
     0
 95
        8
 96
        4
 40
11.6250275
 40
11.6250275
 40
11.6250275
 40
11.6250275
 40
11.75002499995332
 40
11.75002499995332
 40
11.75002499995332
 40
11.75002499995332
 10
3040.548422567872
 20
1292.373206439258
 10
3040.608527141743
 20
1292.373206439258
 10
3040.678650613911
 20
1292.373206439258
 10
3040.753784136321
 20
1292.373206439258
 72
     4
 94
        3
 73
     0
 74
     0
 95
        8
 96
        4
 40
11.50003
 40
11.50003
 40
11.50003
 40
11.50003
 40
11.6250275
 40
11.6250275
 40
11.6250275
 40
11.6250275
 10
3040.753784136321
 20
1292.373206439258
 10
3040.828917658753
 20
1292.373206439258
 10
3040.909061231412
 20
1292.373206439258
 10
3040.98920600623
 20
1292.373206439258
 72
     4
 94
        3
 73
     0
 74
     0
 95
        8
 96
        4
 40
11.250035
 40
11.250035
 40
11.250035
 40
11.250035
 40
11.50003
 40
11.50003
 40
11.50003
 40
11.50003
 10
3040.98920600623
 20
1292.373206439258
 10
3041.149495555843
 20
1292.373206439258
 10
3041.309789914052
 20
1292.373206439258
 10
3041.430018296182
 20
1292.373206439258
 72
     4
 94
        3
 73
     0
 74
     0
 95
       11
 96
        7
 40
10.0
 40
10.0
 40
10.0
 40
10.0
 40
10.250035
 40
10.250035
 40
10.250035
 40
11.250035
 40
11.250035
 40
11.250035
 40
11.250035
 10
3041.430018296182
 20
1292.373206439258
 10
3041.550265915243
 20
1292.373206439258
 10
3041.630434735824
 20
1292.373206439258
 10
3041.630434735824
 20
1292.373206439258
 10
3041.616910554692
 20
1291.538867657963
 10
3041.144479698141
 20
1291.007917067114
 10
3040.280596620341
 20
1291.021713236926
 72
     4
 94
        3
 73
     0
 74
     0
 95
        8
 96
        4
 40
9.0
 40
9.0
 40
9.0
 40
9.0
 40
10.0
 40
10.0
 40
10.0
 40
10.0
 10
3040.280596620341
 20
1291.021713236926
 10
3039.248014987752
 20
1291.021713236926
 10
3038.816073448872
 20
1291.952582691765
 10
3038.816073448872
 20
1292.897269573993
 72
     4
 94
        3
 73
     0
 74
     0
 95
        8
 96
        4
 40
8.0
 40
8.0
 40
8.0
 40
8.0
 40
9.0
 40
9.0
 40
9.0
 40
9.0
 10
3038.816073448872
 20
1292.897269573993
 10
3038.816073448872
 20
1293.841935198644
 10
3039.248014987752
 20
1294.772825911053
 10
3040.280596620341
 20
1294.772825911053
 72
     4
 94
        3
 73
     0
 74
     0
 95
        8
 96
        4
 40
7.0
 40
7.0
 40
7.0
 40
7.0
 40
8.0
 40
8.0
 40
8.0
 40
8.0
 10
3040.280596620341
 20
1294.772825911053
 10
3040.888019611031
 20
1294.772825911053
 10
3041.44142910291
 20
1294.441845380985
 10
3041.522449351092
 20
1293.793680490658
 97
        0
 92
        5
 93
        8
 72
     4
 94
        3
 73
     0
 74
     0
 95
       11
 96
        7
 40
0.5
 40
0.5
 40
0.5
 40
0.5
 40
1.5
 40
1.5
 40
1.5
 40
2.0
 40
2.0
 40
2.0
 40
2.0
 10
3043.634455716621
 20
1292.488033290189
 10
3043.634455716621
 20
1292.488033290189
 10
3043.634455716621
 20
1295.353350192151
 10
3043.634455716621
 20
1295.353350192151
 10
3043.634455716621
 20
1295.353350192151
 10
3043.4180330531
 20
1295.353350192151
 10
3043.20161038958
 20
1295.353350192151
 72
     4
 94
        3
 73
     0
 74
     0
 95
       11
 96
        7
 40
9.5
 40
9.5
 40
9.5
 40
9.5
 40
10.0
 40
10.0
 40
10.0
 40
10.5
 40
10.5
 40
10.5
 40
10.5
 10
3043.20161038958
 20
1295.353350192151
 10
3042.985187726052
 20
1295.353350192151
 10
3042.768765062541
 20
1295.353350192151
 10
3042.768765062541
 20
1295.353350192151
 10
3042.768765062541
 20
1295.353350192151
 10
3042.768765062541
 20
1294.566417893446
 10
3042.768765062541
 20
1293.779485594746
 72
     4
 94
        3
 73
     0
 74
     0
 95
       11
 96
        7
 40
8.0
 40
8.0
 40
8.0
 40
8.0
 40
8.5
 40
8.5
 40
8.5
 40
9.5
 40
9.5
 40
9.5
 40
9.5
 10
3042.768765062541
 20
1293.779485594746
 10
3042.768765062541
 20
1292.992553296045
 10
3042.768765062541
 20
1292.205620997343
 10
3042.768765062541
 20
1292.205620997343
 10
3042.768765062541
 20
1290.94517034298
 10
3043.579071669941
 20
1290.318384924924
 10
3044.797990415111
 20
1290.318384924924
 72
     4
 94
        3
 73
     0
 74
     0
 95
        8
 96
        4
 40
7.0
 40
7.0
 40
7.0
 40
7.0
 40
8.0
 40
8.0
 40
8.0
 40
8.0
 10
3044.797990415111
 20
1290.318384924924
 10
3046.016909160271
 20
1290.318384924924
 10
3046.827215767671
 20
1290.94517034298
 10
3046.827215767671
 20
1292.205620997343
 72
     4
 94
        3
 73
     0
 74
     0
 95
       11
 96
        7
 40
5.5
 40
5.5
 40
5.5
 40
5.5
 40
6.5
 40
6.5
 40
6.5
 40
7.0
 40
7.0
 40
7.0
 40
7.0
 10
3046.827215767671
 20
1292.205620997343
 10
3046.827215767671
 20
1292.205620997343
 10
3046.827215767671
 20
1295.353350192151
 10
3046.827215767671
 20
1295.353350192151
 10
3046.827215767671
 20
1295.353350192151
 10
3046.61078242873
 20
1295.353350192151
 10
3046.394349089802
 20
1295.353350192151
 72
     4
 94
        3
 73
     0
 74
     0
 95
       11
 96
        7
 40
4.5
 40
4.5
 40
4.5
 40
4.5
 40
5.0
 40
5.0
 40
5.0
 40
5.5
 40
5.5
 40
5.5
 40
5.5
 10
3046.394349089802
 20
1295.353350192151
 10
3046.177915750863
 20
1295.353350192151
 10
3045.961482411931
 20
1295.353350192151
 10
3045.961482411931
 20
1295.353350192151
 10
3045.961482411931
 20
1295.353350192151
 10
3045.961482411931
 20
1294.63702096666
 10
3045.961482411931
 20
1293.920691741168
 72
     4
 94
        3
 73
     0
 74
     0
 95
       11
 96
        7
 40
3.0
 40
3.0
 40
3.0
 40
3.0
 40
3.5
 40
3.5
 40
3.5
 40
4.5
 40
4.5
 40
4.5
 40
4.5
 10
3045.961482411931
 20
1293.920691741168
 10
3045.961482411931
 20
1293.204362515677
 10
3045.961482411931
 20
1292.488033290189
 10
3045.961482411931
 20
1292.488033290189
 10
3045.961482411931
 20
1291.826806312813
 10
3045.919933701511
 20
1291.062254657469
 10
3044.797990415111
 20
1291.062254657469
 72
     4
 94
        3
 73
     0
 74
     0
 95
        8
 96
        4
 40
2.0
 40
2.0
 40
2.0
 40
2.0
 40
3.0
 40
3.0
 40
3.0
 40
3.0
 10
3044.797990415111
 20
1291.062254657469
 10
3043.676004427041
 20
1291.062254657469
 10
3043.634455716621
 20
1291.826806312813
 10
3043.634455716621
 20
1292.488033290189
 97
        0
 92
        5
 93
        1
 72
     4
 94
        3
 73
     0
 74
     0
 95
       17
 96
       13
 40
0.0
 40
0.0
 40
0.0
 40
0.0
 40
1.0
 40
1.0
 40
1.0
 40
2.0
 40
2.0
 40
2.0
 40
3.0
 40
3.0
 40
3.0
 40
4.0
 40
4.0
 40
4.0
 40
4.0
 10
3052.976383506391
 20
1292.890706699649
 10
3052.976383506391
 20
1291.490910808767
 10
3052.101833234841
 20
1290.324438912204
 10
3050.639699765461
 20
1290.324438912204
 10
3049.177566296081
 20
1290.324438912204
 10
3048.303016024531
 20
1291.490910808767
 10
3048.303016024531
 20
1292.890706699649
 10
3048.303016024531
 20
1294.290481436957
 10
3049.177566296081
 20
1295.456974487097
 10
3050.639699765461
 20
1295.456974487097
 10
3052.101833234841
 20
1295.456974487097
 10
3052.976383506391
 20
1294.290481436957
 10
3052.976383506391
 20
1292.890706699649
 97
        0
 92
       20
 93
        4
 72
     4
 94
        3
 73
     0
 74
     0
 95
        8
 96
        4
 40
2.0
 40
2.0
 40
2.0
 40
2.0
 40
3.0
 40
3.0
 40
3.0
 40
3.0
 10
3050.639699765461
 20
1294.757087118447
 10
3051.685073801491
 20
1294.757087118447
 10
3052.122348937273
 20
1293.830750669173
 10
3052.122348937273
 20
1292.890706699649
 72
     4
 94
        3
 73
     0
 74
     0
 95
        8
 96
        4
 40
1.0
 40
1.0
 40
1.0
 40
1.0
 40
2.0
 40
2.0
 40
2.0
 40
2.0
 10
3052.122348937273
 20
1292.890706699649
 10
3052.122348937273
 20
1291.95064157655
 10
3051.685073801491
 20
1291.02432628086
 10
3050.639699765461
 20
1291.02432628086
 72
     4
 94
        3
 73
     0
 74
     0
 95
        8
 96
        4
 40
0.0
 40
0.0
 40
0.0
 40
0.0
 40
1.0
 40
1.0
 40
1.0
 40
1.0
 10
3050.639699765461
 20
1291.02432628086
 10
3049.594367856123
 20
1291.02432628086
 10
3049.157092720352
 20
1291.95064157655
 10
3049.157092720352
 20
1292.890706699649
 72
     4
 94
        3
 73
     0
 74
     0
 95
        8
 96
        4
 40
3.0
 40
3.0
 40
3.0
 40
3.0
 40
4.0
 40
4.0
 40
4.0
 40
4.0
 10
3049.157092720352
 20
1292.890706699649
 10
3049.157092720352
 20
1293.830750669173
 10
3049.594367856123
 20
1294.757087118447
 10
3050.639699765461
 20
1294.757087118447
 97
        0
 92
        5
 93
       31
 72
     4
 94
        3
 73
     0
 74
     0
 95
        8
 96
        4
 40
1.0
 40
1.0
 40
1.0
 40
1.0
 40
2.0
 40
2.0
 40
2.0
 40
2.0
 10
3057.157817570022
 20
1293.879700760789
 10
3057.157817570022
 20
1294.522606936276
 10
3056.89136790331
 20
1295.476154223056
 10
3055.497530729792
 20
1295.476154223056
 72
     4
 94
        3
 73
     0
 74
     0
 95
       11
 96
        7
 40
6.749964999999998
 40
6.749964999999998
 40
6.749964999999998
 40
6.749964999999998
 40
7.749964999999998
 40
7.749964999999998
 40
7.749964999999998
 40
8.0
 40
8.0
 40
8.0
 40
8.0
 10
3055.497530729792
 20
1295.476154223056
 10
3055.497530729792
 20
1295.476154223056
 10
3053.345333572031
 20
1295.476154223056
 10
3053.345333572031
 20
1295.476154223056
 10
3053.345333572031
 20
1295.476154223056
 10
3053.345333572031
 20
1295.153703374639
 10
3053.345333572031
 20
1294.67004967358
 72
     4
 94
        3
 73
     0
 74
     0
 95
        8
 96
        4
 40
6.499969999999998
 40
6.499969999999998
 40
6.499969999999998
 40
6.499969999999998
 40
6.749964999999998
 40
6.749964999999998
 40
6.749964999999998
 40
6.749964999999998
 10
3053.345333572031
 20
1294.67004967358
 10
3053.345333572031
 20
1294.186473346278
 10
3053.345333572031
 20
1293.541745739894
 10
3053.345333572031
 20
1292.897037474374
 72
     4
 94
        3
 73
     0
 74
     0
 95
        8
 96
        4
 40
6.3749725
 40
6.3749725
 40
6.3749725
 40
6.3749725
 40
6.499969999999998
 40
6.499969999999998
 40
6.499969999999998
 40
6.499969999999998
 10
3053.345333572031
 20
1292.897037474374
 10
3053.345333572031
 20
1292.574683341614
 10
3053.345333572031
 20
1292.252334044065
 10
3053.345333572031
 20
1291.950135909231
 72
     4
 94
        3
 73
     0
 74
     0
 95
        8
 96
        4
 40
6.249974999999997
 40
6.249974999999997
 40
6.249974999999997
 40
6.249974999999997
 40
6.374972499999997
 40
6.374972499999997
 40
6.374972499999997
 40
6.374972499999997
 10
3053.345333572031
 20
1291.950135909231
 10
3053.345333572031
 20
1291.647937774392
 10
3053.345333572031
 20
1291.36589080226
 10
3053.345333572031
 20
1291.124141320331
 72
     4
 94
        3
 73
     0
 74
     0
 95
        8
 96
        4
 40
6.187476249999998
 40
6.187476249999998
 40
6.187476249999998
 40
6.187476249999998
 40
6.249974999999999
 40
6.249974999999999
 40
6.249974999999999
 40
6.249974999999999
 10
3053.345333572031
 20
1291.124141320331
 10
3053.345333572031
 20
1291.003266579367
 10
3053.345333572031
 20
1290.892466210956
 10
3053.345333572031
 20
1290.794258506023
 72
     4
 94
        3
 73
     0
 74
     0
 95
        8
 96
        4
 40
6.124977499999999
 40
6.124977499999999
 40
6.124977499999999
 40
6.124977499999999
 40
6.187476249999998
 40
6.187476249999998
 40
6.187476249999998
 40
6.187476249999998
 10
3053.345333572031
 20
1290.794258506023
 10
3053.345333572031
 20
1290.696050801095
 10
3053.345333572031
 20
1290.610435759657
 10
3053.345333572031
 20
1290.539931672638
 72
     4
 94
        3
 73
     0
 74
     0
 95
        8
 96
        4
 40
6.093728125
 40
6.093728125
 40
6.093728125
 40
6.093728125
 40
6.124977499999999
 40
6.124977499999999
 40
6.124977499999999
 40
6.124977499999999
 10
3053.345333572031
 20
1290.539931672638
 10
3053.345333572031
 20
1290.504679629131
 10
3053.345333572031
 20
1290.473205324226
 10
3053.345333572031
 20
1290.445823544301
 72
     4
 94
        3
 73
     0
 74
     0
 95
        8
 96
        4
 40
6.06247875
 40
6.06247875
 40
6.06247875
 40
6.06247875
 40
6.093728125
 40
6.093728125
 40
6.093728125
 40
6.093728125
 10
3053.345333572031
 20
1290.445823544301
 10
3053.345333572031
 20
1290.418441764373
 10
3053.345333572031
 20
1290.395152509413
 10
3053.345333572031
 20
1290.376270565798
 72
     4
 94
        3
 73
     0
 74
     0
 95
        8
 96
        4
 40
6.046854062499998
 40
6.046854062499998
 40
6.046854062499998
 40
6.046854062499998
 40
6.062478749999998
 40
6.062478749999998
 40
6.062478749999998
 40
6.062478749999998
 10
3053.345333572031
 20
1290.376270565798
 10
3053.345333572031
 20
1290.366829593992
 10
3053.345333572031
 20
1290.358490450015
 10
3053.345333572031
 20
1290.351292482176
 72
     4
 94
        3
 73
     0
 74
     0
 95
        8
 96
        4
 40
6.031229375000001
 40
6.031229375000001
 40
6.031229375000001
 40
6.031229375000001
 40
6.046854062500001
 40
6.046854062500001
 40
6.046854062500001
 40
6.046854062500001
 10
3053.345333572031
 20
1290.351292482176
 10
3053.345333572031
 20
1290.344094514332
 10
3053.345333572031
 20
1290.33803772262
 10
3053.345333572031
 20
1290.333161455331
 72
     4
 94
        3
 73
     0
 74
     0
 95
       11
 96
        7
 40
5.999979147302425
 40
5.999979147302425
 40
5.999979147302425
 40
5.999979147302425
 40
6.0
 40
6.0
 40
6.0
 40
6.000468271484374
 40
6.000468271484374
 40
6.000468271484374
 40
6.000468271484374
 10
3053.345333573143
 20
1290.318384924924
 10
3053.345333572403
 20
1290.318384924924
 10
3053.345333572031
 20
1290.318384924924
 10
3053.345333572031
 20
1290.318384924924
 10
3053.345333572031
 20
1290.318384924924
 10
3053.345333572031
 20
1290.318386055915
 10
3053.345333572031
 20
1290.318388316824
 72
     4
 94
        3
 73
     0
 74
     0
 95
        8
 96
        4
 40
5.49999
 40
5.49999
 40
5.49999
 40
5.49999
 40
5.999979147302425
 40
5.999979147302425
 40
5.999979147302425
 40
5.999979147302425
 10
3053.345333573143
 20
1290.318384924924
 10
3053.34535138208
 20
1290.318384924924
 10
3053.558868825694
 20
1290.318384924924
 10
3053.77238199915
 20
1290.318384924924
 72
     4
 94
        3
 73
     0
 74
     0
 95
       11
 96
        7
 40
4.999511717945667
 40
4.999511717945667
 40
4.999511717945667
 40
4.999511717945667
 40
5.499501717945666
 40
5.499501717945666
 40
5.499501717945666
 40
5.499989999999998
 40
5.499989999999998
 40
5.499989999999998
 40
5.499989999999998
 10
3053.77238199915
 20
1290.318384924924
 10
3053.985895536731
 20
1290.318384924924
 10
3054.199404804122
 20
1290.318384924924
 10
3054.199404804122
 20
1290.318384924924
 10
3054.199404804122
 20
1290.318384924924
 10
3054.199404804122
 20
1290.318385396831
 10
3054.199404804122
 20
1290.318386340187
 72
     4
 94
        3
 73
     0
 74
     0
 95
        8
 96
        4
 40
4.937501249873328
 40
4.937501249873328
 40
4.937501249873328
 40
4.937501249873328
 40
4.9531259375
 40
4.9531259375
 40
4.9531259375
 40
4.9531259375
 10
3054.199404804122
 20
1290.331023946538
 10
3054.199404804122
 20
1290.33378731781
 10
3054.199404804122
 20
1290.336988600859
 10
3054.199404804122
 20
1290.340612695609
 72
     4
 94
        3
 73
     0
 74
     0
 95
        8
 96
        4
 40
4.906251875000001
 40
4.906251875000001
 40
4.906251875000001
 40
4.906251875000001
 40
4.93750124987333
 40
4.93750124987333
 40
4.93750124987333
 40
4.93750124987333
 10
3054.199404804122
 20
1290.340612695609
 10
3054.199404804122
 20
1290.347860885018
 10
3054.199404804122
 20
1290.35680032119
 10
3054.199404804122
 20
1290.367310203543
 72
     4
 94
        3
 73
     0
 74
     0
 95
        8
 96
        4
 40
4.875002499912453
 40
4.875002499912453
 40
4.875002499912453
 40
4.875002499912453
 40
4.906251875000001
 40
4.906251875000001
 40
4.906251875000001
 40
4.906251875000001
 10
3054.199404804122
 20
1290.367310203543
 10
3054.199404804122
 20
1290.37782008597
 10
3054.199404804122
 20
1290.389900414604
 10
3054.199404804122
 20
1290.403430388859
 72
     4
 94
        3
 73
     0
 74
     0
 95
        8
 96
        4
 40
4.812503749999999
 40
4.812503749999999
 40
4.812503749999999
 40
4.812503749999999
 40
4.875002499912453
 40
4.875002499912453
 40
4.875002499912453
 40
4.875002499912453
 10
3054.199404804122
 20
1290.403430388859
 10
3054.199404804122
 20
1290.430490337259
 10
3054.199404804122
 20
1290.463348868102
 10
3054.199404804122
 20
1290.501039576768
 72
     4
 94
        3
 73
     0
 74
     0
 95
        8
 96
        4
 40
4.750005000000001
 40
4.750005000000001
 40
4.750005000000001
 40
4.750005000000001
 40
4.812503749999999
 40
4.812503749999999
 40
4.812503749999999
 40
4.812503749999999
 10
3054.199404804122
 20
1290.501039576768
 10
3054.199404804122
 20
1290.538730285476
 10
3054.199404804122
 20
1290.581253172014
 10
3054.199404804122
 20
1290.627641831741
 72
     4
 94
        3
 73
     0
 74
     0
 95
        8
 96
        4
 40
4.625007500000001
 40
4.625007500000001
 40
4.625007500000001
 40
4.625007500000001
 40
4.750005000000002
 40
4.750005000000002
 40
4.750005000000002
 40
4.750005000000002
 10
3054.199404804122
 20
1290.627641831741
 10
3054.199404804122
 20
1290.720419151188
 10
3054.199404804122
 20
1290.828659563379
 10
3054.199404804122
 20
1290.944631831205
 72
     4
 94
        3
 73
     0
 74
     0
 95
        8
 96
        4
 40
4.500009999999996
 40
4.500009999999996
 40
4.500009999999996
 40
4.500009999999996
 40
4.625007499999997
 40
4.625007499999997
 40
4.625007499999997
 40
4.625007499999997
 10
3054.199404804122
 20
1290.944631831205
 10
3054.199404804122
 20
1291.060604099029
 10
3054.199404804122
 20
1291.184308222474
 10
3054.199404804122
 20
1291.308012964438
 72
     4
 94
        3
 73
     0
 74
     0
 95
        8
 96
        4
 40
4.250014999999999
 40
4.250014999999999
 40
4.250014999999999
 40
4.250014999999999
 40
4.500009999999996
 40
4.500009999999996
 40
4.500009999999996
 40
4.500009999999996
 10
3054.199404804122
 20
1291.308012964438
 10
3054.199404804122
 20
1291.555422448364
 10
3054.199404804122
 20
1291.80283440633
 10
3054.199404804122
 20
1291.988398941412
 72
     4
 94
        3
 73
     0
 74
     0
 95
       11
 96
        7
 40
3.999287592773436
 40
3.999287592773436
 40
3.999287592773436
 40
3.999287592773436
 40
4.249302592773437
 40
4.249302592773437
 40
4.249302592773437
 40
4.250014999999999
 40
4.250014999999999
 40
4.250014999999999
 40
4.250014999999999
 10
3054.199404804122
 20
1291.988398941412
 10
3054.199404804122
 20
1292.173978321951
 10
3054.199404804122
 20
1292.297700383416
 10
3054.199404804122
 20
1292.297700383416
 10
3054.199404804122
 20
1292.297700383416
 10
3054.199405462952
 20
1292.297700383416
 10
3054.199406779673
 20
1292.297700383416
 72
     4
 94
        3
 73
     0
 74
     0
 95
        8
 96
        4
 40
3.906271874999998
 40
3.906271874999998
 40
3.906271874999998
 40
3.906271874999998
 40
3.937521249747056
 40
3.937521249747056
 40
3.937521249747056
 40
3.937521249747056
 10
3054.213973670501
 20
1292.297700383416
 10
3054.218725945962
 20
1292.297700383416
 10
3054.224587469373
 20
1292.297700383416
 10
3054.23147901415
 20
1292.297700383416
 72
     4
 94
        3
 73
     0
 74
     0
 95
        8
 96
        4
 40
3.875022499912441
 40
3.875022499912441
 40
3.875022499912441
 40
3.875022499912441
 40
3.906271874999998
 40
3.906271874999998
 40
3.906271874999998
 40
3.906271874999998
 10
3054.23147901415
 20
1292.297700383416
 10
3054.238370559022
 20
1292.297700383416
 10
3054.246292125294
 20
1292.297700383416
 10
3054.255164486411
 20
1292.297700383416
 72
     4
 94
        3
 73
     0
 74
     0
 95
        8
 96
        4
 40
3.81252375
 40
3.81252375
 40
3.81252375
 40
3.81252375
 40
3.875022499912441
 40
3.875022499912441
 40
3.875022499912441
 40
3.875022499912441
 10
3054.255164486411
 20
1292.297700383416
 10
3054.272909208563
 20
1292.297700383416
 10
3054.294457110051
 20
1292.297700383416
 10
3054.319174378381
 20
1292.297700383416
 72
     4
 94
        3
 73
     0
 74
     0
 95
        8
 96
        4
 40
3.750024999999998
 40
3.750024999999998
 40
3.750024999999998
 40
3.750024999999998
 40
3.81252375
 40
3.81252375
 40
3.81252375
 40
3.81252375
 10
3054.319174378381
 20
1292.297700383416
 10
3054.343891646744
 20
1292.297700383416
 10
3054.371778281931
 20
1292.297700383416
 10
3054.402200471432
 20
1292.297700383416
 72
     4
 94
        3
 73
     0
 74
     0
 95
        8
 96
        4
 40
3.6250275
 40
3.6250275
 40
3.6250275
 40
3.6250275
 40
3.750024999999998
 40
3.750024999999998
 40
3.750024999999998
 40
3.750024999999998
 10
3054.402200471432
 20
1292.297700383416
 10
3054.463044850441
 20
1292.297700383416
 10
3054.534031446712
 20
1292.297700383416
 10
3054.610089760061
 20
1292.297700383416
 72
     4
 94
        3
 73
     0
 74
     0
 95
        8
 96
        4
 40
3.50003
 40
3.50003
 40
3.50003
 40
3.50003
 40
3.6250275
 40
3.6250275
 40
3.6250275
 40
3.6250275
 10
3054.610089760061
 20
1292.297700383416
 10
3054.686148073422
 20
1292.297700383416
 10
3054.767278103882
 20
1292.297700383416
 10
3054.848409351282
 20
1292.297700383416
 72
     4
 94
        3
 73
     0
 74
     0
 95
        8
 96
        4
 40
3.250035
 40
3.250035
 40
3.250035
 40
3.250035
 40
3.50003
 40
3.50003
 40
3.50003
 40
3.50003
 10
3054.848409351282
 20
1292.297700383416
 10
3055.010671846092
 20
1292.297700383416
 10
3055.172939208682
 20
1292.297700383416
 10
3055.29464743781
 20
1292.297700383416
 72
     4
 94
        3
 73
     0
 74
     0
 95
       11
 96
        7
 40
2.0
 40
2.0
 40
2.0
 40
2.0
 40
2.250035
 40
2.250035
 40
2.250035
 40
3.250035
 40
3.250035
 40
3.250035
 40
3.250035
 10
3055.29464743781
 20
1292.297700383416
 10
3055.416375140632
 20
1292.297700383416
 10
3055.497530729792
 20
1292.297700383416
 10
3055.497530729792
 20
1292.297700383416
 10
3056.89136790331
 20
1292.290462706078
 10
3057.157817570022
 20
1293.24400999286
 10
3057.157817570022
 20
1293.879700760789
 97
        0
 92
       20
 93
       11
 72
     4
 94
        3
 73
     0
 74
     0
 95
        8
 96
        4
 40
3.250015000000001
 40
3.250015000000001
 40
3.250015000000001
 40
3.250015000000001
 40
3.500009999937033
 40
3.500009999937033
 40
3.500009999937033
 40
3.500009999937033
 10
3054.831366540493
 20
1294.739336400403
 10
3054.989358554392
 20
1294.739336400403
 10
3055.147352148171
 20
1294.739336400403
 10
3055.265850898271
 20
1294.739336400403
 72
     4
 94
        3
 73
     0
 74
     0
 95
       11
 96
        7
 40
2.0
 40
2.0
 40
2.0
 40
2.0
 40
2.250015
 40
2.250015
 40
2.250015
 40
3.250015
 40
3.250015
 40
3.250015
 40
3.250015
 10
3055.265850898271
 20
1294.739336400403
 10
3055.384359128491
 20
1294.739336400403
 10
3055.463366195452
 20
1294.739336400403
 10
3055.463366195452
 20
1294.739336400403
 10
3055.914329623462
 20
1294.739336400403
 10
3056.303746337942
 20
1294.565943921191
 10
3056.303746337942
 20
1293.88691616835
 72
     4
 94
        3
 73
     0
 74
     0
 95
        8
 96
        4
 40
1.0
 40
1.0
 40
1.0
 40
1.0
 40
2.0
 40
2.0
 40
2.0
 40
2.0
 10
3056.303746337942
 20
1293.88691616835
 10
3056.303746337942
 20
1293.236794585298
 10
3055.832309465181
 20
1293.034518206072
 10
3055.449717232281
 20
1293.034518206072
 72
     4
 94
        3
 73
     0
 74
     0
 95
       11
 96
        7
 40
4.49999
 40
4.49999
 40
4.49999
 40
4.49999
 40
5.49999
 40
5.49999
 40
5.49999
 40
6.0
 40
6.0
 40
6.0
 40
6.0
 10
3055.449717232281
 20
1293.034518206072
 10
3055.449717232281
 20
1293.034518206072
 10
3054.199404804122
 20
1293.034518206072
 10
3054.199404804122
 20
1293.034518206072
 10
3054.199404804122
 20
1293.034518206072
 10
3054.199404804122
 20
1293.46073980301
 10
3054.199404804122
 20
1293.886952875511
 72
     4
 94
        3
 73
     0
 74
     0
 95
       11
 96
        7
 40
3.999267592773436
 40
3.999267592773436
 40
3.999267592773436
 40
3.999267592773436
 40
4.499257592773438
 40
4.499257592773438
 40
4.499257592773438
 40
4.49999
 40
4.49999
 40
4.49999
 40
4.49999
 10
3054.199404804122
 20
1293.886952875511
 10
3054.199404804122
 20
1294.313148899833
 10
3054.199404804122
 20
1294.739336400403
 10
3054.199404804122
 20
1294.739336400403
 10
3054.199404804122
 20
1294.739336400403
 10
3054.199405482141
 20
1294.739336400403
 10
3054.199406837173
 20
1294.739336400403
 72
     4
 94
        3
 73
     0
 74
     0
 95
        8
 96
        4
 40
3.906251875
 40
3.906251875
 40
3.906251875
 40
3.906251875
 40
3.937501249746713
 40
3.937501249746713
 40
3.937501249746713
 40
3.937501249746713
 10
3054.213599127694
 20
1294.739336400403
 10
3054.218227713553
 20
1294.739336400403
 10
3054.223936304432
 20
1294.739336400403
 10
3054.230647758854
 20
1294.739336400403
 72
     4
 94
        3
 73
     0
 74
     0
 95
        8
 96
        4
 40
3.8750025
 40
3.8750025
 40
3.8750025
 40
3.8750025
 40
3.906251875
 40
3.906251875
 40
3.906251875
 40
3.906251875
 10
3054.230647758854
 20
1294.739336400403
 10
3054.237359213301
 20
1294.739336400403
 10
3054.24507353133
 20
1294.739336400403
 10
3054.253713571492
 20
1294.739336400403
 72
     4
 94
        3
 73
     0
 74
     0
 95
        8
 96
        4
 40
3.812503749999999
 40
3.812503749999999
 40
3.812503749999999
 40
3.812503749999999
 40
3.8750025
 40
3.8750025
 40
3.8750025
 40
3.8750025
 10
3054.253713571492
 20
1294.739336400403
 10
3054.270993651782
 20
1294.739336400403
 10
3054.291976620532
 20
1294.739336400403
 10
3054.316045346122
 20
1294.739336400403
 72
     4
 94
        3
 73
     0
 74
     0
 95
        8
 96
        4
 40
3.750004999953268
 40
3.750004999953268
 40
3.750004999953268
 40
3.750004999953268
 40
3.812503749999999
 40
3.812503749999999
 40
3.812503749999999
 40
3.812503749999999
 10
3054.316045346122
 20
1294.739336400403
 10
3054.340114071731
 20
1294.739336400403
 10
3054.367268554182
 20
1294.739336400403
 10
3054.396891661851
 20
1294.739336400403
 72
     4
 94
        3
 73
     0
 74
     0
 95
        8
 96
        4
 40
3.625007499999998
 40
3.625007499999998
 40
3.625007499999998
 40
3.625007499999998
 40
3.750004999953268
 40
3.750004999953268
 40
3.750004999953268
 40
3.750004999953268
 10
3054.396891661851
 20
1294.739336400403
 10
3054.456137877121
 20
1294.739336400403
 10
3054.525258593243
 20
1294.739336400403
 10
3054.599316757301
 20
1294.739336400403
 72
     4
 94
        3
 73
     0
 74
     0
 95
        8
 96
        4
 40
3.500009999937033
 40
3.500009999937033
 40
3.500009999937033
 40
3.500009999937033
 40
3.625007499999998
 40
3.625007499999998
 40
3.625007499999998
 40
3.625007499999998
 10
3054.599316757301
 20
1294.739336400403
 10
3054.673374921422
 20
1294.739336400403
 10
3054.752370533472
 20
1294.739336400403
 10
3054.831366540493
 20
1294.739336400403
 97
        0
 92
        7
 72
     0
 73
     1
 93
        8
 10
3061.461495737592
 20
1295.476154223056
 10
3057.526767634143
 20
1295.476154223056
 10
3057.526767634143
 20
1294.695977145715
 10
3059.06527591333
 20
1294.695977145715
 10
3059.06527591333
 20
1290.318384924924
 10
3059.916187885601
 20
1290.318384924924
 10
3059.916187885601
 20
1294.695977145715
 10
3061.461495737592
 20
1294.695977145715
 97
        0
 92
        7
 72
     0
 73
     1
 93
        4
 10
3062.690410658122
 20
1295.476154223056
 10
3061.83017021486
 20
1295.476154223056
 10
3061.83017021486
 20
1290.318384924924
 10
3062.690410658122
 20
1290.318384924924
 97
        0
 92
        5
 93
        9
 72
     4
 94
        3
 73
     0
 74
     0
 95
       11
 96
        7
 40
8.0
 40
8.0
 40
8.0
 40
8.0
 40
8.5
 40
8.5
 40
8.5
 40
9.5
 40
9.5
 40
9.5
 40
9.5
 10
3067.048319398471
 20
1293.793680490658
 10
3067.262328856743
 20
1293.793680490658
 10
3067.476338315031
 20
1293.793680490658
 10
3067.476338315031
 20
1293.793680490658
 10
3067.373603640923
 20
1294.85556041478
 10
3066.503842515953
 20
1295.469266766944
 10
3065.40124991011
 20
1295.476154223056
 72
     4
 94
        3
 73
     0
 74
     0
 95
        8
 96
        4
 40
7.0
 40
7.0
 40
7.0
 40
7.0
 40
8.0
 40
8.0
 40
8.0
 40
8.0
 10
3065.40124991011
 20
1295.476154223056
 10
3063.935686791092
 20
1295.476154223056
 10
3063.059085132962
 20
1294.303926197999
 10
3063.059085132962
 20
1292.897269573993
 72
     4
 94
        3
 73
     0
 74
     0
 95
        8
 96
        4
 40
6.0
 40
6.0
 40
6.0
 40
6.0
 40
7.0
 40
7.0
 40
7.0
 40
7.0
 10
3063.059085132962
 20
1292.897269573993
 10
3063.059085132962
 20
1291.4905916924
 10
3063.935686791092
 20
1290.318384924924
 10
3065.40124991011
 20
1290.318384924924
 72
     4
 94
        3
 73
     0
 74
     0
 95
        8
 96
        4
 40
5.0
 40
5.0
 40
5.0
 40
5.0
 40
6.0
 40
6.0
 40
6.0
 40
6.0
 10
3065.40124991011
 20
1290.318384924924
 10
3066.586055590542
 20
1290.318384924924
 10
3067.414689065461
 20
1291.132040080284
 10
3067.483178848193
 20
1292.31115556146
 72
     4
 94
        3
 73
     0
 74
     0
 95
       11
 96
        7
 40
3.0
 40
3.0
 40
3.0
 40
3.0
 40
4.0
 40
4.0
 40
4.0
 40
5.0
 40
5.0
 40
5.0
 40
5.0
 10
3067.483178848193
 20
1292.31115556146
 10
3067.483178848193
 20
1292.31115556146
 10
3066.647662614592
 20
1292.31115556146
 10
3066.647662614592
 20
1292.31115556146
 10
3066.57921505738
 20
1291.594031079642
 10
3066.161435827809
 20
1291.021713236926
 10
3065.40124991011
 20
1291.021713236926
 72
     4
 94
        3
 73
     0
 74
     0
 95
        8
 96
        4
 40
2.0
 40
2.0
 40
2.0
 40
2.0
 40
3.0
 40
3.0
 40
3.0
 40
3.0
 10
3065.40124991011
 20
1291.021713236926
 10
3064.353466020662
 20
1291.021713236926
 10
3063.915165191582
 20
1291.952582691765
 10
3063.915165191582
 20
1292.897269573993
 72
     4
 94
        3
 73
     0
 74
     0
 95
        8
 96
        4
 40
1.0
 40
1.0
 40
1.0
 40
1.0
 40
2.0
 40
2.0
 40
2.0
 40
2.0
 10
3063.915165191582
 20
1292.897269573993
 10
3063.915165191582
 20
1293.841935198644
 10
3064.353466020662
 20
1294.772825911053
 10
3065.40124991011
 20
1294.772825911053
 72
     4
 94
        3
 73
     0
 74
     0
 95
        8
 96
        4
 40
0.0
 40
0.0
 40
0.0
 40
0.0
 40
1.0
 40
1.0
 40
1.0
 40
1.0
 10
3065.40124991011
 20
1294.772825911053
 10
3066.113509870103
 20
1294.772825911053
 10
3066.476480383282
 20
1294.359089619673
 10
3066.620300481913
 20
1293.793680490658
 72
     4
 94
        3
 73
     0
 74
     0
 95
        8
 96
        4
 40
9.5
 40
9.5
 40
9.5
 40
9.5
 40
10.0
 40
10.0
 40
10.0
 40
10.0
 10
3066.620300481913
 20
1293.793680490658
 10
3066.620300481913
 20
1293.793680490658
 10
3066.834309940194
 20
1293.793680490658
 10
3067.048319398471
 20
1293.793680490658
 97
        0
 92
        5
 93
       15
 72
     4
 94
        3
 73
     0
 74
     0
 95
        8
 96
        4
 40
13.0
 40
13.0
 40
13.0
 40
13.0
 40
14.0
 40
14.0
 40
14.0
 40
14.0
 10
3069.928347582132
 20
1290.318384924924
 10
3070.917831553032
 20
1290.318384924924
 10
3071.907272560782
 20
1290.75969229835
 10
3071.907272560782
 20
1291.862960731915
 72
     4
 94
        3
 73
     0
 74
     0
 95
        8
 96
        4
 40
12.0
 40
12.0
 40
12.0
 40
12.0
 40
13.0
 40
13.0
 40
13.0
 40
13.0
 10
3071.907272560782
 20
1291.862960731915
 10
3071.907272560782
 20
1292.373206439258
 10
3071.593727598811
 20
1292.924840656041
 10
3070.938711636822
 20
1293.117923260701
 72
     4
 94
        3
 73
     0
 74
     0
 95
        8
 96
        4
 40
11.0
 40
11.0
 40
11.0
 40
11.0
 40
12.0
 40
12.0
 40
12.0
 40
12.0
 10
3070.938711636822
 20
1293.117923260701
 10
3070.680889861411
 20
1293.193770308314
 10
3069.579959517352
 20
1293.476474872824
 10
3069.503313283843
 20
1293.497158498755
 72
     4
 94
        3
 73
     0
 74
     0
 95
        8
 96
        4
 40
10.0
 40
10.0
 40
10.0
 40
10.0
 40
11.0
 40
11.0
 40
11.0
 40
11.0
 10
3069.503313283843
 20
1293.497158498755
 10
3069.147922227981
 20
1293.593710429877
 10
3068.911023499502
 20
1293.786771776962
 10
3068.911023499502
 20
1294.131548476846
 72
     4
 94
        3
 73
     0
 74
     0
 95
        8
 96
        4
 40
9.0
 40
9.0
 40
9.0
 40
9.0
 40
10.0
 40
10.0
 40
10.0
 40
10.0
 10
3068.911023499502
 20
1294.131548476846
 10
3068.911023499502
 20
1294.628019271953
 10
3069.41966405926
 20
1294.772825911053
 10
3069.82381827376
 20
1294.772825911053
 72
     4
 94
        3
 73
     0
 74
     0
 95
        8
 96
        4
 40
8.0
 40
8.0
 40
8.0
 40
8.0
 40
9.0
 40
9.0
 40
9.0
 40
9.0
 10
3069.82381827376
 20
1294.772825911053
 10
3070.423068086011
 20
1294.772825911053
 10
3070.855105375382
 20
1294.538376054523
 10
3070.896908506102
 20
1293.904007334014
 72
     4
 94
        3
 73
     0
 74
     0
 95
       11
 96
        7
 40
6.0
 40
6.0
 40
6.0
 40
6.0
 40
7.0
 40
7.0
 40
7.0
 40
8.0
 40
8.0
 40
8.0
 40
8.0
 10
3070.896908506102
 20
1293.904007334014
 10
3070.896908506102
 20
1293.904007334014
 10
3071.767943112751
 20
1293.904007334014
 10
3071.767943112751
 20
1293.904007334014
 10
3071.767943112751
 20
1294.931407462386
 10
3070.896908506102
 20
1295.476154223056
 10
3069.858661376553
 20
1295.476154223056
 72
     4
 94
        3
 73
     0
 74
     0
 95
        8
 96
        4
 40
5.0
 40
5.0
 40
5.0
 40
5.0
 40
6.0
 40
6.0
 40
6.0
 40
6.0
 10
3069.858661376553
 20
1295.476154223056
 10
3068.959786658163
 20
1295.476154223056
 10
3068.039988892862
 20
1295.014163223699
 10
3068.039988892862
 20
1294.028109089607
 72
     4
 94
        3
 73
     0
 74
     0
 95
        8
 96
        4
 40
4.0
 40
4.0
 40
4.0
 40
4.0
 40
5.0
 40
5.0
 40
5.0
 40
5.0
 10
3068.039988892862
 20
1294.028109089607
 10
3068.039988892862
 20
1293.517863382266
 10
3068.290850640322
 20
1293.007596417345
 10
3069.140962200061
 20
1292.780055274514
 72
     4
 94
        3
 73
     0
 74
     0
 95
        8
 96
        4
 40
3.0
 40
3.0
 40
3.0
 40
3.0
 40
4.0
 40
4.0
 40
4.0
 40
4.0
 10
3069.140962200061
 20
1292.780055274514
 10
3069.82381827376
 20
1292.593860125973
 10
3070.276735646912
 20
1292.504216908545
 10
3070.625166674832
 20
1292.373206439258
 72
     4
 94
        3
 73
     0
 74
     0
 95
        8
 96
        4
 40
2.0
 40
2.0
 40
2.0
 40
2.0
 40
3.0
 40
3.0
 40
3.0
 40
3.0
 10
3070.625166674832
 20
1292.373206439258
 10
3070.827222300522
 20
1292.297359391647
 10
3071.03628091726
 20
1292.145665296425
 10
3071.03628091726
 20
1291.766408800795
 72
     4
 94
        3
 73
     0
 74
     0
 95
        8
 96
        4
 40
1.0
 40
1.0
 40
1.0
 40
1.0
 40
2.0
 40
2.0
 40
2.0
 40
2.0
 10
3071.03628091726
 20
1291.766408800795
 10
3071.03628091726
 20
1291.394061018861
 10
3070.750576067012
 20
1291.021713236926
 10
3069.98411373186
 20
1291.021713236926
 72
     4
 94
        3
 73
     0
 74
     0
 95
        8
 96
        4
 40
0.0
 40
0.0
 40
0.0
 40
0.0
 40
1.0
 40
1.0
 40
1.0
 40
1.0
 10
3069.98411373186
 20
1291.021713236926
 10
3069.28729463916
 20
1291.021713236926
 10
3068.72288792968
 20
1291.318213971252
 10
3068.72288792968
 20
1292.076705704935
 72
     4
 94
        3
 73
     0
 74
     0
 95
        8
 96
        4
 40
15.5
 40
15.5
 40
15.5
 40
15.5
 40
16.0
 40
16.0
 40
16.0
 40
16.0
 10
3068.72288792968
 20
1292.076705704935
 10
3068.72288792968
 20
1292.076705704935
 10
3068.505129278023
 20
1292.076705704935
 10
3068.28737062636
 20
1292.076705704935
 72
     4
 94
        3
 73
     0
 74
     0
 95
       11
 96
        7
 40
14.0
 40
14.0
 40
14.0
 40
14.0
 40
14.5
 40
14.5
 40
14.5
 40
15.5
 40
15.5
 40
15.5
 40
15.5
 10
3068.28737062636
 20
1292.076705704935
 10
3068.069611974703
 20
1292.076705704935
 10
3067.851853323033
 20
1292.076705704935
 10
3067.851853323033
 20
1292.076705704935
 10
3067.872776369972
 20
1290.856222971894
 10
3068.792531172132
 20
1290.318384924924
 10
3069.928347582132
 20
1290.318384924924
 97
        0
 75
     1
 76
     1
 47
0.0244899890509677
 98
       14
 10
3029.378584267793
 20
1296.278970990271
 10
3029.378584267793
 20
1296.278970990271
 10
3029.378584267793
 20
1296.278970990271
 10
3029.378584267793
 20
1296.278970990271
 10
3040.301920794893
 20
1294.996674838363
 10
3043.504153435462
 20
1294.226219166703
 10
3050.649870599593
 20
1295.204105512377
 10
3050.649870599593
 20
1295.204105512377
 10
3055.097415762681
 20
1295.204105512377
 10
3055.097415762681
 20
1295.204105512377
 10
3059.900763184212
 20
1295.144840052534
 10
3062.391385150611
 20
1294.552182324968
 10
3065.71221957021
 20
1295.055940298205
 10
3069.388856248243
 20
1290.788805285557
1001
GRADIENTCOLOR1ACI
1070
     5
1001
GRADIENTCOLOR2ACI
1070
     2
1001
ACAD
1010
0.0
1020
0.0
1030
0.0
  0
MTEXT
  5
71C
330
1F
100
AcDbEntity
  8
6文字层
100
AcDbMText
 10
3062.048344703442
 20
1272.45799427318
 30
0.0
 40
2.5
 41
17.84855769230755
 71
     5
 72
     5
  1
{\fSimHei|b1|i0|c134|p49;270644}
1001
ACDBBLOCKREPETAG
1000

1001
ACAD
1000
ACAD_MTEXT_DEFINED_HEIGHT_BEGIN
1070
    46
1040
4.283653846153733
1000
ACAD_MTEXT_DEFINED_HEIGHT_END
  0
MTEXT
  5
71D
330
1F
100
AcDbEntity
  8
6文字层
100
AcDbMText
 10
3089.682985777092
 20
1280.604090859632
 30
0.0
 40
2.5
 41
71.44564321082993
 71
     5
 72
     5
  1
{\fSimHei|b1|i0|c134|p49;K9偏心平凹球面反射镜 金膜^J25.00X20.00mm F=75.00mm}
1001
ACDBBLOCKREPETAG
1000

1001
ACAD
1000
ACAD_MTEXT_DEFINED_HEIGHT_BEGIN
1070
    46
1040
4.283653846153733
1000
ACAD_MTEXT_DEFINED_HEIGHT_END
  0
LINE
  5
71E
330
1F
100
AcDbEntity
  8
6文字层
 62
     0
100
AcDbLine
 10
2991.089699404762
 20
1269.468653814248
 30
0.0
 11
2871.089699404702
 21
1269.468653814246
 31
0.0
  0
MTEXT
  5
71F
102
{ACAD_XDICTIONARY
360
720
102
}
330
1F
100
AcDbEntity
  8
6文字层
100
AcDbMText
 10
2865.13229940199
 20
1330.332840595301
 30
0.0
 40
2.5
 41
114.6703060300538
 71
     1
 72
     5
  1
{\fSimSun|b1|i0|c134|p49;\C1;注：}\P{\fSimSun|b1|i0|c134|p49;\C1;1：本图仅供参考,禁止使用本图加工生产.}\P{\fSimSun|b1|i0|c134|p49;\C1;2：图纸细节如有更改不再另行通知.}
  7
标准
1001
ACAD
1000
ACAD_MTEXT_COLUMN_INFO_BEGIN
1070
    75
1070
     2
1070
    79
1070
     0
1070
    76
1070
     1
1070
    78
1070
     0
1070
    48
1040
114.6703060300538
1070
    49
1040
1.0
1070
    50
1070
     1
1040
-12.28937728937729
1000
ACAD_MTEXT_COLUMN_INFO_END
  0
INSERT
  5
721
330
1F
100
AcDbEntity
  8
2细线层
100
AcDbBlockReference
  2
*T25
 10
2854.089698674903
 20
1301.135320227243
 30
0.0
  0
MTEXT
  5
722
330
1F
100
AcDbEntity
  8
6文字层
100
AcDbMText
 10
2870.213717572919
 20
1423.219775345453
 30
0.0
 40
2.5
 41
73.0012707428877
 71
     1
 72
     1
  3
{\fSimSun|b1|i0|c134|p34;\W1;注释：\fSimSun|b1|i0|c0|p34; \P1.\fSimSun|b1|i0|c134|p34;材料：精退火\fSimSun|b1|i0|c0|p34;K9\fSimSun|b1|i0|c134|p34;光学玻璃\fSimSun|b1|i0|c0|p34; Nd=1.5168                                                \P2.\fSimSun|b1
  3
|i0|c134|p34;表面面型：\fSimSun|b1|i0|c0|p34;\U+03BB/4 @ 633 nm            \P3.\fSimSun|b1|i0|c134|p34;焦距：75\fSimSun|b1|i0|c0|p34;.00\U+00B12%mm \P4.\fSimSun|b1|i0|c134|p34;镀膜：镀金+保护    \P\fSimSun|b1|i0|c0|p34;5.\fSimSun|b1|i0|c134|p34;倒边
  1
：\fSimSun|b1|i0|c0|p34;0.2~0.5mmX45\U+00B0}
  7
TH-GBD2M
1001
ACAD
1000
ACAD_MTEXT_DEFINED_HEIGHT_BEGIN
1070
    46
1040
26.01190476190477
1000
ACAD_MTEXT_DEFINED_HEIGHT_END
  0
ENDSEC
  0
SECTION
  2
OBJECTS
  0
DICTIONARY
  5
C
330
0
100
AcDbDictionary
  3
ACAD_ASSOCNETWORK
350
3B1
  3
ACAD_CIP_PREVIOUS_PRODUCT_INFO
350
216
  3
ACAD_COLOR
350
6B
  3
ACAD_DETAILVIEWSTYLE
350
21B
  3
ACAD_GROUP
350
D
  3
ACAD_LAYOUT
350
1A
  3
ACAD_MATERIAL
350
6A
  3
ACAD_MLEADERSTYLE
350
12D
  3
ACAD_MLINESTYLE
350
17
  3
ACAD_PLOTSETTINGS
350
19
  3
ACAD_RENDER_ACTIVE_RAPIDRT
350
5C4
  3
ACAD_RENDER_RAPIDRT_SETTINGS
350
5BD
  3
ACAD_SCALELIST
350
10C
  3
ACAD_SECTIONVIEWSTYLE
350
219
  3
ACAD_VISUALSTYLE
350
EF
  3
ACDB_RECOMPOSE_DATA
350
952
  3
ACDBHEADERROUNDTRIPXREC
350
915
  3
ACDBVARIABLEDICTIONARY
350
5E
  3
DWGPROPS
350
93A
  0
DICTIONARY
  5
94C
330
8
100
AcDbDictionary
280
     1
  3
ACAD_XREC_ROUNDTRIP
360
94D
  0
DICTIONARY
  5
1FF
330
2
100
AcDbDictionary
280
     1
  3
ACAD_LAYERSTATES
360
200
  0
DICTIONARY
  5
1CE
330
1F
100
AcDbDictionary
280
     1
  3
ACAD_ASSOCNETWORK
360
4C1
  0
DICTIONARY
  5
93B
330
415
100
AcDbDictionary
280
     1
  3
ACAD_XREC_ROUNDTRIP
360
93C
  0
DICTIONARY
  5
93D
330
416
100
AcDbDictionary
280
     1
  3
ACAD_XREC_ROUNDTRIP
360
93E
  0
DICTIONARY
  5
93F
330
41A
100
AcDbDictionary
280
     1
  3
ACAD_XREC_ROUNDTRIP
360
940
  0
DICTIONARY
  5
941
330
41D
100
AcDbDictionary
280
     1
  3
ACAD_XREC_ROUNDTRIP
360
942
  0
DICTIONARY
  5
943
330
41E
100
AcDbDictionary
280
     1
  3
ACAD_XREC_ROUNDTRIP
360
944
  0
DICTIONARY
  5
945
330
421
100
AcDbDictionary
280
     1
  3
ACAD_XREC_ROUNDTRIP
360
946
  0
DICTIONARY
  5
947
330
424
100
AcDbDictionary
280
     1
  3
ACAD_XREC_ROUNDTRIP
360
948
  0
DICTIONARY
  5
949
330
519
100
AcDbDictionary
280
     1
  3
ACAD_XREC_ROUNDTRIP
360
94A
  0
DICTIONARY
  5
720
330
71F
100
AcDbDictionary
280
     1
  3
ACAD_MTEXT_RT
360
94B
  0
DICTIONARY
  5
3B1
102
{ACAD_REACTORS
330
C
102
}
330
C
100
AcDbDictionary
  3
ACAD_ASSOCNETWORK
350
3B2
  0
XRECORD
  5
216
102
{ACAD_REACTORS
330
C
102
}
330
C
100
AcDbXrecord
300
ACD
300
2021
300

  0
DICTIONARY
  5
6B
102
{ACAD_REACTORS
330
C
102
}
330
C
100
AcDbDictionary
  0
DICTIONARY
  5
21B
102
{ACAD_REACTORS
330
C
102
}
330
C
100
AcDbDictionary
  3
METRIC50
350
21C
  0
DICTIONARY
  5
D
102
{ACAD_REACTORS
330
C
102
}
330
C
100
AcDbDictionary
  0
DICTIONARY
  5
1A
102
{ACAD_REACTORS
330
C
102
}
330
C
100
AcDbDictionary
  0
DICTIONARY
  5
6A
102
{ACAD_REACTORS
330
C
102
}
330
C
100
AcDbDictionary
  3
BYBLOCK
350
ED
  3
BYLAYER
350
EC
  3
GLOBAL
350
EE
  0
DICTIONARY
  5
12D
102
{ACAD_REACTORS
330
C
102
}
330
C
100
AcDbDictionary
  3
ANNOTATIVE
350
13B
  3
STANDARD
350
12E
  0
DICTIONARY
  5
17
102
{ACAD_REACTORS
330
C
102
}
330
C
100
AcDbDictionary
  3
STANDARD
350
18
  0
DICTIONARY
  5
19
102
{ACAD_REACTORS
330
C
102
}
330
C
100
AcDbDictionary
  0
ACAD_PROXY_OBJECT
  5
5C4
102
{ACAD_REACTORS
330
C
102
}
330
C
100
AcDbProxyObject
 90
      499
 91
      524
 93
      375
310
40902D6D0B911D3A6D3C3203520B8F6E4D6C8BEBCB6B1F090390540501408000000000000084000000000000002102
  0
DICTIONARY
  5
5BD
102
{ACAD_REACTORS
330
C
102
}
330
C
100
AcDbDictionary
  3
茶歇质量
350
5C1
  3
低
350
5BE
  3
高
350
5C0
  3
午餐质量
350
5C2
  3
夜间质量
350
5C3
  3
中
350
5BF
  0
DICTIONARY
  5
10C
102
{ACAD_REACTORS
330
C
102
}
330
C
100
AcDbDictionary
  3
A0
350
10D
  3
A1
350
1BE
  3
A2
350
1BF
  3
A3
350
1C0
  3
A4
350
1C1
  3
A5
350
1C2
  3
A6
350
1C3
  3
A7
350
1C4
  3
A8
350
1C5
  3
A9
350
1C6
  3
B0
350
1C7
  3
B1
350
1C8
  3
B2
350
1C9
  3
B3
350
1CA
  3
B4
350
1CB
  3
B5
350
1CC
  3
B6
350
1CD
  0
DICTIONARY
  5
219
102
{ACAD_REACTORS
330
C
102
}
330
C
100
AcDbDictionary
  3
METRIC50
350
21A
  0
DICTIONARY
  5
EF
102
{ACAD_REACTORS
330
C
102
}
330
C
100
AcDbDictionary
  3
2DWIREFRAME
350
F5
  3
BASIC
350
F4
  3
BRIGHTEN
350
FB
  3
COLORCHANGE
350
FF
  3
CONCEPTUAL
350
F8
  3
DIM
350
FA
  3
EDGECOLOROFF
350
1E6
  3
FACEPATTERN
350
FE
  3
FLAT
350
F0
  3
FLATWITHEDGES
350
F1
  3
GOURAUD
350
F2
  3
GOURAUDWITHEDGES
350
F3
  3
HIDDEN
350
F7
  3
JITTEROFF
350
1E4
  3
LINEPATTERN
350
FD
  3
OVERHANGOFF
350
1E5
  3
REALISTIC
350
F9
  3
SHADED
350
1F3
  3
SHADED_WITH_EDGES
350
1F2
  3
SHADES_OF_GRAY
350
1EF
  3
SKETCHY
350
1F0
  3
THICKEN
350
FC
  3
WIREFRAME
350
F6
  3
X-RAY
350
1F1
  0
XRECORD
  5
952
102
{ACAD_REACTORS
330
C
102
}
330
C
100
AcDbXrecord
 90
        1
330
71F
  0
DICTIONARY
  5
915
102
{ACAD_REACTORS
330
C
102
}
330
C
100
AcDbDictionary
  3
CEPSNID
350
91F
  3
CEPSNTYPE
350
91E
  3
COLORDICT
350
938
  3
DIMSTYLEDATA
350
935
  3
FINGERPRINTGUID
350
920
  3
HYPERLINKBASE
350
918
  3
INSUNITS
350
91D
  3
LAYOUTDICT
350
91A
  3
LWETCUNION
350
91C
  3
MATERIALDICT
350
939
  3
PLOTSETDICT
350
91B
  3
PSVPSCALE
350
922
  3
PUCSBASE
350
925
  3
PUCSORGBACK
350
92B
  3
PUCSORGBOTTOM
350
927
  3
PUCSORGFRONT
350
92A
  3
PUCSORGLEFT
350
928
  3
PUCSORGRIGHT
350
929
  3
PUCSORGTOP
350
926
  3
PUCSORTHOREF
350
923
  3
PUCSORTHOVIEW
350
924
  3
STYLESHEET
350
919
  3
TSTACKALIGN
350
916
  3
TSTACKSIZE
350
917
  3
UCSBASE
350
92E
  3
UCSORGBACK
350
934
  3
UCSORGBOTTOM
350
930
  3
UCSORGFRONT
350
933
  3
UCSORGLEFT
350
931
  3
UCSORGRIGHT
350
932
  3
UCSORGTOP
350
92F
  3
UCSORTHOREF
350
92C
  3
UCSORTHOVIEW
350
92D
  3
VERSIONGUID
350
921
  0
DICTIONARY
  5
5E
102
{ACAD_REACTORS
330
C
102
}
330
C
100
AcDbDictionary
  3
CANNOSCALE
350
146
  3
CENTEREXE
350
259
  3
CENTERLTYPEFILE
350
25A
  3
CMLEADERSTYLE
350
145
  3
CTABLESTYLE
350
84
  3
CVIEWDETAILSTYLE
350
227
  3
CVIEWSECTIONSTYLE
350
228
  3
DIMASSOC
350
5F
  3
HIDETEXT
350
63
  3
LAYEREVAL
350
1AE
  3
LAYERNOTIFY
350
1AF
  3
MSLTSCALE
350
94E
  3
PSOLHEIGHT
350
937
  3
PSOLWIDTH
350
936
  0
XRECORD
  5
93A
102
{ACAD_REACTORS
330
C
102
}
330
C
100
AcDbXrecord
  1
DWGPROPS COOKIE
  2

  3

  4

  6

  7

  8
MSI
  9

300
=
301
=
302
=
303
=
304
=
305
=
306
=
307
=
308
=
309
=
 40
0.0
 41
2460229.289814815
 42
2460669.129095
  1

 90
        0
  0
XRECORD
  5
94D
102
{ACAD_REACTORS
330
94C
102
}
330
94C
100
AcDbXrecord
102
VTR_0.000_0.000_1.000_1.000_VISUALSTYLE
340
F5
102
VTR_0.000_0.000_1.000_1.000_GRIDDISPLAY
 70
     3
102
VTR_0.000_0.000_1.000_1.000_GRIDMAJOR
 70
     5
102
VTR_0.000_0.000_1.000_1.000_DEFAULTLIGHTING
280
     1
102
VTR_0.000_0.000_1.000_1.000_DEFAULTLIGHTINGTYPE
 70
     1
102
VTR_0.000_0.000_1.000_1.000_BRIGHTNESS
141
0.0
102
VTR_0.000_0.000_1.000_1.000_CONTRAST
142
0.0
  0
DICTIONARY
  5
200
102
{ACAD_REACTORS
330
1FF
102
}
330
1FF
100
AcDbDictionary
  0
DICTIONARY
  5
4C1
102
{ACAD_REACTORS
330
1CE
102
}
330
1CE
100
AcDbDictionary
  3
ACAD_ASSOCNETWORK
350
4C2
  0
XRECORD
  5
93C
102
{ACAD_REACTORS
330
93B
102
}
330
93B
100
AcDbXrecord
102
ISDYNAMIC
 70
     1
  0
XRECORD
  5
93E
102
{ACAD_REACTORS
330
93D
102
}
330
93D
100
AcDbXrecord
102
ISDYNAMIC
 70
     1
  0
XRECORD
  5
940
102
{ACAD_REACTORS
330
93F
102
}
330
93F
100
AcDbXrecord
102
ISDYNAMIC
 70
     1
  0
XRECORD
  5
942
102
{ACAD_REACTORS
330
941
102
}
330
941
100
AcDbXrecord
102
ISDYNAMIC
 70
     1
  0
XRECORD
  5
944
102
{ACAD_REACTORS
330
943
102
}
330
943
100
AcDbXrecord
102
ISDYNAMIC
 70
     1
  0
XRECORD
  5
946
102
{ACAD_REACTORS
330
945
102
}
330
945
100
AcDbXrecord
102
ISDYNAMIC
 70
     1
  0
XRECORD
  5
948
102
{ACAD_REACTORS
330
947
102
}
330
947
100
AcDbXrecord
102
ISDYNAMIC
 70
     1
  0
XRECORD
  5
94A
102
{ACAD_REACTORS
330
949
102
}
330
949
100
AcDbXrecord
102
ISDYNAMIC
 70
     1
  0
XRECORD
  5
94B
102
{ACAD_REACTORS
330
720
102
}
330
720
100
AcDbXrecord
 40
116758.0
  1
\pxqj;{\fSimSun|b1|i0|c134|p49;\C1;注：\P1：本图仅供参考,禁止使用本图加工生产.\P2：图纸细节如有更改不再另行通知.}
  0
ACAD_PROXY_OBJECT
  5
3B2
102
{ACAD_REACTORS
330
3B1
102
}
330
3B1
100
AcDbProxyObject
 90
      499
 91
      528
 93
       52
310
40AAAAA40D0140
330
0
360
0
330
4C2
 94
        0
1001
ACAD
1000
AcadProxyRoundTripData
1071
      523
1071
 11403297
1070
     0
  0
ACAD_PROXY_OBJECT
  5
21C
102
{ACAD_REACTORS
330
21B
102
}
330
21B
100
AcDbProxyObject
 90
      499
 91
      516
 93
      877
310
9084D65747269633530481E0000000000000A20500E0000000000000A20233E0000000000000A20400000000000017202029B929E2E20B1AB30B9102B34B2BBA232BA30B4B624B21F129014129E2E20B1AB30B9102B34B2BBA9B1B0B632902E33101112B9B7111F1294A33A33800
340
11
340
0
340
16
340
11
340
16
340
16
 94
        0
  0
MATERIAL
  5
ED
102
{ACAD_REACTORS
330
6A
102
}
102
{ACAD_XDICTIONARY
360
1F9
102
}
330
6A
100
AcDbMaterial
  1
BYBLOCK
 73
     2
 78
     2
172
     2
176
     2
270
     2
274
     2
  0
MATERIAL
  5
EC
102
{ACAD_REACTORS
330
6A
102
}
102
{ACAD_XDICTIONARY
360
1F7
102
}
330
6A
100
AcDbMaterial
  1
BYLAYER
 73
     2
 78
     2
172
     2
176
     2
270
     2
274
     2
  0
MATERIAL
  5
EE
102
{ACAD_REACTORS
330
6A
102
}
102
{ACAD_XDICTIONARY
360
173
102
}
330
6A
100
AcDbMaterial
  1
GLOBAL
 73
     2
 43
0.0007999999797903
 43
0.0
 43
0.0
 43
0.0
 43
0.0
 43
0.0007999999797903
 43
0.0
 43
0.0
 43
0.0
 43
0.0
 43
1.0
 43
0.0
 43
0.0
 43
0.0
 43
0.0
 43
1.0
 78
     2
172
     2
 49
0.0007999999797903
 49
0.0
 49
0.0
 49
0.0
 49
0.0
 49
0.0007999999797903
 49
0.0
 49
0.0
 49
0.0
 49
0.0
 49
1.0
 49
0.0
 49
0.0
 49
0.0
 49
0.0
 49
1.0
176
     2
142
0.0007999999797903
142
0.0
142
0.0
142
0.0
142
0.0
142
0.0007999999797903
142
0.0
142
0.0
142
0.0
142
0.0
142
1.0
142
0.0
142
0.0
142
0.0
142
0.0
142
1.0
270
     2
144
0.0007999999797903
144
0.0
144
0.0
144
0.0
144
0.0
144
0.0007999999797903
144
0.0
144
0.0
144
0.0
144
0.0
144
1.0
144
0.0
144
0.0
144
0.0
144
0.0
144
1.0
274
     2
1001
ACAD
1070
    -1
1070
     3
1070
     0
1000

1071
        0
1070
     0
  0
ACAD_PROXY_OBJECT
  5
13B
102
{ACAD_REACTORS
330
12D
102
}
330
12D
100
AcDbProxyObject
 90
      499
 91
      508
 93
      610
310
40901902A4063FBFFFFFE0000000000000020400000000000020404214DD185B99185C990000000000000104090140501A00000000000004100000000000000041025766000000000000039000
340
14
340
0
340
11
340
0
 94
        0
1001
ACAD_MLEADERVER
1070
     2
  0
ACAD_PROXY_OBJECT
  5
12E
102
{ACAD_REACTORS
330
12D
102
}
330
12D
100
AcDbProxyObject
 90
      499
 91
      508
 93
      610
310
40901902A4063FBFFFFFE0000000000000020400000000000020404214DD185B99185C990000000000000104090140501A00000000000004100000000000000041025764000000000000039000
340
14
340
0
340
11
340
0
 94
        0
1001
ACAD_MLEADERVER
1070
     2
  0
MLINESTYLE
  5
18
102
{ACAD_REACTORS
330
17
102
}
330
17
100
AcDbMlineStyle
  2
STANDARD
 70
     0
  3

 62
   256
 51
90.0
 52
90.0
 71
     2
 49
0.5
 62
   256
  6
BYLAYER
 49
-0.5
 62
   256
  6
BYLAYER
  0
ACAD_PROXY_OBJECT
  5
5C1
102
{ACAD_REACTORS
330
5BD
102
}
330
5BD
100
AcDbProxyObject
 90
      499
 91
      524
 93
      399
310
40908B2E8D0AAD6CAC1BFB90CE4D6C8BE20313020B7D6D6D340D034050142901408000000000000084000000000000002102
  0
ACAD_PROXY_OBJECT
  5
5BE
102
{ACAD_REACTORS
330
5BD
102
}
330
5BD
100
AcDbProxyObject
 90
      499
 91
      524
 93
      367
310
40902B5CDB911D3A6D3C3203120B8F6E4D6C8BEBCB6B1F0903901406408000000000000084000000000000002102
  0
ACAD_PROXY_OBJECT
  5
5C0
102
{ACAD_REACTORS
330
5BD
102
}
330
5BD
100
AcDbProxyObject
 90
      499
 91
      524
 93
      391
310
40902B8DFB912D3A6D3C320313020B8F6E4D6C8BEBCB6B1F04090390A40502408000000000000084000000000000002102
  0
ACAD_PROXY_OBJECT
  5
5C2
102
{ACAD_REACTORS
330
5BD
102
}
330
5BD
100
AcDbProxyObject
 90
      499
 91
      524
 93
      399
310
40908CEE7B2CDD6CAC1BFB90CE4D6C8BE20363020B7D6D6D341103405014F102408000000000000084000000000000002102
  0
ACAD_PROXY_OBJECT
  5
5C3
102
{ACAD_REACTORS
330
5BD
102
}
330
5BD
100
AcDbProxyObject
 90
      499
 91
      524
 93
      423
310
40908D2B9BCE4D6CAC1BFB90CE4D6C8BE20313220D0A1CAB1415034050134008000102408000000000000084000000000000002102
  0
ACAD_PROXY_OBJECT
  5
5BF
102
{ACAD_REACTORS
330
5BD
102
}
330
5BD
100
AcDbProxyObject
 90
      499
 91
      524
 93
      383
310
40902D6D0B911D3A6D3C3203520B8F6E4D6C8BEBCB6B1F04050390540501408000000000000084000000000000002102
  0
ACAD_PROXY_OBJECT
  5
10D
102
{ACAD_REACTORS
330
10C
102
}
330
10C
100
AcDbProxyObject
 90
      499
 91
      507
 93
       41
310
903313A31580
  0
ACAD_PROXY_OBJECT
  5
1BE
102
{ACAD_REACTORS
330
10C
102
}
330
10C
100
AcDbProxyObject
 90
      499
 91
      507
 93
      105
310
903313A324000000000000004000
  0
ACAD_PROXY_OBJECT
  5
1BF
102
{ACAD_REACTORS
330
10C
102
}
330
10C
100
AcDbProxyObject
 90
      499
 91
      507
 93
      105
310
903313A344000000000000104000
  0
ACAD_PROXY_OBJECT
  5
1C0
102
{ACAD_REACTORS
330
10C
102
}
330
10C
100
AcDbProxyObject
 90
      499
 91
      507
 93
      105
310
903313A354000000000000144000
  0
ACAD_PROXY_OBJECT
  5
1C1
102
{ACAD_REACTORS
330
10C
102
}
330
10C
100
AcDbProxyObject
 90
      499
 91
      507
 93
      105
310
903313A384000000000000204000
  0
ACAD_PROXY_OBJECT
  5
1C2
102
{ACAD_REACTORS
330
10C
102
}
330
10C
100
AcDbProxyObject
 90
      499
 91
      507
 93
      113
310
904313A31304000000000000244000
  0
ACAD_PROXY_OBJECT
  5
1C3
102
{ACAD_REACTORS
330
10C
102
}
330
10C
100
AcDbProxyObject
 90
      499
 91
      507
 93
      113
310
904313A31364000000000000304000
  0
ACAD_PROXY_OBJECT
  5
1C4
102
{ACAD_REACTORS
330
10C
102
}
330
10C
100
AcDbProxyObject
 90
      499
 91
      507
 93
      113
310
904313A32304000000000000344000
  0
ACAD_PROXY_OBJECT
  5
1C5
102
{ACAD_REACTORS
330
10C
102
}
330
10C
100
AcDbProxyObject
 90
      499
 91
      507
 93
      113
310
904313A333040000000000003E4000
  0
ACAD_PROXY_OBJECT
  5
1C6
102
{ACAD_REACTORS
330
10C
102
}
330
10C
100
AcDbProxyObject
 90
      499
 91
      507
 93
      113
310
904313A34304000000000000444000
  0
ACAD_PROXY_OBJECT
  5
1C7
102
{ACAD_REACTORS
330
10C
102
}
330
10C
100
AcDbProxyObject
 90
      499
 91
      507
 93
      113
310
904313A35304000000000000494000
  0
ACAD_PROXY_OBJECT
  5
1C8
102
{ACAD_REACTORS
330
10C
102
}
330
10C
100
AcDbProxyObject
 90
      499
 91
      507
 93
      121
310
905313A3130304000000000000594000
  0
ACAD_PROXY_OBJECT
  5
1C9
102
{ACAD_REACTORS
330
10C
102
}
330
10C
100
AcDbProxyObject
 90
      499
 91
      507
 93
      105
310
903323A310000000000000010100
  0
ACAD_PROXY_OBJECT
  5
1CA
102
{ACAD_REACTORS
330
10C
102
}
330
10C
100
AcDbProxyObject
 90
      499
 91
      507
 93
      105
310
903343A310000000000000410100
  0
ACAD_PROXY_OBJECT
  5
1CB
102
{ACAD_REACTORS
330
10C
102
}
330
10C
100
AcDbProxyObject
 90
      499
 91
      507
 93
      105
310
903383A310000000000000810100
  0
ACAD_PROXY_OBJECT
  5
1CC
102
{ACAD_REACTORS
330
10C
102
}
330
10C
100
AcDbProxyObject
 90
      499
 91
      507
 93
      113
310
90431303A310000000000000910100
  0
ACAD_PROXY_OBJECT
  5
1CD
102
{ACAD_REACTORS
330
10C
102
}
330
10C
100
AcDbProxyObject
 90
      499
 91
      507
 93
      121
310
9053130303A310000000000001650100
  0
ACAD_PROXY_OBJECT
  5
21A
102
{ACAD_REACTORS
330
219
102
}
330
219
100
AcDbProxyObject
 90
      499
 91
      515
 93
     2015
310
9084D657472696335304B360000000000000A2060000000000000A202209258409E5840A25840A65840B05840B40000000000001220233A65800000000000028800000000000000A2060000000000000A2040000000000001720202AC929E2E20B1AB30B9102B34B2BBA9B2B1BA34B7B729BA30B93A24B21F1296929E2E20B
310
1AB30B9102B34B2BBA9B2B1BA34B7B722B73224B21F129014129E2E20B1AB30B9102B34B2BBA9B1B0B632902E33101112B9B7111F1294E0080A0C829CA6926662C400000000000002204000000000000022020D0305A88A9F643F27E32B9969C2960E81F87FA0718D4DE3E87E32B9969C2960E85F9E5129FC49EA5FA7E
340
11
340
0
340
0
340
16
340
16
340
11
 94
        0
  0
ACAD_PROXY_OBJECT
  5
F5
102
{ACAD_REACTORS
330
EF
102
}
330
EF
100
AcDbProxyObject
 90
      499
 91
      506
 93
      444
310
42CC9915DA5C99599C985B59504902404333333333333E33F0000000000000F90107901411070040501600405405064090741402480A0340
1001
ACAD
1000
AcDbSavedByObjectVersion
1070
     0
  0
ACAD_PROXY_OBJECT
  5
F4
102
{ACAD_REACTORS
330
EF
102
}
330
EF
100
AcDbProxyObject
 90
      499
 91
      506
 93
      388
310
4150985CDA58D07406404333333333333E33F0000000000000F90107A41107004050150841D405064090741402480A0350
1001
ACAD
1000
AcDbSavedByObjectVersion
1070
     0
  0
ACAD_PROXY_OBJECT
  5
FB
102
{ACAD_REACTORS
330
EF
102
}
330
EF
100
AcDbProxyObject
 90
      499
 91
      506
 93
      436
310
42109C9A59DA1D195B90C40902404333333333333E33F0000000000000F9010790141107004050150841D405064090741402480A029950
1001
ACAD
1000
AcDbSavedByObjectVersion
1070
     0
  0
ACAD_PROXY_OBJECT
  5
FF
102
{ACAD_REACTORS
330
EF
102
}
330
EF
100
AcDbProxyObject
 90
      499
 91
      506
 93
      452
310
42D0DBDB1BDC90DA185B99D95104090240C333333333333E33F0000000000000F90108901411070040501508421405064090741402480A0350
1001
ACAD
1000
AcDbSavedByObjectVersion
1070
     0
  0
ACAD_PROXY_OBJECT
  5
F8
102
{ACAD_REACTORS
330
EF
102
}
330
EF
100
AcDbProxyObject
 90
      499
 91
      506
 93
      508
310
4290DBDB98D95C1D1D585B10940D02404333333333333E33F0000000000000F90107902409070040501000000000000111010841D405064090740C02480A0340
1001
ACAD
1000
AcDbSavedByObjectVersion
1070
     0
  0
ACAD_PROXY_OBJECT
  5
FA
102
{ACAD_REACTORS
330
EF
102
}
330
EF
100
AcDbProxyObject
 90
      499
 91
      506
 93
      420
310
40D11A5B50B40902404333333333333E33F0000000000000F9010790141107004050150841D405064090741402480A02677FFFFFD0
1001
ACAD
1000
AcDbSavedByObjectVersion
1070
     0
  0
ACAD_PROXY_OBJECT
  5
1E6
102
{ACAD_REACTORS
330
EF
102
}
330
EF
100
AcDbProxyObject
 90
      499
 91
      506
 93
      452
310
43115919D950DBDB1BDC93D999916409028333333333333E33F0000000000000F9010790141107004050150841D405064090741402480A0350
1001
ACAD
1000
AcDbSavedByObjectVersion
1070
     0
  0
ACAD_PROXY_OBJECT
  5
FE
102
{ACAD_REACTORS
330
EF
102
}
330
EF
100
AcDbProxyObject
 90
      499
 91
      506
 93
      452
310
42D19858D95C185D1D195C9B90F40902404333333333333E33F0000000000000F9010790141107004050150841D405064090741402480A0350
1001
ACAD
1000
AcDbSavedByObjectVersion
1070
     0
  0
ACAD_PROXY_OBJECT
  5
F0
102
{ACAD_REACTORS
330
EF
102
}
330
EF
100
AcDbProxyObject
 90
      499
 91
      506
 93
      380
310
41119B185D240901404333333333333E33F0000000000000F9010740A907004050150841D405064090741402480A1B50
1001
ACAD
1000
AcDbSavedByObjectVersion
1070
     0
  0
ACAD_PROXY_OBJECT
  5
F1
102
{ACAD_REACTORS
330
EF
102
}
330
EF
100
AcDbProxyObject
 90
      499
 91
      506
 93
      468
310
43519B185D15DA5D1A115919D95CD0140901404333333333333E33F0000000000000F90107409019070040501600405405064090741402480A1B50
1001
ACAD
1000
AcDbSavedByObjectVersion
1070
     0
  0
ACAD_PROXY_OBJECT
  5
F2
102
{ACAD_REACTORS
330
EF
102
}
330
EF
100
AcDbProxyObject
 90
      499
 91
      506
 93
      404
310
41D1DBDD5C985D5910240902404333333333333E33F0000000000000F9010740A9070040501641D405064090741402480A1B50
1001
ACAD
1000
AcDbSavedByObjectVersion
1070
     0
  0
ACAD_PROXY_OBJECT
  5
F3
102
{ACAD_REACTORS
330
EF
102
}
330
EF
100
AcDbProxyObject
 90
      499
 91
      506
 93
      492
310
4411DBDD5C985D5915DA5D1A115919D95CD0340902404333333333333E33F0000000000000F90107409019070040501600405405064090741402480A1B50
1001
ACAD
1000
AcDbSavedByObjectVersion
1070
     0
  0
ACAD_PROXY_OBJECT
  5
F7
102
{ACAD_REACTORS
330
EF
102
}
330
EF
100
AcDbProxyObject
 90
      499
 91
      506
 93
      476
310
41921A5919195B90640502408333333333333E33F0000000000000F901079024090700405020000000000001110200405405064090740C02480A0340
1001
ACAD
1000
AcDbSavedByObjectVersion
1070
     0
  0
ACAD_PROXY_OBJECT
  5
1E4
102
{ACAD_REACTORS
330
EF
102
}
330
EF
100
AcDbProxyObject
 90
      499
 91
      506
 93
      428
310
42529A5D1D195C93D999914409028333333333333E33F0000000000000F9010790141107004050150A41D405064090741402480A0350
1001
ACAD
1000
AcDbSavedByObjectVersion
1070
     0
  0
ACAD_PROXY_OBJECT
  5
FD
102
{ACAD_REACTORS
330
EF
102
}
330
EF
100
AcDbProxyObject
 90
      499
 91
      506
 93
      452
310
42D31A5B995C185D1D195C9B90E40902404333333333333E33F0000000000000F9010790141107004050750841D405064090741402483A0350
1001
ACAD
1000
AcDbSavedByObjectVersion
1070
     0
  0
ACAD_PROXY_OBJECT
  5
1E5
102
{ACAD_REACTORS
330
EF
102
}
330
EF
100
AcDbProxyObject
 90
      499
 91
      506
 93
      444
310
42D3DD995C9A185B99D3D999915409028333333333333E33F0000000000000F9010790141107004050150941D405064090741402480A0350
1001
ACAD
1000
AcDbSavedByObjectVersion
1070
     0
  0
ACAD_PROXY_OBJECT
  5
F9
102
{ACAD_REACTORS
330
EF
102
}
330
EF
100
AcDbProxyObject
 90
      499
 91
      506
 93
      428
310
425499585B1A5CDD1A58D08409038333333333333E33F0000000000000F9010740A907004050150800405405064090740C02480A1B40
1001
ACAD
1000
AcDbSavedByObjectVersion
1070
     0
  0
ACAD_PROXY_OBJECT
  5
1F3
102
{ACAD_REACTORS
330
EF
102
}
330
EF
100
AcDbProxyObject
 90
      499
 91
      506
 93
      420
310
4194DA1859195911B40902404333333333333E33F0000000000000F9010740A41107004050150800405405064090840C02480A0B40
1001
ACAD
1000
AcDbSavedByObjectVersion
1070
     0
  0
ACAD_PROXY_OBJECT
  5
1F2
102
{ACAD_REACTORS
330
EF
102
}
330
EF
100
AcDbProxyObject
 90
      499
 91
      506
 93
      516
310
4454DA18591959081DDA5D1A08195919D95CD1A40902404333333333333E33F0000000000000F901074090140907004050250800405405064090740C02480A0B40
1001
ACAD
1000
AcDbSavedByObjectVersion
1070
     0
  0
ACAD_PROXY_OBJECT
  5
1EF
102
{ACAD_REACTORS
330
EF
102
}
330
EF
100
AcDbProxyObject
 90
      499
 91
      506
 93
      532
310
4394DA1859195CC81BD98811DC985E5174090240C333333333333E33F0000000000000F901079024090741D01000000000000111010841D405064090740C02480A0340
1001
ACAD
1000
AcDbSavedByObjectVersion
1070
     0
  0
ACAD_PROXY_OBJECT
  5
1F0
102
{ACAD_REACTORS
330
EF
102
}
330
EF
100
AcDbProxyObject
 90
      499
 91
      506
 93
      476
310
41D4DAD95D18DA1E51840502408333333333333E33F0000000000000F901079024090741D01000000000000111010B41D405064090741802480A0340
1001
ACAD
1000
AcDbSavedByObjectVersion
1070
     0
  0
ACAD_PROXY_OBJECT
  5
FC
102
{ACAD_REACTORS
330
EF
102
}
330
EF
100
AcDbProxyObject
 90
      499
 91
      506
 93
      420
310
41D51A1A58DAD95B90D40902404333333333333E33F0000000000000F9010790141107004050150C41D405064090741402480A0350
1001
ACAD
1000
AcDbSavedByObjectVersion
1070
     0
  0
ACAD_PROXY_OBJECT
  5
F6
102
{ACAD_REACTORS
330
EF
102
}
330
EF
100
AcDbProxyObject
 90
      499
 91
      506
 93
      420
310
4255DA5C99599C985B595059028333333333333E33F0000000000000F90107901411070040501600405405064090740C02480A0340
1001
ACAD
1000
AcDbSavedByObjectVersion
1070
     0
  0
ACAD_PROXY_OBJECT
  5
1F1
102
{ACAD_REACTORS
330
EF
102
}
330
EF
100
AcDbProxyObject
 90
      499
 91
      506
 93
      404
310
41560B54985E51940902404000000000000E03F0000000000000F9010740501907004050150841D405064090740C02480A1B40
1001
ACAD
1000
AcDbSavedByObjectVersion
1070
     0
  0
XRECORD
  5
91F
102
{ACAD_REACTORS
330
915
102
}
330
915
100
AcDbXrecord
340
0
  0
XRECORD
  5
91E
102
{ACAD_REACTORS
330
915
102
}
330
915
100
AcDbXrecord
 90
        0
  0
XRECORD
  5
938
102
{ACAD_REACTORS
330
915
102
}
330
915
100
AcDbXrecord
340
6B
  0
XRECORD
  5
935
102
{ACAD_REACTORS
330
915
102
}
330
915
100
AcDbXrecord
1000
DSTYLE
1002
{
1070
   340
340
11
1002
}
  0
XRECORD
  5
920
102
{ACAD_REACTORS
330
915
102
}
330
915
100
AcDbXrecord
  1
{1C311A22-AF92-1D4B-B820-4E39BFD82193}
  0
XRECORD
  5
918
102
{ACAD_REACTORS
330
915
102
}
330
915
100
AcDbXrecord
  1

  0
XRECORD
  5
91D
102
{ACAD_REACTORS
330
915
102
}
330
915
100
AcDbXrecord
 90
        4
  0
XRECORD
  5
91A
102
{ACAD_REACTORS
330
915
102
}
330
915
100
AcDbXrecord
340
1A
  0
XRECORD
  5
91C
102
{ACAD_REACTORS
330
915
102
}
330
915
100
AcDbXrecord
 90
    10781
  0
XRECORD
  5
939
102
{ACAD_REACTORS
330
915
102
}
330
915
100
AcDbXrecord
340
6A
  0
XRECORD
  5
91B
102
{ACAD_REACTORS
330
915
102
}
330
915
100
AcDbXrecord
340
19
  0
XRECORD
  5
922
102
{ACAD_REACTORS
330
915
102
}
330
915
100
AcDbXrecord
 40
0.0
  0
XRECORD
  5
925
102
{ACAD_REACTORS
330
915
102
}
330
915
100
AcDbXrecord
340
0
  0
XRECORD
  5
92B
102
{ACAD_REACTORS
330
915
102
}
330
915
100
AcDbXrecord
 10
0.0
 20
0.0
 30
0.0
  0
XRECORD
  5
927
102
{ACAD_REACTORS
330
915
102
}
330
915
100
AcDbXrecord
 10
0.0
 20
0.0
 30
0.0
  0
XRECORD
  5
92A
102
{ACAD_REACTORS
330
915
102
}
330
915
100
AcDbXrecord
 10
0.0
 20
0.0
 30
0.0
  0
XRECORD
  5
928
102
{ACAD_REACTORS
330
915
102
}
330
915
100
AcDbXrecord
 10
0.0
 20
0.0
 30
0.0
  0
XRECORD
  5
929
102
{ACAD_REACTORS
330
915
102
}
330
915
100
AcDbXrecord
 10
0.0
 20
0.0
 30
0.0
  0
XRECORD
  5
926
102
{ACAD_REACTORS
330
915
102
}
330
915
100
AcDbXrecord
 10
0.0
 20
0.0
 30
0.0
  0
XRECORD
  5
923
102
{ACAD_REACTORS
330
915
102
}
330
915
100
AcDbXrecord
340
0
  0
XRECORD
  5
924
102
{ACAD_REACTORS
330
915
102
}
330
915
100
AcDbXrecord
 70
     0
  0
XRECORD
  5
919
102
{ACAD_REACTORS
330
915
102
}
330
915
100
AcDbXrecord
  1

  0
XRECORD
  5
916
102
{ACAD_REACTORS
330
915
102
}
330
915
100
AcDbXrecord
 90
        1
  0
XRECORD
  5
917
102
{ACAD_REACTORS
330
915
102
}
330
915
100
AcDbXrecord
 90
       70
  0
XRECORD
  5
92E
102
{ACAD_REACTORS
330
915
102
}
330
915
100
AcDbXrecord
340
0
  0
XRECORD
  5
934
102
{ACAD_REACTORS
330
915
102
}
330
915
100
AcDbXrecord
 10
0.0
 20
0.0
 30
0.0
  0
XRECORD
  5
930
102
{ACAD_REACTORS
330
915
102
}
330
915
100
AcDbXrecord
 10
0.0
 20
0.0
 30
0.0
  0
XRECORD
  5
933
102
{ACAD_REACTORS
330
915
102
}
330
915
100
AcDbXrecord
 10
0.0
 20
0.0
 30
0.0
  0
XRECORD
  5
931
102
{ACAD_REACTORS
330
915
102
}
330
915
100
AcDbXrecord
 10
0.0
 20
0.0
 30
0.0
  0
XRECORD
  5
932
102
{ACAD_REACTORS
330
915
102
}
330
915
100
AcDbXrecord
 10
0.0
 20
0.0
 30
0.0
  0
XRECORD
  5
92F
102
{ACAD_REACTORS
330
915
102
}
330
915
100
AcDbXrecord
 10
0.0
 20
0.0
 30
0.0
  0
XRECORD
  5
92C
102
{ACAD_REACTORS
330
915
102
}
330
915
100
AcDbXrecord
340
0
  0
XRECORD
  5
92D
102
{ACAD_REACTORS
330
915
102
}
330
915
100
AcDbXrecord
 70
     0
  0
XRECORD
  5
921
102
{ACAD_REACTORS
330
915
102
}
330
915
100
AcDbXrecord
  1
{DBA6F029-1DE2-094F-A6F0-75494E0638E6}
  0
DICTIONARYVAR
  5
146
102
{ACAD_REACTORS
330
5E
102
}
330
5E
100
DictionaryVariables
280
     0
  1
1:1
  0
DICTIONARYVAR
  5
259
102
{ACAD_REACTORS
330
5E
102
}
330
5E
100
DictionaryVariables
280
     0
  1
3.500000
  0
DICTIONARYVAR
  5
25A
102
{ACAD_REACTORS
330
5E
102
}
330
5E
100
DictionaryVariables
280
     0
  1
acadiso.lin
  0
DICTIONARYVAR
  5
145
102
{ACAD_REACTORS
330
5E
102
}
330
5E
100
DictionaryVariables
280
     0
  1
Standard
  0
DICTIONARYVAR
  5
84
102
{ACAD_REACTORS
330
5E
102
}
330
5E
100
DictionaryVariables
280
     0
  1
Standard
  0
DICTIONARYVAR
  5
227
102
{ACAD_REACTORS
330
5E
102
}
330
5E
100
DictionaryVariables
280
     0
  1
Metric50
  0
DICTIONARYVAR
  5
228
102
{ACAD_REACTORS
330
5E
102
}
330
5E
100
DictionaryVariables
280
     0
  1
Metric50
  0
DICTIONARYVAR
  5
5F
102
{ACAD_REACTORS
330
5E
102
}
330
5E
100
DictionaryVariables
280
     0
  1
2
  0
DICTIONARYVAR
  5
63
102
{ACAD_REACTORS
330
5E
102
}
330
5E
100
DictionaryVariables
280
     0
  1
1
  0
DICTIONARYVAR
  5
1AE
102
{ACAD_REACTORS
330
5E
102
}
330
5E
100
DictionaryVariables
280
     0
  1
0
  0
DICTIONARYVAR
  5
1AF
102
{ACAD_REACTORS
330
5E
102
}
330
5E
100
DictionaryVariables
280
     0
  1
0
  0
DICTIONARYVAR
  5
94E
102
{ACAD_REACTORS
330
5E
102
}
330
5E
100
DictionaryVariables
280
     0
  1
1
  0
DICTIONARYVAR
  5
937
102
{ACAD_REACTORS
330
5E
102
}
330
5E
100
DictionaryVariables
280
     0
  1
80.000000
  0
DICTIONARYVAR
  5
936
102
{ACAD_REACTORS
330
5E
102
}
330
5E
100
DictionaryVariables
280
     0
  1
5.000000
  0
ACAD_PROXY_OBJECT
  5
4C2
102
{ACAD_REACTORS
330
4C1
102
}
330
4C1
100
AcDbProxyObject
 90
      499
 91
      528
 93
       68
310
40A40AAAA49509FFC0
330
3B2
360
0
360
429
360
452
360
453
360
454
360
455
360
456
360
457
360
458
360
51B
 94
        0
1001
ACAD
1000
AcadProxyRoundTripData
1071
      523
1071
 11403297
1070
     0
  0
DICTIONARY
  5
1F9
330
ED
100
AcDbDictionary
280
     1
  3
ACAD_XREC_ROUNDTRIP
360
94F
  3
FBXASSET
360
1FA
  0
DICTIONARY
  5
1F7
330
EC
100
AcDbDictionary
280
     1
  3
ACAD_XREC_ROUNDTRIP
360
950
  3
FBXASSET
360
1F8
  0
DICTIONARY
  5
173
330
EE
100
AcDbDictionary
280
     1
  3
ACAD_XREC_ROUNDTRIP
360
951
  3
FBXASSET
360
1FB
  0
ACAD_PROXY_OBJECT
  5
429
330
4C2
100
AcDbProxyObject
 90
      499
 91
      528
 93
    26047
310
40A40963AA9021B02F3AB82FC9468042D74C28CD3F49A04D4C8F92C0200014435842028690243881A1E409102068890444882A28405152048B10345C8123040D192088D10546C8227C40544204A29035188128E40D4820CA4907528842964094C206A690253881A9E40950212A890A54885AA642D54216AA90B558812AE40D
310
58218AC90256881AB64315C21AAE9015D8812EE40D78204BC9035E8822F64197C202C910264C81B2840995206CB10265C81B3043199204CD10366C863384359D20CCF1086B48135C40DAF204D81036C481364425B3214DA10171C8139040DC9204E510372C83398405CD204E710373C813A040DD120AE910174C813A840DD5
310
204EB10375C82BB0405D9204ED10376C813B840DDD20CEF10177C813C040DE1204F110378C833C8435E8210F49027A881BD6409EC206F69027B884BDE429F0208FD1017EC813F840DFD204FF1037FC8300002000042C010100002160100800010B00C04000080808020000408050100002060300800010201C040000818100
310
2000043409010000204098080001030500400008602A020000408160100002060B80800010C0600400008683202000042C1A0100004350643D114514A56D5C018E0485FFB19C368403616F82708DE589026838002098265F3FA01B0B7C13846F2C481034BD0B3CA45700806BADF04E11BCB12048720487AAA03001FFFFFFFE
310
86A1E8121C86805A2081222AA00C027FFFFFFFA1A88A048821A0168940154D22880A1A0128922A8322E8CA36A52B0AC80C70242FFD8CE1B4201B0B7C1384732CA81341C00104C132F9FD00D75BE09C2399654081A5E859E522B804035D6F82708E6595024590245D5601800FFFFFFFF455174091645402D184091954C06013
310
FFFFFFFD15465024611500B46A00A100CE8C080000E502691B405150094693E802AA6511055194852414010000054040000061C00104C132F9FD004085827F31E86240A0000000000003C2FE0E0008260997CFE806BADF04E11CCB2A0438002098265F3FA01B0B7C13846F2C48128A8128CAB00C007FFFFFFFA88A3204A2A8
310
8016A3A04A42AA03009FFFFFFFEA22908128EA2005A9280A880129F2948122A86804A968329AA7AA2A902E0200000C00800000C1C40100C136BC2201B0B7C1384612C88152D0000000000180C4810305A88A9F6423281034BD0B3CA45700806BADF04E11CCB2A040D2F42CF2915C0201AEB7C13846F2C4812988129AA980C0
310
07FFFFFFFA96A6A04A6296016A7204A7AA803009FFFFFFFEA5A9E8129CA5805AA080AA203019FFFFFFFEA5AA2812A0A5805AA480A9601200A9A048C298012AA204A7220012AAA04A3A1C012AB204A2A2C012ABA06AC2B2AE80C047FFFFFFFA2AAC204ABA2A016ACA04ABA2A016AD206ADAB8AE80C047FFFFFFFA1AADA04AD2
310
1A016AE204AD21A016AEA04ABAB40120332EC82AF0BD2F8CDB3803051BF55342400F880780C3CEC68A42C2050000000000001E17F028DFAA9A12007C4008318D04EDAA975020A37EAA684801F100BA5FCEAC4FE45A409774097806804000006003FFFFFFFD765E1025DD7600B5E5025E80201000001804FFFFFFFF5D97A409
310
795D802D7B8020000360FB6B5DD0FC80C2F044A6033840A65F1015D80257B649056519666199678060A37EAA684901F500F01879D8D1485840A0000000000003C2FE051BF55342480FA8010631A09DB552EA04146FD54D09203EA01014443B8BACAB68132680B2803001FFFFFFFEC932881326C9005B2A8132C0080800000C
310
027FFFFFFFB24CB204CAB24016CBA06CC332CE80C047FFFFFFFB24CC204CBB24016CCA04CBB24016CD206CDB38CE80C047FFFFFFFAECCDA04CD2EC016CE204CD2EC016CEA04CBB3401202D33C80B240129F35A8235ED8B66DA00C1A5C769A25483EA003DFD69FF1254898152D0000000000180C4810305A88A9F6423281051
310
BF55342480FA80405110EE2EB2ADA04146FD54D09003E20174BF9D589FC8B48135C8135E0080800000C007FFFFFFFB5AD7A04D735A016D8204D880602000003009FFFFFFFED6B6281360D6805B6480B6603019FFFFFFFED6B6681364D6805B6880B5A01200E3A06E4B96E600C782FCE3FAECD3E2002170C4B053ECCA814000
310
000000000785FC3C17E71FD7669F10010B8625829F665408F05F9C7F5D9A7C40241FE7D4B9B2961027210172406003FFFFFFFDC772502721C700B7290172C06013FFFFFFFDC772D02729C700B7310171C0253E7350373DD1748062010015A9AFE9ED00D85BE09C237962409A100800AD4D7F4F6806C2DF04E11BCB12044020
310
02B5359D3EA01B0B7C13846F2C48139C80B9E03001FFFFFFFEE6B9E8139CE6805BA080BA203009FFFFFFFEE6BA2813A0E6805BA480B9A012893A681BAAEBBB003100800AD4D7F4F6806C2DF04E11CCB2A04D08040056A6BFA7B403616F82708E6595022010015A9ACE9F500D85BE09C239965409D4405D501800FFFFFFFF74
310
DD5409D474C02DD6405D701804FFFFFFFF74DD7409D674C02DD8405D3009449D940DDB775DE0188040056A6BFA7B402002817FD8A417D0298402002B535FD3DA01B0B7C13846F2C481100800AD4D7F4F6806C2DF04E11CCB2A04ED202ED80C007FFFFFFFBB2EDA04ED3B2016EE204EEBD003009FFFFFFFEECBBA813B8EC805
310
BBC80BB20129F3BE81BC2F1BC803100800AD4D674FA806C2DF04E11CCB2A050000000000001E17F08040056A6B3A7D403616F82708E6595022010015A9ACE9F500D85BE09C237962409E0409E17A006003FFFFFFFDDF78502781DF00B7890178C06013FFFFFFFDDF78D02789DF00B7910177C0253E7A102771E00090100000
310
00000003C2FE9E9411EB7B5EF7C0060A37EAA684A41F50058FF5035D52A44C0A9680000000000C062408182D4454FB211940858DFAA9A12207F402697F3AB13F9169020A37EAA684801F100BA5FCEAC4FE45A409EA405EB01800FFFFFFFF7A5EB409EA7A402DEC411ED0080400000301000002404000006013FFFFFFFDE97B
310
5027B1E900B7B9017BC06033FFFFFFFDE97BD027B9E900B7C1017A402401FA8021016FD22CF139110080C2FAE3004927C0A67ED037F5FF000040000060A37EAA684A41F500B05E1E00275D5E40A0000000000003C2FE051BF55342520FA80582F0F0013AEAF204146FD54D09483EA00418F8BCD32BAB0813F880BFA03001FF
310
FFFFFEFDBFA813F8FD805BFC80BFE03009FFFFFFFEFDBFE813FCFD80580002000080BF6012FD0020200008135CCA804804020000813D8BC80480602000081360F60048080200008100C0200000400800000C280319E8532330A00418C68276D54BA81340A37EAA684801F10020C63413B6AA5D40828DFAA9A12407D4008318
310
D04EDAA97502014040001030180400000901000006804000006003FFFFFFFC04010000018040001020140400000401000000B01C0400010102004000006013FFFFFFFC040100000200400010201C0400000401000000B02404000102014040001EC00901981301000040C140100000540400001901000001808FFFFFFFF510
310
140100004081301000051002C150100004081301000051002C1601000040C170100000600400001901000001808FFFFFFFF52C170100004081601000052C02C180100004081601000052C02C190100004081301000005804000002404000000000000F0BFA068040001020140400017700946104018C010C01BC01B801CC01
310
D001C8018401A401B801940190010801BC01D401B8019001940190013001A401B80194011A4100630043006F006E00730074007200610069006E006500640049006D0070006C00690063006900740050006F0069006E00740045904018C014001BC01A401B801D0010C01D401C801D80194010C01BC01B801CC01D001C8018
310
401A401B801D001164100630043006F006E00730074007200610069006E006500640044006100740075006D004C0069006E00650045904018C012001BC01C801A401E801BC01B801D0018401B0010C01BC01B801CC01D001C8018401A401B801D001144100630056006500720074006900630061006C0043006F006E007300
310
74007200610069006E00740045D04018C011401C401D4018401B00130019401B8019C01D001A0010C01BC01B801CC01D001C8018401A401B801D001104100630043006F006E00730074007200610069006E006500640041007200630045D04018C010C019401B801D0019401C8014001BC01A401B801D0010C01BC01B801CC
310
01D001C8018401A401B801D0011A410063005200610064006900750073004400690061006D00650074006500720043006F006E00730074007200610069006E00740047104018C014001BC01A401B801D0010C01BC01A401B8018C01A40190019401B8018C0194010C01BC01B801CC01D001C8018401A401B801D0011441006
310
3004D006900640050006F0069006E00740043006F006E00730074007200610069006E00740045104018C011001A401CC01D0018401B8018C0194010C01BC01B801CC01D001C8018401A401B801D003084A
330
4C2
360
0
360
0
360
42D
360
432
360
436
360
435
360
439
360
431
360
42A
360
42E
360
434
360
438
360
430
360
437
360
43B
360
433
360
43F
360
51C
360
51D
360
42C
360
44A
360
446
360
442
360
44F
360
44B
360
443
360
44C
360
444
360
440
360
44D
360
441
360
449
360
450
330
42D
330
0
330
0
330
0
330
436
330
0
330
0
330
0
330
0
330
430
330
0
330
0
330
43F
330
0
330
0
330
0
340
42C
340
42A
330
0
330
0
340
431
340
42E
330
432
330
0
330
0
330
0
330
442
330
0
330
0
330
0
330
0
340
438
340
439
330
435
330
0
330
0
330
0
340
433
340
446
330
443
330
0
330
0
330
43B
330
0
330
0
330
440
330
0
330
0
330
449
330
0
330
0
330
441
330
0
330
0
340
437
340
444
330
44B
330
0
330
0
330
0
340
44F
340
450
330
0
330
44A
330
0
330
0
330
434
330
0
330
0
340
44C
340
44D
330
0
330
0
340
51C
340
51D
 94
        0
1001
ACAD
1000
AcadProxyRoundTripData
1071
      517
1071
 11403297
1070
     0
  0
ACAD_PROXY_OBJECT
  5
452
102
{ACAD_REACTORS
330
42C
102
}
330
4C2
100
AcDbProxyObject
 90
      499
 91
      528
 93
      405
310
40A426AA90256996240D294E117CC8010331003500300043104018C01100188010C018401B0018C00E800C400B800C0024001B
330
4C2
360
0
 94
        0
1001
ACAD
1000
AcadProxyRoundTripData
1071
      522
1071
 11403297
1070
     0
  0
ACAD_PROXY_OBJECT
  5
453
102
{ACAD_REACTORS
330
431
102
}
330
4C2
100
AcDbProxyObject
 90
      499
 91
      528
 93
      373
310
40A42AAA9025691924099000CC01023200350043104018C01100188010C018401B0018C00E800C400B800C00220018
330
4C2
360
0
 94
        0
1001
ACAD
1000
AcadProxyRoundTripData
1071
      522
1071
 11403297
1070
     0
  0
ACAD_PROXY_OBJECT
  5
454
102
{ACAD_REACTORS
330
438
102
}
330
4C2
100
AcDbProxyObject
 90
      499
 91
      528
 93
      373
310
40A442AA9025691424099000C801023200300043104018C01100188010C018401B0018C00E800C400B800C00220018
330
4C2
360
0
 94
        0
1001
ACAD
1000
AcadProxyRoundTripData
1071
      522
1071
 11403297
1070
     0
  0
ACAD_PROXY_OBJECT
  5
455
102
{ACAD_REACTORS
330
433
102
}
330
4C2
100
AcDbProxyObject
 90
      499
 91
      528
 93
      405
310
40A44EAA90256996240D294E117CC4010331003500300043104018C01100188010C018401B0018C00E800C400B800C00240018
330
4C2
360
0
 94
        0
1001
ACAD
1000
AcadProxyRoundTripData
1071
      522
1071
 11403297
1070
     0
  0
ACAD_PROXY_OBJECT
  5
456
102
{ACAD_REACTORS
330
437
102
}
330
4C2
100
AcDbProxyObject
 90
      499
 91
      528
 93
      373
310
40A45EAA9025691424099000C401023200300043104018C01100188010C018401B0018C00E800C400B800C00220018
330
4C2
360
0
 94
        0
1001
ACAD
1000
AcadProxyRoundTripData
1071
      522
1071
 11403297
1070
     0
  0
ACAD_PROXY_OBJECT
  5
457
102
{ACAD_REACTORS
330
44F
102
}
330
4C2
100
AcDbProxyObject
 90
      499
 91
      528
 93
      405
310
40A462AA90256996240D294E117CCC010331003500300043104018C01100188010C018401B0018C00E800C400B800C00240018
330
4C2
360
0
 94
        0
1001
ACAD
1000
AcadProxyRoundTripData
1071
      522
1071
 11403297
1070
     0
  0
ACAD_PROXY_OBJECT
  5
458
102
{ACAD_REACTORS
330
44C
102
}
330
4C2
100
AcDbProxyObject
 90
      499
 91
      528
 93
      461
310
40A46EAA9024A0333333333333264024099000D00104310031002E00310043104018C01100188010C018401B0018C00E800C400B800C0024001A
330
4C2
360
0
 94
        0
1001
ACAD
1000
AcadProxyRoundTripData
1071
      522
1071
 11403297
1070
     0
  0
ACAD_PROXY_OBJECT
  5
51B
102
{ACAD_REACTORS
330
51C
102
}
330
4C2
100
AcDbProxyObject
 90
      499
 91
      528
 93
      357
310
40A476AA9025690924099000D80101390043104018C01100188010C018401B0018C00E800C400B800C0021001A
330
4C2
360
0
 94
        0
1001
ACAD
1000
AcadProxyRoundTripData
1071
      522
1071
 11403297
1070
     0
  0
XRECORD
  5
94F
102
{ACAD_REACTORS
330
1F9
102
}
330
1F9
100
AcDbXrecord
102
MATERIAL
148
0.0
149
0.0
149
0.0
 93
        0
 94
       63
282
     0
 72
     1
 77
     1
171
     1
175
     1
179
     1
273
     0
  0
XRECORD
  5
1FA
102
{ACAD_REACTORS
330
1F9
102
}
330
1F9
100
AcDbXrecord
 70
     1
 90
429727718
  1
D62C5603-E3A1-4AEA-B7FB-FE5D8D0755AF
310
504B03040A0000080000CC70623B3DEE336E79000000790000001B0000006175746F6465736B2D64657369676E2D7061636B6167652E786D6C3C3F786D6C2076657273696F6E3D22312E302220656E636F64696E673D227574662D3822203F3E3C666F726D6174733E3C666F726D61743E687474703A2F2F736368656D612E
310
6175746F6465736B2E636F6D2F64657369676E2D7061636B6167652F323030393C2F666F726D61743E3C2F666F726D6174733E504B0304140006080800CC70623BD486FD9CA0000000F4000000130000005B436F6E74656E745F54797065735D2E786D6C7D8EC10E82300C865F65E91D8A1E8C310C0EEA1BF002731658846E
310
D98AC1B77784ABF1D8FE5FBFBF75BBCE937A534CCEB38643598122B6FEE978D0B0485F9C41B54DDD7D022595594E1A469170414C76A4D9A4D207E29CF43ECE46F218070CC6BECC4078ACAA135ACF422C856C0E68EA1BF5669944DDD7BCDE7B1F8E415D77AECB980613C2E4AC91FC167A2B244592486606FC29C8FD7F045B9A
310
EF7053A7E60B504B0304140006080800CC70623B853B8169EB0000007C01000008000000636F72652E786D6C8D90416EC3201045AF62CDB6C206821CC7C244919D9CA01740401C94182C03558F5F9C3852BBEB6A467FFE9B197D7EFC9E1EC5975982F5AE035262288C535E5B377690E21535501C055FBC8FBF6C503839990E
310
5619041F179FE64D52DE45E362569DD7661365082642A11EB9E920A89B99642953CC8E702F67A9EE7234257977194EC9EAE275C4EABCCF5EAD5940D4AC6F0E35A568B8F43562CD7046CD199FD07E60174276A7BE677B5EADB0E0D14EEFFB6A31321A0D82627C4084204C3F096B71DD52F6819B16635EADF63F509AF53FA164
310
5DDCD1EDDD17164090FCC8732078B56691CB33A85CD7DCC40F504B0304140006080800CC70623B55019EA25F0000007C00000007000000636E782E786D6C4DCB3B0E80201045D1AD90E915ED2CF8AC45050C11660C8261F98AB1B07AC9C97D42D718D865D3E909258CFD00CCE24AC6E326A164D74DC0B4128928FF32603847
310
2BA13128B1252AC747C6BAB984FC68F0B87FE8960A5C09FE86CFB69FBA01504B0304140006080800CC70623BDBABAAF470010000D40300000C0000006662782F636F72652E786D6CC553D16E823014FD95A6AF4B694182CC941A83FA05FB810A9511A125A5257EFE2E82712ECEB8A7F100CD39F7F69E734AF9FADC366850B6
310
AF8DCE7018308C942E4C59EB2AC3DE1D498AD15A706B8CFB56869196ADCAF00863C12B6B7C374385D14E6907A836A59A41D9F7CA615434B0C8705F7CAA5606D23BA8E84F41278B93AC54100640439DE0BDB320004D43C63716C7C399D30917DCFBBA9CD9BA8469F5B156168B24CED3F7248AC8769F27244EB73B92EED8862C
310
B7F13E0C179B3C8F979C8ECD82BBBABDAA2BAC924E9558448CBD9330242CFA08E3154B5651FCC6D215639C8EE5774DBE2B5F6CF2B5768B68963BB5F5588420E442FC700B1139D4CB01F450C1E918227C2E09DF070D8140C84E1E9AAB8F1340832A9CB13130A5F1376A908D57309505ECF2A0DF179C4E9D30F5B239B87E3823
310
7A79C6F31DE1A8A5AEC08474B03C7837EAE4938639B44E5932B833D2C6B6B279CDC613877FA26EE21F4A2A4C63EC7F29A2F301D1F9F7A0E37D145F504B0304140006080800CC70623B9C113CC27E0000009D0000000B0000006662782F636E782E786D6C4DCCDF0A83201C86E15B91DFB94BFB330DD428C8FB886521330DA7
310
6397BF1A1DECE883878F57749FCDA1B7892F1BBC047A23808C7F84D9FA55424E0BE6803A256208E9EF06C84F9B91703228B1C690F78B66B34CD9A5439DF5CF0BFBF65E35BCA1B8D6A5C6F540381E886698B5741C695F9503EBA150A2F8958E3DC3EA0B504B0304140006080800CC70623B7DF2F77C2A010000120200003100
310
00006662782F41393633353835312D344632462D344230382D423046372D3739314545314133324237412F636F72652E786D6C8D51DB8EC22014FC15C2939B0D2DB4B45643319AE817EC0F6041255A68B86CFCFC856D4D76DF7CE190393373060EDB3DC707F856CE6B6B7A480A0C81328395DA5C7B18C3057510EC3873D686
310
3F34088C18550F330C39BB3A1BA7051AAC09CA84841A2BD5020AEF55806078A44B0FFD7053A328440C89E1EFC52486BBB8AA8214A99D789CF9E05200300FC927E4FB4D5B375D43103D5527440FB843077C5AA3F5861C8F645F5787F59E95B390B318B55CE45AA638FAA2957BD7248B390B7A7CC51F9C124149C82B8C378810
310
84AB2F42B7B8DD56F413775B8C5999E9FF4471926F8AA236A1AE96B8B3CC434E5839373893369E1FAF30EA395917409EB7F26AF8801C171837A4A6AC9C89E9F9C9B1A58BA30FD6A5EF5DDDCF894B9AD9B6A59C957943A9FCAE2FD5BC4DFE03504B0304140006080800CC70623BAD7543B64E01000033030000300000006662
310
782F41393633353835312D344632462D344230382D423046372D3739314545314133324237412F636E782E786D6CD593CD6EC32010845F0571AD6CE3D48AD20813A9873E410FBD12D82434182C7EAAE6EDBB2424CD25871E7B41D6EC30B3FA84F9E67BB2E40B4234DE8DB46F1925E094D7C6ED479AD3AE5951B2113C789FEE
310
6C943839C1488B4C05DF079FE72A69D8C96C13AAD6B8631503449F83828872B949AC57D26200B826A308D316B4064D6E46FCDA41C05550DC9E483A00797BFD207EFB092A45DE9514C1BBD22178396BD39D891265658C238DEA00936C654E5E433CB65A26D9F6EDB5EBC14EBF49A45CB856E66048291F6939A9A81BB5C89177
310
38143CA680F4AA299D66A042CEB3354A2684DC9D8D178FE0D9B8B41CAAD720F880EE7EF93C0C18769E099ECC04D5A102C8049A8A05632F4DDF376CF1DE0F6BB65C2F8627B65A33C6BB62177CEBBDAD973006829F89F22E814B54F4BC2BE347F8AA8F681390B50FA73F804400B5F542E796F19FF974E7F78DB802FE05E20750
310
4B0304140006080800CC70623BE75B7789680500003C100000340000006662782F41393633353835312D344632462D344230382D423046372D3739314545314133324237412F6F626A656374732E786D6CAD575B8F9B3818FD2B887D06C22499CB8AA1CA655245D5B455A356FB305264C061D8018C6C3393D95FBFC7600890
310
A4CD5EF210B0B1BFEBF98E3F7B1FF6596ABC522E1296DF9BAE3D320D9A872C4AF2F8DE2CE5CEBA358D0FBEC719939D65A691938CDE9B6ADAF4BD98B3B2D05311DD91329583D9D5FC0F438434A7A611A644887B5384CF34233629258BA878B12322891DEFF6B66BD70BFB62634E8AE781D082709A4B588AF91C528CDA28B73F
310
1C998EEF39EABBEFA97FBD6A7C7E9553F9D3D79FE442923C3C523610337627CB87ABE99D359D4CC6D6E4FACAB5E6ABF9D2726FC6A3C5F56271377BB88362213924694B38DD99FE47C48627A1E7D49F5A8BB5E1A74C0A599ED3B0F21F1E56366B89112D681E218F0915D0D6F17AD41FBA2A369DCF6335D62ABBD39779D5DDD1
310
11D4D8DE3CBB96B2E04FB8202E41051754A1AA8E8F76B4C6DFE810B580B1547F4B84911149794252234D024EF8BBE963A95AE27B3D310A9D5C215C7960FAEE415ED75694C6AFB17BCACA5D99A60A9AA65F217B0BFC53292ACB92BF283FAD0D3621576592CB5BED907C2FA8E9DF794E35E97BEA31BED21FEB401ABB94C44839
310
DCACBF0E1C5DA8DA5B2F4DFFD32AD86F543D9E565E7056502E157C00AD2671CD534549AB752FCA9CDA00677A313F04E51B22FF19E57B300579E3C97EB29F682D92935CEC18CF901B7B54FD8C51F362B56FC72FE0B3C1EAE335EDCCBF5AEC39ADB17DC238973F804BA5E6F6BFE7AF1FB32E523BE9F3BD571418E3631DCA4D48
310
5250CF639223210A9446CA30052EDF057BD35F8329C1ECD84552BF0DC8D18BE7BCE23BFE6BD960AB4A7DE79923A103BEBD80F911CBAA2C60DB19B01CF164A5583B772EE6D3FFA56666CBCDA74DC97724A48F9A58967497E489C4D979006FD7A05E227A1EBDD0F737C623387A9C844D3709995625106D157315F8B8392CD4E0
310
A0B9A720C4BE9829CEF37EA1E13111214D53925356365ADA634861B52519DD27A00AEB808EAF0628E6F435519D446F45CF2C9CF5214F0A15B2F6D06B79DA3EE3CBF7F56780D2F4E7EF73A0F5E5B02A38D07DC852C6B7C1FBB6664213E0C39E3EBA7FF4E1AD23EA2829407C85E586727488B751B2DB9502BC7B228A3FD68B6E
310
A65A22397E690AA8D158D7E404EC8CDA235CC3B7D1898680131CEC2CDF2638C65196279577750F15884AEE19F94199155B92B13297978469D4F8D358DF0AEF7631E28DC8F0D9F437D5D39A83B2231A1D52D543813A824EF8D44BCFF2FA6A31BD1E8DAD87F1CCB526B3879935BF59CDADD5C37479BB1CDD4CA7B3556B516589
310
EF352754B706114D9C885EC9131DE6EFEB43D99AFE2391C2F958179413D7CFEF6B1B6DB1E7600F00DE6E5C67454A339A4BA2E0FBA85ED26F045D454F463DBFCE484C2F90F2E5E3666003662ED8F755951A7D1BECD5B30B550B2785C8E7320B7292A4838DDA71BBC863ED7613CAF659337A3354231D4FF4A182A54904C2898C
310
98B28C4AD0CE056CCF332A80986E571EE9DBC305BB5FEB7E509220A58D25CF042D712A806AC0AD0C657FDEF80D2D9CEAA2EE4D1C76F60BFE74219A06527D6F82DF6412526107381E55E353090704D085B52408A8913C4ED159D79BDA71BB4BC506F4831350EB6F975CD22D69BF7AC49B91A2C0A9DDA3D5CA36AD20FC478E37
310
E61844E2352865EBCB61A275A65283CAAA9DD27703B4102F5AF51EF5F573B75CBB5AD38BC845F7A49F82A0966A49C2E3EA5EA0ECD326CD965F1DB402C6FA8B51A4658C5C5E2EC9E214602E55810345408596591009A82E7E7FFACA19EEA299B14A0081A705CB3296EBC14CDF658DCD336EA6D1136881AAEB87B81AB9EE53D5
310
F5EB8BC8362082DA24122F98680A4E7930C01A0079749CEA14382A0783E5EBA5A10F8C098456A03D6A4AEB6BB881E2513747552A5DB22C7EDAF83BD5528081A365F7FF06504B0304140006080000CC70623B000000000000000000000000350000006662782F41393633353835312D344632462D344230382D423046372D37
310
39314545314133324237412F76657274696365732E62696E504B0304140006080800CC70623BF270F1330600000004000000360000006662782F41393633353835312D344632462D344230382D423046372D3739314545314133324237412F747269616E676C65732E62696E636660600000504B0304140006080000CC7062
310
3B000000000000000000000000370000006662782F41393633353835312D344632462D344230382D423046372D3739314545314133324237412F617474726962757465732E62696E504B0304140006080800CC70623B08DA0BD19000000041010000360000006662782F41393633353835312D344632462D344230382D4230
310
46372D3739314545314133324237412F6469726563746F72792E786D6C858F410AC3201045AF22B36F53E9A60B35CBEEBAE80D244E44489C6234F4F835464A48035D0DF398FF9F8AF63D0E6CC63039F212F8F9020C7D47C6792B21C5FE7403D62A1188E2E60C98D7234A5830286103A55745067B9D86B8A3CF9C7F90C11DE6
310
07FB144396D7B6A82D282E9A152AD114D5EF2CB866EEE831B8EEA07A7BB5A8D7D61A2BAAEB7FD5F70921FF497D00504B0304140006080800CC70623BEDD1DC58FD000000A00100003B0000006662782F41393633353835312D344632462D344230382D423046372D3739314545314133324237412F7265736F75726365732F
310
636F72652E786D6C8D504B6E833010BD0A9A6D65B00922041947112427E8052C33A156828DFCA97AFC9A40A576D7CDCCE87D344F8F9FBFE667F689CE6B6B3A6039850C8DB2A336530731DC4903D95970676DF82583CCC8193B5861107C72362E3BA4AC096842428D1D7107A5F7182053CF7474E0D507CE32973124857FE48B
310
540F3961CEF244279DE03EB81420DB9EAC1384436FA353E879B1B182C7A8C75DA3C7F453DF353A1075D537A7BA6464B8F535A99AE14A9A2BBD90E350DD183B5CFABE3AF262350B1EF4FC9351399401471025A527C218A1E53BAB5A5AB765F5469B96525EACF23FA6B88CFF34456DC2A1DCE36E360F82A5202F42F062ED2BAD
310
579969AFDD8A6F504B010214000A0000080000CC70623B3DEE336E79000000790000001B00000000000000000000000000000000006175746F6465736B2D64657369676E2D7061636B6167652E786D6C504B01021400140006080800CC70623BD486FD9CA0000000F40000001300000000000000000000000000B20000005B
310
436F6E74656E745F54797065735D2E786D6C504B01021400140006080800CC70623B853B8169EB0000007C010000080000000000000000000000000083010000636F72652E786D6C504B01021400140006080800CC70623B55019EA25F0000007C000000070000000000000000000000000094020000636E782E786D6C504B
310
01021400140006080800CC70623BDBABAAF470010000D40300000C00000000000000000000000000180300006662782F636F72652E786D6C504B01021400140006080800CC70623B9C113CC27E0000009D0000000B00000000000000000000000000B20400006662782F636E782E786D6C504B01021400140006080800CC70
310
623B7DF2F77C2A010000120200003100000000000000000000000000590500006662782F41393633353835312D344632462D344230382D423046372D3739314545314133324237412F636F72652E786D6C504B01021400140006080800CC70623BAD7543B64E010000330300003000000000000000000000000000D2060000
310
6662782F41393633353835312D344632462D344230382D423046372D3739314545314133324237412F636E782E786D6C504B01021400140006080800CC70623BE75B7789680500003C10000034000000000000000000000000006E0800006662782F41393633353835312D344632462D344230382D423046372D3739314545
310
314133324237412F6F626A656374732E786D6C504B01021400140006080000CC70623B0000000000000000000000003500000000000000000000000000280E00006662782F41393633353835312D344632462D344230382D423046372D3739314545314133324237412F76657274696365732E62696E504B01021400140006
310
080800CC70623BF270F133060000000400000036000000000000000000000000007B0E00006662782F41393633353835312D344632462D344230382D423046372D3739314545314133324237412F747269616E676C65732E62696E504B01021400140006080000CC70623B0000000000000000000000003700000000000000
310
000000000000D50E00006662782F41393633353835312D344632462D344230382D423046372D3739314545314133324237412F617474726962757465732E62696E504B01021400140006080800CC70623B08DA0BD1900000004101000036000000000000000000000000002A0F00006662782F41393633353835312D344632
310
462D344230382D423046372D3739314545314133324237412F6469726563746F72792E786D6C504B01021400140006080800CC70623BEDD1DC58FD000000A00100003B000000000000000000000000000E1000006662782F41393633353835312D344632462D344230382D423046372D3739314545314133324237412F7265
310
736F75726365732F636F72652E786D6C504B0506000000000E000E0080040000641100000000
  0
XRECORD
  5
950
102
{ACAD_REACTORS
330
1F7
102
}
330
1F7
100
AcDbXrecord
102
MATERIAL
148
0.0
149
0.0
149
0.0
 93
        0
 94
       63
282
     0
 72
     1
 77
     1
171
     1
175
     1
179
     1
273
     0
  0
XRECORD
  5
1F8
102
{ACAD_REACTORS
330
1F7
102
}
330
1F7
100
AcDbXrecord
 70
     1
 90
429727718
  1
30362254-06B7-45E0-A893-8CFA70E3D6BC
310
504B03040A0000080000CC70623B3DEE336E79000000790000001B0000006175746F6465736B2D64657369676E2D7061636B6167652E786D6C3C3F786D6C2076657273696F6E3D22312E302220656E636F64696E673D227574662D3822203F3E3C666F726D6174733E3C666F726D61743E687474703A2F2F736368656D612E
310
6175746F6465736B2E636F6D2F64657369676E2D7061636B6167652F323030393C2F666F726D61743E3C2F666F726D6174733E504B0304140006080800CC70623BD486FD9CA0000000F4000000130000005B436F6E74656E745F54797065735D2E786D6C7D8EC10E82300C865F65E91D8A1E8C310C0EEA1BF002731658846E
310
D98AC1B77784ABF1D8FE5FBFBF75BBCE937A534CCEB38643598122B6FEE978D0B0485F9C41B54DDD7D022595594E1A469170414C76A4D9A4D207E29CF43ECE46F218070CC6BECC4078ACAA135ACF422C856C0E68EA1BF5669944DDD7BCDE7B1F8E415D77AECB980613C2E4AC91FC167A2B244592486606FC29C8FD7F045B9A
310
EF7053A7E60B504B0304140006080800CC70623B1EC5D7A3EB0000007C01000008000000636F72652E786D6C8D90416EC3201045AF82665B6103C6756C6122AB4D4ED00B204C5C94182C03558F5F9C3852BBEB6A467FFE9B197D71FC9E6FE8CBACC17AD7032D0820E3B41FAD9B7A48F1820F808E52ACDEC75F36404ECDA687
310
4D0629A6D5A76597B477D1B89855E747B38B2A041301E95B6E7A08FAD3CCAA50296647B8168BD2573599823EBB0CA76447F43862C7BCCF5EAC59410E4DDD9C7973C2755553CCCFA4C603E3040F1565ED3B1FDE4E432BCA0D9622DAF9795FAF464533826484B498524CD807E51D79ED187F21878E10516EF63F505AC67F42C9
310
BA58B1FDDD071640D2FCC87D2045B96591CB3DA85CB7DCE40F504B0304140006080800CC70623B55019EA25F0000007C00000007000000636E782E786D6C4DCB3B0E80201045D1AD90E915ED2CF8AC45050C11660C8261F98AB1B07AC9C97D42D718D865D3E909258CFD00CCE24AC6E326A164D74DC0B4128928FF32603847
310
2BA13128B1252AC747C6BAB984FC68F0B87FE8960A5C09FE86CFB69FBA01504B0304140006080800CC70623B8C9102E971010000D40300000C0000006662782F636F72652E786D6CC5535B6E833010BC8AE5DF0A6C08340F1947A84D4ED00B38C6A128602363A31CBFCB234A53A551FA553EC09AD9F5CE8C31DB9E9B1AF5CA
310
7695D1198E428A91D2D214952E33ECDD315861B4E5CC1AE3BE9561A445A3323CC098B3D21ADFCE9034DA29ED00D5A6503328BA4E398C640D8B0C77F253352214DE4145770A5B214FA2546114020D759C75CE8200340D19DE981F0F6746269C33EFAB6266AB02A655C74A59CCF365BADC27CB5D902ED22848F6340DF238A141
310
BE88E2F57B92BFEDF23523433367AE6A2EEAA455C2A902F398D2751045018D3FA264435F3771F242571B4A1919CA6F9A7C5B3CD9E42BED16F12C776AEB308F40C848FC700B1139D4891EF410CEC810227CC6846F8386402064270EF5C5C709A05E49676C024C61FC95EA45ED154CA5211D1FF4FB8291A913A68E9B83EBBB33
310
E2A7673CDE118E5AE8124C0807CB8377834E366998436B950D7A7746DAD846D4CFD978E0F04FD455FC5D49D2D4C6FE9722321F10997F0F32DC47FE05504B0304140006080800CC70623BFFEA85907E0000009D0000000B0000006662782F636E782E786D6C4DCCD10A83201886E15B91FFDC95D95A811AB6F23E625948A6C3
310
E9D8E5AF46073BFAE0E1E365ED67B3E8ADC3CB78C7815C7240DA3DFC64DCC221C519D7805AC182F7F1EF06C88D9BE6703008B6049F9E274D7A1E938DBB5AE3D6131B2589BA0D3D965551E0B2EA732C9B9A624AAEB41E3A557677029960D9AFB4EF11165F504B0304140006080800CC70623B4FEEA4082C0100001202000031
310
0000006662782F39464131463745442D413632322D343644302D413938332D3331353338454246344243312F636F72652E786D6C8D515B6EC32010BC0AE2AB55850DD871ED0813254D72825EC00192A2C460F1A872FC42ED48ED5F7E00CDCECCCEB26C731F6FE05B39AFADE921293004CA082BB5B9F43086336A21D870E6AC
310
0D7F68109861543DCC30E4ECE26C9C164858139409093556AA051CBC570102714B8F1E7AF1A5C6A11862480C7F2DA6415C878B2A4891CA89C7990F2E050073937C42DE1DB7E4F87ED8A36D4329AA9B3D46DBAEAD504556557BD81DEBDD0761E52CE42C462D17B996298E3E6BE59E35C962CE821E1FF18553435012728A7187
310
0841987E927A8D9B35ADDF70BBC6989599FE4F1427F9A4286A132ABAC49D651EF234CD5CE04CDA78BA3DC2A8FB645D00B9DF8B57E215725C60BCA2A463E54C4CE327C7A65E1C7DB02E7DEFCBF594B864C5CA6CDBD49C957943E9FA5D5FBAF336F90F504B0304140006080800CC70623BAD7543B64E01000033030000300000
310
006662782F39464131463745442D413632322D343644302D413938332D3331353338454246344243312F636E782E786D6CD593CD6EC32010845F0571AD6CE3D48AD20813A9873E410FBD12D82434182C7EAAE6EDBB2424CD25871E7B41D6EC30B3FA84F9E67BB2E40B4234DE8DB46F1925E094D7C6ED479AD3AE5951B2113C
310
789FEE6C943839C1488B4C05DF079FE72A69D8C96C13AAD6B8631503449F83828872B949AC57D26200B826A308D316B4064D6E46FCDA41C05550DC9E483A00797BFD207EFB092A45DE9514C1BBD22178396BD39D891265658C238DEA00936C654E5E433CB65A26D9F6EDB5EBC14EBF49A45CB856E66048291F6939A9A81BB5
310
C8917738143CA680F4AA299D66A042CEB3354A2684DC9D8D178FE0D9B8B41CAAD720F880EE7EF93C0C18769E099ECC04D5A102C8049A8A05632F4DDF376CF1DE0F6BB65C2F8627B65A33C6BB62177CEBBDAD973006829F89F22E814B54F4BC2BE347F8AA8F681390B50FA73F804400B5F542E796F19FF974E7F78DB802FE05
310
E207504B0304140006080800CC70623B16AB87BA640500003C100000340000006662782F39464131463745442D413632322D343644302D413938332D3331353338454246344243312F6F626A656374732E786D6CAD575B6FA33818FD2B887DE6924B3BED8A326A92B68A663B534DD4D13E548A0C38942D60649B369D5FBFC7
310
600890A493BDE42160637FD7F31D7FF63E6FB3D478A55C242CBF3247B66B1A340F5994E4F19559CA8D75611A9F7D8F33263BCB4C232719BD32D5B4E97B316765A1A722BA21652A07B3B7B33F0D11D29C9A46981221AE4C113ED38CD8A4942CA2E2C58E882476BCD9DA23BB5ED8171B73523C0F841684D35CC252CCE79062D4
310
468DFA43D7747CCF51DF7D4FFDEB5593E3AB9CCA9FBEFE241792E4E19EB28198C968BAB8199F5D5A67D3E9C49A9E8F47D6EC76B6B0469F26EEFC7C3EBFBCBEB98462213924694B38DD98FE1D62C393D073EA4FADC5DAF04326852CCF6958F90F0F2B9BB5C48816348F90C7840A68EB78EDF68723159BCEE7891A6B95DDE9D3
310
BCEAEEE8086A6C6F9E5D4B59F0175C10A7A0820BAA5055C7473B5AE3CFDD452D602CD5DF12616444529E90D448938013FE6EFA58AA96F85E4F8C42275708571E98FE6827AF6B2B4AE3D7D83D64E5A64C53054DD3AF90BD06FEA9149565C94FCA0F6B834DC85599E4F2423B24DF0B6AFA979E534DFA9E7A4CC6FA631D486393
310
921829879BF5D781A373557BCB85E97FB90DB62B558F8795179C15944B051F40AB495CF35451D26A4727654E6D8033BD98EF82F21D91FF8AF2DD9982BCF1643BDD4EB516C9492E368C67C88DED563FC36D5EACF66DFF057C3658BDBFA69DF9578B3DA735B64F18C7F20770A9D45CFCF7FCF563D6456A277DBEF78A02637CA2
310
43B90A490AEAB94F72244481D24819A6C0E59B606BFA4B3025981DBB48EAB701D97BF19C577CC77F2D1B6C55A9EF3C732474C0B727303F625995056C3B02963D9EAC146BE78EC5FCEC7FA999EBC5EACBAAE41B12D27B4D2C0BBA49F244E2ECDC81B76B502F113D8F5EE8FB1BE3111CDD4FC2AA9B844CAB1288B68AB90A7CDC
310
1C166AB0D3DC5310625FCC14E779BFD0709F8890A629C9292B1B2DED31A4B0DA928CEE135085754027E3018A397D4D5427D15BD1330B677DC8934285AC3DF45A9EB68FF8F2B8FC0A509AFEECFD0FF2DE25CC6047F7214B195F07EFEB9A094D800F7BFAE8FED187B78EA8A3A400F115961BCAD1215E47C966530AF0EE8128FE
310
58CEBB996A8964FFA529A046635D9353B0336A8F700DDF46271A024E70B0B37C9DE01847591E54DED53D54202AB947E4076556AC49C6CA5C9E1226B7F1A7B1BE15DEED62C41B91E1B3E9AFAAA735036547343A925075041DF0A9979E893B391F8FCFA6967B3EFB644DCF6E5CEBFAE272625DCC6FAF3FB93793C5F90CE1EF57
310
407342756B10D1C489E8953CD1617E5CEECAD6F4EF8914CE5D5D504E5C3F1F9736DA62CFC11E00BCDDB8CC8A9466349744C1F75EBDA4DF09BA8A9E8C7A7E9991989E20E5DBDD6A6003664ED8F7A04A8DBE0DF6EAD9B9AA858342E47399053949D2C146EDB85DE4B176BB0965FBAC19BD19AA918E27FA50C1D22402E144464C
310
59462568E704B6E71915404CB72B8FF4EDE184DDAF753F284990D2C6926782963815403548A70C657FDEF80D2D9CEAA2AE4C1C76F60BFE74219A06527D6582DF6412526107381E55E353090704D085B52408D0933C4ED159D79BDA71BB4BC506F4831350EB6F979CD22D69BF7AC49B91A2C0A9DDA3D5CA36AD20FC478E37E6
310
1844E2352865EBCB6EA275A652E3836BE04EFB400BF1A2556F515F1FBB35B2AB35BD889C744FFA1004B5544B121E57F70215746DD2F5E2C1412B602CBF19455AC6C8E5E9922C4E01E65215385004546899059180EAFCF7A707CE7017CD8CDB0410789AB32C63B91E5CEBBBACB17AC6CD347A022D5075FD106377347AAABA7E
310
7D11590744509B44E205134DC1290F06580320F78E537D3D73540E06CB970B431F185308AD40BBD794D6D77003C5A36E8EAA54BA64597CD8F83BD552A080A365F7FF06504B0304140006080000CC70623B000000000000000000000000350000006662782F39464131463745442D413632322D343644302D413938332D3331
310
353338454246344243312F76657274696365732E62696E504B0304140006080800CC70623BF270F1330600000004000000360000006662782F39464131463745442D413632322D343644302D413938332D3331353338454246344243312F747269616E676C65732E62696E636660600000504B0304140006080000CC70623B
310
000000000000000000000000370000006662782F39464131463745442D413632322D343644302D413938332D3331353338454246344243312F617474726962757465732E62696E504B0304140006080800CC70623B08DA0BD19000000041010000360000006662782F39464131463745442D413632322D343644302D413938
310
332D3331353338454246344243312F6469726563746F72792E786D6C858F410AC3201045AF22B36F53E9A60B35CBEEBAE80D244E44489C6234F4F835464A48035D0DF398FF9F8AF63D0E6CC63039F212F8F9020C7D47C6792B21C5FE7403D62A1188E2E60C98D7234A5830286103A55745067B9D86B8A3CF9C7F90C11DE607
310
FB144396D7B6A82D282E9A152AD114D5EF2CB866EEE831B8EEA07A7BB5A8D7D61A2BAAEB7FD5F70921FF497D00504B0304140006080800CC70623B0D6EF93BFE000000A00100003B0000006662782F39464131463745442D413632322D343644302D413938332D3331353338454246344243312F7265736F75726365732F63
310
6F72652E786D6C8D50596E833010BD0A9ADFCA60B334011947A8694ED00B586642AC041B79A97AFC9A40A5F6AF3F33A3B7689E1E3F7DCD8FEC139DD7D6F4C0720A191A65476DA61E62B892236427C19DB5E1970C322367EC618541F0C9D9B8EC90B226A009093576C41D94DE63804C3DD2D18357379C652E63480A7FCF17A9
310
EE72C29CE5894E3AC17D702940B63D59270887DE46A7D0F36263058F518FBB468FE9A7BE6A7420864373B8D4873369AA8691FA421B3294352543C5CAF65C0F6FEF43CB8BD52C78D0F34F46E550061C419494B6843142CB0F5677F4B52BEB177AEC28E5C52AFF638ACBF84F53D42654E51E77B379102C05791282176B5F693D
310
CB4C7BED567C03504B010214000A0000080000CC70623B3DEE336E79000000790000001B00000000000000000000000000000000006175746F6465736B2D64657369676E2D7061636B6167652E786D6C504B01021400140006080800CC70623BD486FD9CA0000000F40000001300000000000000000000000000B20000005B
310
436F6E74656E745F54797065735D2E786D6C504B01021400140006080800CC70623B1EC5D7A3EB0000007C010000080000000000000000000000000083010000636F72652E786D6C504B01021400140006080800CC70623B55019EA25F0000007C000000070000000000000000000000000094020000636E782E786D6C504B
310
01021400140006080800CC70623B8C9102E971010000D40300000C00000000000000000000000000180300006662782F636F72652E786D6C504B01021400140006080800CC70623BFFEA85907E0000009D0000000B00000000000000000000000000B30400006662782F636E782E786D6C504B01021400140006080800CC70
310
623B4FEEA4082C0100001202000031000000000000000000000000005A0500006662782F39464131463745442D413632322D343644302D413938332D3331353338454246344243312F636F72652E786D6C504B01021400140006080800CC70623BAD7543B64E010000330300003000000000000000000000000000D5060000
310
6662782F39464131463745442D413632322D343644302D413938332D3331353338454246344243312F636E782E786D6C504B01021400140006080800CC70623B16AB87BA640500003C1000003400000000000000000000000000710800006662782F39464131463745442D413632322D343644302D413938332D3331353338
310
454246344243312F6F626A656374732E786D6C504B01021400140006080000CC70623B0000000000000000000000003500000000000000000000000000270E00006662782F39464131463745442D413632322D343644302D413938332D3331353338454246344243312F76657274696365732E62696E504B01021400140006
310
080800CC70623BF270F133060000000400000036000000000000000000000000007A0E00006662782F39464131463745442D413632322D343644302D413938332D3331353338454246344243312F747269616E676C65732E62696E504B01021400140006080000CC70623B0000000000000000000000003700000000000000
310
000000000000D40E00006662782F39464131463745442D413632322D343644302D413938332D3331353338454246344243312F617474726962757465732E62696E504B01021400140006080800CC70623B08DA0BD190000000410100003600000000000000000000000000290F00006662782F39464131463745442D413632
310
322D343644302D413938332D3331353338454246344243312F6469726563746F72792E786D6C504B01021400140006080800CC70623B0D6EF93BFE000000A00100003B000000000000000000000000000D1000006662782F39464131463745442D413632322D343644302D413938332D3331353338454246344243312F7265
310
736F75726365732F636F72652E786D6C504B0506000000000E000E0080040000641100000000
  0
XRECORD
  5
951
102
{ACAD_REACTORS
330
173
102
}
330
173
100
AcDbXrecord
102
MATERIAL
148
0.0
149
0.0
149
0.0
 93
        0
 94
       63
282
     0
 72
     1
 77
     1
171
     1
175
     1
179
     1
273
     0
  0
XRECORD
  5
1FB
102
{ACAD_REACTORS
330
173
102
}
330
173
100
AcDbXrecord
 70
     0
 90
1673772943
  1
ECE7A1D2-D628-4531-984C-D00F80459256
310
504B03040A0000080000CC70623B3DEE336E79000000790000001B0000006175746F6465736B2D64657369676E2D7061636B6167652E786D6C3C3F786D6C2076657273696F6E3D22312E302220656E636F64696E673D227574662D3822203F3E3C666F726D6174733E3C666F726D61743E687474703A2F2F736368656D612E
310
6175746F6465736B2E636F6D2F64657369676E2D7061636B6167652F323030393C2F666F726D61743E3C2F666F726D6174733E504B0304140006080800CC70623BD486FD9CA0000000F4000000130000005B436F6E74656E745F54797065735D2E786D6C7D8EC10E82300C865F65E91D8A1E8C310C0EEA1BF002731658846E
310
D98AC1B77784ABF1D8FE5FBFBF75BBCE937A534CCEB38643598122B6FEE978D0B0485F9C41B54DDD7D022595594E1A469170414C76A4D9A4D207E29CF43ECE46F218070CC6BECC4078ACAA135ACF422C856C0E68EA1BF5669944DDD7BCDE7B1F8E415D77AECB980613C2E4AC91FC167A2B244592486606FC29C8FD7F045B9A
310
EF7053A7E60B504B0304140006080800CC70623BD9DDAED0EC0000007C01000008000000636F72652E786D6C8D90416EC3201045AF82665B61836D9CD8C2444DD39CA01740405C94182C03558F5F9C3852BBEB6A467FFE9B197D7EF89E6EE8CB2CC17A37002D0820E394D7D68D03A478C17B4007C117EFE32F1B20272733C0
310
2A83E0E3E2D3BC49CABB685CCCAAF3DA6CA20CC14440EA969B0182FA34932C648AD911AEC52CD5558EA6A0CF2EC329598D1E47ACCEFBECC59A050463A7EA5833865FEBDD0E37353BE3EE8DBDE3F6786A48D375FBF6CC78B9C282473B3DEFABC5C86834888A900E538A49F5419B9EB47DD5BC907D4F082F57FB1F28CDFA9F50
310
B22ED6D5F6EE030B20687EE43E10BC5CB3C8E51E54AE6B6EE207504B0304140006080800CC70623B55019EA25F0000007C00000007000000636E782E786D6C4DCB3B0E80201045D1AD90E915ED2CF8AC45050C11660C8261F98AB1B07AC9C97D42D718D865D3E909258CFD00CCE24AC6E326A164D74DC0B4128928FF326038
310
472BA13128B1252AC747C6BAB984FC68F0B87FE8960A5C09FE86CFB69FBA01504B0304140006080800CC70623BA24EB22D72010000D40300000C0000006662782F636F72652E786D6CC5535B6E833010BC8AE5DF0A6C5E49888CA3A6694ED00B38E05014B091B1518EDFE511A5A9D228FD2A1F60CDEC7A67C6986DCE4D8D7A
310
69BA4AAB0C073EC548AA5C17952A33ECECD15B61B4E1CC686DBF9561A44423333CC098B3D268D7CE50AE9595CA02AA74216750749DB418E5352C32DCE59FB211BE70162ABA93DF8AFC244AE9073ED050C759670D0840D390E18DF9F1706664C23973AE2A66B62A605A75ACA4C13C4976E1364A12EF355A2EBD384AF65EFA96
310
BC7B8BED2EA6719AAE16FB8491A199335B351775B991C2CA02F390D2D40B028F861F41BCA68B7518BFD0D59A524686F29B26D7164F36B94AD9289CE54E6D1DE6010819891F6E21228B3AD1831EC219194284CF98F06DD01008846CC5A1BEF83801D4CBDC6A1303536877A57A513B0953A94FC707FDBE6064EA84A9E3E6E0FA
310
EE8CF0E9198F7784A316AA0413C2C2F2E0ECA0934D1AE6D05A69BCDE9E91D2A611F573361E38FC1375157F5752AE6B6DFE4B11990F88CCBF0719EE23FF02504B0304140006080800CC70623B408A7D3B7C0000009D0000000B0000006662782F636E782E786D6C4DCCD10A83201886E15B91FFDC552A92A0064DBC8F581632
310
D3703A76F9ABD1C18E3E78F878E5F0D9027ABBFCF2292AE86E2D20171F69F6715550CB827B40839639A5F2770314A7CD293819B45C73AAFB45B35BA61ACAA1C1C7E7855C58C15BC331339661262CC762340413D68D77DA5B42298546CBE6573AF60CEB2F504B0304140006080800CC70623B449FB9BD290100001202000031
310
0000006662782F36394639363044362D344446342D343946362D394244322D3234314243333846323333332F636F72652E786D6C8D515B6EC32010BC0AE22B55850D98B871848994463E412FE002495162B07854397EA176A4F62F3F2C9A9D991D587EB84F37F0AD7D30CEF6905418026DA553C65E7A98E219ED203808EE9D
310
8B7F6810D871D23D2C3014FCE25D9A57483A1BB58D19B54EE9151C43D0110279CB971E06F9A5A7B11A53CC8C70ADE6515EC78BAE4895DB992778883E0700CB907242D17643D7E2538BD869608875438BBAE38922CAC8F1BDD90DB4691A5E2F42C153326A951B95E398B3D1FE599322163C9AE9115F7A3D46ADA0A018778810
310
84E907617BDCEE297BC5BB3DC6BC2EF47FA234AB2745C9D8D8D035EE220B50105E2F0DC1954B9FB747187D9F9D8FA0CCDB042D5FA0C015C65B42DF78BD10F3F3B363CB56C7109DCFDFBBB97E662ED92EB62D13BC2E1BCAE5777DB9966D8A1F504B0304140006080800CC70623BAD7543B64E01000033030000300000006662
310
782F36394639363044362D344446342D343946362D394244322D3234314243333846323333332F636E782E786D6CD593CD6EC32010845F0571AD6CE3D48AD20813A9873E410FBD12D82434182C7EAAE6EDBB2424CD25871E7B41D6EC30B3FA84F9E67BB2E40B4234DE8DB46F1925E094D7C6ED479AD3AE5951B2113C789FEE
310
6C943839C1488B4C05DF079FE72A69D8C96C13AAD6B8631503449F83828872B949AC57D26200B826A308D316B4064D6E46FCDA41C05550DC9E483A00797BFD207EFB092A45DE9514C1BBD22178396BD39D891265658C238DEA00936C654E5E433CB65A26D9F6EDB5EBC14EBF49A45CB856E66048291F6939A9A81BB5C89177
310
38143CA680F4AA299D66A042CEB3354A2684DC9D8D178FE0D9B8B41CAAD720F880EE7EF93C0C18769E099ECC04D5A102C8049A8A05632F4DDF376CF1DE0F6BB65C2F8627B65A33C6BB62177CEBBDAD973006829F89F22E814B54F4BC2BE347F8AA8F681390B50FA73F804400B5F542E796F19FF974E7F78DB802FE05E20750
310
4B0304140006080800CC70623B8D05915C650500003B100000340000006662782F36394639363044362D344446342D343946362D394244322D3234314243333846323333332F6F626A656374732E786D6CAD575B6FA33814FE2B887D06429276DA1565D4266D158D3A339A6846FB502932E050B66023DB74D2FDF5FB190C01
310
9276B2973C046C8ECFF53B17071F77456EBD502133CEAE6CDF9DD81665314F32965ED995DA3A17B6F5310C04E7AA47665B8C14F4CAD6DB7618A48257A5D94AE89654B91AEDDEDDFC61C998326A5B714EA4BCB265FC440BE2924AF184CA6737218AB8E976E7FA6E4338649B0A523E8D98964450A6A029F619B8588D52FE7039
310
B1BD30F0F4F730D0FF866AF6369557DB33949F31A9088B0F848DD8CCFCF9F2767A76E99CCDE733677E3EF59D9BBB9BA5E37F984D16E78BC5E5F5ED25044B25C0C96822E8D60EEFE11B91C581D77CEA34368A1F5329E68CD1B8B61F16D63A1B8E092D294B10C78C4A48EB593D192E7DED9BDEE7995E1B91FDEDD3ACEA9FE831
310
6A756F9F7D4D79F4274C90A7A04248AA51D5F8C718DAE06FB2F75AC4796EBE65D22A88A22223B995679120E2D50E41AA49C260C046A35368846B0BECD0DFF3EBEB8AD4F835768F69B9ADF25C43D30E6B646F807FAA64AD59F61715C7A54127C4AACA98BA3006A9D792DAE165E0D59B61A01FB3A9F9D838D2DAE62445C86166
310
F37564E842E7DE6A69879FEEA2DD5AE7E371E1A5E025154AC307D06A03D73EB5978C58FFA4C8E9033066E0F3BD53BEC1F39F91BE7B55103791EDE6BBB991A2046172CB4581D8B893FA674DDA17A77B3B7C413D1B511FD2743BFF8A38F03A658705E3ADF8015C3A3417FF3D7E439FF591DA0B5F18BC20C1B8981957AE6392A3
310
F43C640C01D1A0B4728E2DD4F26DB4B3C3152A252A3B4E913CEC1C72F012782FF88EFF8637AA552DBEF76408E8A8DE9E50F9E1CB3A2DA0DB1B6039A893B56063DC5B3E3FFB5F72E67AB9FEB4AEC496C4F4C1149625DD662C53E89D7BF0F6151A046260D1337DFDC94502430F83B0EE07A130A224BCAD7DAE1D9FB6CD422FF6
310
920702629C4BB9AE79C12F243C6432A6794E18E5552BA56B431AAB5D91317302B2B071E86C3A42B1A02F999E24061403B5D0EB639195DA655DD3EBEAB4FB862DDF579F014AD0E73C22F99E28DA57FB98E75C6CA2D74D53086D600F4786E0FE3144B771A8A7B900F03594DB8A633CBC49B2EDB69228BB479CF863B5E807AAAB
310
23872F6DFEB4129B949CA33823F58830E86D65621E10047D9DB34D862E8EAC3C2ABC2F7B2C40D67CDFE01F5545B92105AF983AC54D93D69E56FB8E797F88913F898A9FEC705D3F9D1B54EC8426FB500D40A03BD0119B06E1B95DDC7EB8F6975367793EBD70E66733DFB9BC982F9CE564727731999F5D4ECFCE3B8D6A4DC2A0
310
6D50FD148437D110834A64C6CDDF57FBACB5C307A2A477DFE4939736CFEF2B175371E0E10CF0DD1D5C15654E0BCA14D1E87DD02FF93782A162C0A3D95F1524A52770F972BF1EE9809D13CE7DD599467F8ECE9ADD85CE85A34CD45355448C64F9E8A031DC2D596ACC6E5DD93D9B82DE2EF5CAF81363A8E47996A0DE24564A79
310
4115AACE09C55E14540231FDA13C319787134EBF34E3A022514E5B4D9E0826E25C02D5805B15ABE1BEF51B26383D445DD9E875EE33FE4C22DA16427D65A3BCA92CA6D28DD01DF5DC53330704308475351050232CCD31583787BA75774AFB06E5070DD0C8EF484E19968C5D83BA5B90B244D31E54D55A372320FE4786B7EA58
310
44E135AA5467CB7EA333A61683CC6A8C3257034C10CF46F40EF9F5BE59BE5BD30C3C72D235E95D10345C1D45445A5F0BB47E46A5EBE5570F9380B5FA629579952296A773720405982B9DE04011506178964401AA8BDF1FBF0A8EAB6861DD6580C0E38217056766716DAEB2D6FA0917D3E4116581EADB879C4E7CFFB11EFACD
310
3D641311495D92C8676CB409A72D18610D803CE8A626049E8EC1887CB5B44CC39883690DDA8399B4B9855B481E7D71D4A9D22F96E5BB73BF5793020C02137BF837504B0304140006080000CC70623B000000000000000000000000350000006662782F36394639363044362D344446342D343946362D394244322D32343142
310
43333846323333332F76657274696365732E62696E504B0304140006080800CC70623BF270F1330600000004000000360000006662782F36394639363044362D344446342D343946362D394244322D3234314243333846323333332F747269616E676C65732E62696E636660600000504B0304140006080000CC70623B0000
310
00000000000000000000370000006662782F36394639363044362D344446342D343946362D394244322D3234314243333846323333332F617474726962757465732E62696E504B0304140006080800CC70623B08DA0BD19000000041010000360000006662782F36394639363044362D344446342D343946362D394244322D
310
3234314243333846323333332F6469726563746F72792E786D6C858F410AC3201045AF22B36F53E9A60B35CBEEBAE80D244E44489C6234F4F835464A48035D0DF398FF9F8AF63D0E6CC63039F212F8F9020C7D47C6792B21C5FE7403D62A1188E2E60C98D7234A5830286103A55745067B9D86B8A3CF9C7F90C11DE607FB14
310
4396D7B6A82D282E9A152AD114D5EF2CB866EEE831B8EEA07A7BB5A8D7D61A2BAAEB7FD5F70921FF497D00504B0304140006080800CC70623BCA768048FE000000A00100003B0000006662782F36394639363044362D344446342D343946362D394244322D3234314243333846323333332F7265736F75726365732F636F72
310
652E786D6C8D50596E833010BD0A9ADFCA60D600328E9AA639412F609909B1126CE4A5EAF16B0295DABFFECC8CDEA2797AECF8353F924FB44E193D409E5248504B332A3D0D10FC95B4901C39B3C6F85F3248B49871801506CE266BC2B243D2688FDA47549B11775038871E12F988C7004EDE7016A9083E2ADC3D5D84BC8B09
310
D33C8D74D471E6BC8D0192EDC93A815B742658898E651BCB59086ADC356A8C3FD555A1055ED7E7E254D615792D0F075295F585746FF53B694EE78A565DD736979A65AB9933AFE69F8CD2A2F038022F28ED489E135A7CE4554F9BBEA85E68DB53CAB255FEC71496F19FA6A0B42F8B3DEE6673C0F318E4497096AD7DC5F52C33
310
EEB55BFE0D504B010214000A0000080000CC70623B3DEE336E79000000790000001B00000000000000000000000000000000006175746F6465736B2D64657369676E2D7061636B6167652E786D6C504B01021400140006080800CC70623BD486FD9CA0000000F40000001300000000000000000000000000B20000005B436F
310
6E74656E745F54797065735D2E786D6C504B01021400140006080800CC70623BD9DDAED0EC0000007C010000080000000000000000000000000083010000636F72652E786D6C504B01021400140006080800CC70623B55019EA25F0000007C000000070000000000000000000000000095020000636E782E786D6C504B0102
310
1400140006080800CC70623BA24EB22D72010000D40300000C00000000000000000000000000190300006662782F636F72652E786D6C504B01021400140006080800CC70623B408A7D3B7C0000009D0000000B00000000000000000000000000B50400006662782F636E782E786D6C504B01021400140006080800CC70623B
310
449FB9BD290100001202000031000000000000000000000000005A0500006662782F36394639363044362D344446342D343946362D394244322D3234314243333846323333332F636F72652E786D6C504B01021400140006080800CC70623BAD7543B64E010000330300003000000000000000000000000000D20600006662
310
782F36394639363044362D344446342D343946362D394244322D3234314243333846323333332F636E782E786D6C504B01021400140006080800CC70623B8D05915C650500003B10000034000000000000000000000000006E0800006662782F36394639363044362D344446342D343946362D394244322D32343142433338
310
46323333332F6F626A656374732E786D6C504B01021400140006080000CC70623B0000000000000000000000003500000000000000000000000000250E00006662782F36394639363044362D344446342D343946362D394244322D3234314243333846323333332F76657274696365732E62696E504B010214001400060808
310
00CC70623BF270F13306000000040000003600000000000000000000000000780E00006662782F36394639363044362D344446342D343946362D394244322D3234314243333846323333332F747269616E676C65732E62696E504B01021400140006080000CC70623B00000000000000000000000037000000000000000000
310
00000000D20E00006662782F36394639363044362D344446342D343946362D394244322D3234314243333846323333332F617474726962757465732E62696E504B01021400140006080800CC70623B08DA0BD190000000410100003600000000000000000000000000270F00006662782F36394639363044362D344446342D
310
343946362D394244322D3234314243333846323333332F6469726563746F72792E786D6C504B01021400140006080800CC70623BCA768048FE000000A00100003B000000000000000000000000000B1000006662782F36394639363044362D344446342D343946362D394244322D3234314243333846323333332F7265736F
310
75726365732F636F72652E786D6C504B0506000000000E000E0080040000621100000000
  0
ACAD_PROXY_OBJECT
  5
42D
330
429
100
AcDbProxyObject
 90
      499
 91
      528
 93
       77
310
40AF3C363FFFC83D2020
330
412
330
0
330
0
360
0
 94
        0
1001
ACAD
1000
AcadProxyRoundTripData
1071
      521
1071
 11403297
1070
     0
  0
ACAD_PROXY_OBJECT
  5
432
330
429
100
AcDbProxyObject
 90
      499
 91
      528
 93
       77
310
40AF3C363FFFC8DD2020
330
418
330
0
330
0
360
0
 94
        0
1001
ACAD
1000
AcadProxyRoundTripData
1071
      521
1071
 11403297
1070
     0
  0
ACAD_PROXY_OBJECT
  5
436
330
429
100
AcDbProxyObject
 90
      499
 91
      528
 93
       77
310
40AF3C363FFFC8452020
330
413
330
0
330
0
360
0
 94
        0
1001
ACAD
1000
AcadProxyRoundTripData
1071
      521
1071
 11403297
1070
     0
  0
ACAD_PROXY_OBJECT
  5
435
330
429
100
AcDbProxyObject
 90
      499
 91
      528
 93
       77
310
40AF3C363FFFC9452020
330
41C
330
0
330
0
360
0
 94
        0
1001
ACAD
1000
AcadProxyRoundTripData
1071
      521
1071
 11403297
1070
     0
  0
ACAD_PROXY_OBJECT
  5
439
330
429
100
AcDbProxyObject
 90
      499
 91
      528
 93
       30
310
40A78920
330
41A
330
0
330
0
360
43A
 94
        0
1001
ACAD
1000
AcadProxyRoundTripData
1071
      518
1071
 11403297
1070
     0
  0
ACAD_PROXY_OBJECT
  5
431
330
429
100
AcDbProxyObject
 90
      499
 91
      528
 93
       70
310
40AB88BCAD23301004
330
453
330
0
330
0
360
0
 94
        0
1001
ACAD
1000
AcadProxyRoundTripData
1071
      520
1071
 11403297
1070
     0
  0
ACAD_PROXY_OBJECT
  5
42A
330
429
100
AcDbProxyObject
 90
      499
 91
      528
 93
       30
310
40A788B0
330
415
330
0
330
0
360
42B
 94
        0
1001
ACAD
1000
AcadProxyRoundTripData
1071
      518
1071
 11403297
1070
     0
  0
ACAD_PROXY_OBJECT
  5
42E
330
429
100
AcDbProxyObject
 90
      499
 91
      528
 93
       30
310
40A788C0
330
416
330
0
330
0
360
42F
 94
        0
1001
ACAD
1000
AcadProxyRoundTripData
1071
      518
1071
 11403297
1070
     0
  0
ACAD_PROXY_OBJECT
  5
434
330
429
100
AcDbProxyObject
 90
      499
 91
      528
 93
       77
310
40AF3C363FFFC9FD2020
330
41B
330
0
330
0
360
0
 94
        0
1001
ACAD
1000
AcadProxyRoundTripData
1071
      521
1071
 11403297
1070
     0
  0
ACAD_PROXY_OBJECT
  5
438
330
429
100
AcDbProxyObject
 90
      499
 91
      528
 93
       70
310
40AB891CAD22901004
330
454
330
0
330
0
360
0
 94
        0
1001
ACAD
1000
AcadProxyRoundTripData
1071
      520
1071
 11403297
1070
     0
  0
ACAD_PROXY_OBJECT
  5
430
330
429
100
AcDbProxyObject
 90
      499
 91
      528
 93
       77
310
40AF3C363FFFC89D2020
330
3D2
330
0
330
0
360
0
 94
        0
1001
ACAD
1000
AcadProxyRoundTripData
1071
      521
1071
 11403297
1070
     0
  0
ACAD_PROXY_OBJECT
  5
437
330
429
100
AcDbProxyObject
 90
      499
 91
      528
 93
       70
310
40AB89B4AD22901005
330
456
330
0
330
0
360
0
 94
        0
1001
ACAD
1000
AcadProxyRoundTripData
1071
      520
1071
 11403297
1070
     0
  0
ACAD_PROXY_OBJECT
  5
43B
330
429
100
AcDbProxyObject
 90
      499
 91
      528
 93
       77
310
40AF3C363FFFC9952020
330
411
330
0
330
0
360
0
 94
        0
1001
ACAD
1000
AcadProxyRoundTripData
1071
      521
1071
 11403297
1070
     0
  0
ACAD_PROXY_OBJECT
  5
433
330
429
100
AcDbProxyObject
 90
      499
 91
      528
 93
       70
310
40AB894CAD32D01005
330
455
330
0
330
0
360
0
 94
        0
1001
ACAD
1000
AcadProxyRoundTripData
1071
      520
1071
 11403297
1070
     0
  0
ACAD_PROXY_OBJECT
  5
43F
330
429
100
AcDbProxyObject
 90
      499
 91
      528
 93
       77
310
40AF3C363FFFC8A52020
330
3D3
330
0
330
0
360
0
 94
        0
1001
ACAD
1000
AcadProxyRoundTripData
1071
      521
1071
 11403297
1070
     0
  0
ACAD_PROXY_OBJECT
  5
51C
330
429
100
AcDbProxyObject
 90
      499
 91
      528
 93
       70
310
40AB8A2CAD21301004
330
51B
330
0
330
0
360
0
 94
        0
1001
ACAD
1000
AcadProxyRoundTripData
1071
      520
1071
 11403297
1070
     0
  0
ACAD_PROXY_OBJECT
  5
51D
330
429
100
AcDbProxyObject
 90
      499
 91
      528
 93
       30
310
40A78A30
330
519
330
0
330
0
360
51E
 94
        0
1001
ACAD
1000
AcadProxyRoundTripData
1071
      518
1071
 11403297
1070
     0
  0
ACAD_PROXY_OBJECT
  5
42C
330
429
100
AcDbProxyObject
 90
      499
 91
      528
 93
       70
310
40AB88ACAD32D01005
330
452
330
0
330
0
360
0
 94
        0
1001
ACAD
1000
AcadProxyRoundTripData
1071
      520
1071
 11403297
1070
     0
  0
ACAD_PROXY_OBJECT
  5
44A
330
429
100
AcDbProxyObject
 90
      499
 91
      528
 93
       77
310
40AF3C363FFFC9F52020
330
422
330
0
330
0
360
0
 94
        0
1001
ACAD
1000
AcadProxyRoundTripData
1071
      521
1071
 11403297
1070
     0
  0
ACAD_PROXY_OBJECT
  5
446
330
429
100
AcDbProxyObject
 90
      499
 91
      528
 93
       30
310
40A78950
330
41D
330
0
330
0
360
447
 94
        0
1001
ACAD
1000
AcadProxyRoundTripData
1071
      518
1071
 11403297
1070
     0
  0
ACAD_PROXY_OBJECT
  5
442
330
429
100
AcDbProxyObject
 90
      499
 91
      528
 93
       77
310
40AF3C363FFFC9152020
330
419
330
0
330
0
360
0
 94
        0
1001
ACAD
1000
AcadProxyRoundTripData
1071
      521
1071
 11403297
1070
     0
  0
ACAD_PROXY_OBJECT
  5
44F
330
429
100
AcDbProxyObject
 90
      499
 91
      528
 93
       70
310
40AB89CCAD32D01004
330
457
330
0
330
0
360
0
 94
        0
1001
ACAD
1000
AcadProxyRoundTripData
1071
      520
1071
 11403297
1070
     0
  0
ACAD_PROXY_OBJECT
  5
44B
330
429
100
AcDbProxyObject
 90
      499
 91
      528
 93
       77
310
40AF3C363FFFC9C52020
330
420
330
0
330
0
360
0
 94
        0
1001
ACAD
1000
AcadProxyRoundTripData
1071
      521
1071
 11403297
1070
     0
  0
ACAD_PROXY_OBJECT
  5
443
330
429
100
AcDbProxyObject
 90
      499
 91
      528
 93
       77
310
40AF3C363FFFC98D2020
330
3CD
330
0
330
0
360
0
 94
        0
1001
ACAD
1000
AcadProxyRoundTripData
1071
      521
1071
 11403297
1070
     0
  0
ACAD_PROXY_OBJECT
  5
44C
330
429
100
AcDbProxyObject
 90
      499
 91
      528
 93
      126
310
40AB8A049406666666666664C8101004
330
458
330
0
330
0
360
0
 94
        0
1001
ACAD
1000
AcadProxyRoundTripData
1071
      520
1071
 11403297
1070
     0
  0
ACAD_PROXY_OBJECT
  5
444
330
429
100
AcDbProxyObject
 90
      499
 91
      528
 93
       30
310
40A789B8
330
41E
330
0
330
0
360
445
 94
        0
1001
ACAD
1000
AcadProxyRoundTripData
1071
      518
1071
 11403297
1070
     0
  0
ACAD_PROXY_OBJECT
  5
440
330
429
100
AcDbProxyObject
 90
      499
 91
      528
 93
       77
310
40AF3C363FFFC99D2020
330
3D7
330
0
330
0
360
0
 94
        0
1001
ACAD
1000
AcadProxyRoundTripData
1071
      521
1071
 11403297
1070
     0
  0
ACAD_PROXY_OBJECT
  5
44D
330
429
100
AcDbProxyObject
 90
      499
 91
      528
 93
       30
310
40A78A08
330
424
330
0
330
0
360
44E
 94
        0
1001
ACAD
1000
AcadProxyRoundTripData
1071
      518
1071
 11403297
1070
     0
  0
ACAD_PROXY_OBJECT
  5
441
330
429
100
AcDbProxyObject
 90
      499
 91
      528
 93
       77
310
40AF3C363FFFC9AD2020
330
3D8
330
0
330
0
360
0
 94
        0
1001
ACAD
1000
AcadProxyRoundTripData
1071
      521
1071
 11403297
1070
     0
  0
ACAD_PROXY_OBJECT
  5
449
330
429
100
AcDbProxyObject
 90
      499
 91
      528
 93
       77
310
40AF3C363FFFC9A52020
330
3D6
330
0
330
0
360
0
 94
        0
1001
ACAD
1000
AcadProxyRoundTripData
1071
      521
1071
 11403297
1070
     0
  0
ACAD_PROXY_OBJECT
  5
450
330
429
100
AcDbProxyObject
 90
      499
 91
      528
 93
       30
310
40A789D0
330
421
330
0
330
0
360
451
 94
        0
1001
ACAD
1000
AcadProxyRoundTripData
1071
      518
1071
 11403297
1070
     0
  0
ACAD_PROXY_OBJECT
  5
43A
330
439
100
AcDbProxyObject
 90
      499
 91
      528
 93
      137
310
4050140505640032003D00320030005A00B5
1001
ACAD
1000
AcadProxyRoundTripData
1071
      519
1071
 11403297
1070
     0
  0
ACAD_PROXY_OBJECT
  5
42B
330
42A
100
AcDbProxyObject
 90
      499
 91
      528
 93
      169
310
40501405074A53845F32003D003100350030007A0080
1001
ACAD
1000
AcadProxyRoundTripData
1071
      519
1071
 11403297
1070
     0
  0
ACAD_PROXY_OBJECT
  5
42F
330
42E
100
AcDbProxyObject
 90
      499
 91
      528
 93
      137
310
4050140505640033003D00320035005A0080
1001
ACAD
1000
AcadProxyRoundTripData
1071
      519
1071
 11403297
1070
     0
  0
ACAD_PROXY_OBJECT
  5
51E
330
51D
100
AcDbProxyObject
 90
      499
 91
      528
 93
      121
310
4050140504640036003D0039004A00DF
1001
ACAD
1000
AcadProxyRoundTripData
1071
      519
1071
 11403297
1070
     0
  0
ACAD_PROXY_OBJECT
  5
447
330
446
100
AcDbProxyObject
 90
      499
 91
      528
 93
      169
310
40501405074A53845F31003D003100350030007A0080
1001
ACAD
1000
AcadProxyRoundTripData
1071
      519
1071
 11403297
1070
     0
  0
ACAD_PROXY_OBJECT
  5
445
330
444
100
AcDbProxyObject
 90
      499
 91
      528
 93
      137
310
4050140505640031003D00320030005A00C3
1001
ACAD
1000
AcadProxyRoundTripData
1071
      519
1071
 11403297
1070
     0
  0
ACAD_PROXY_OBJECT
  5
44E
330
44D
100
AcDbProxyObject
 90
      499
 91
      528
 93
      169
310
4050140507640034003D00310031002E0031007A0080
1001
ACAD
1000
AcadProxyRoundTripData
1071
      519
1071
 11403297
1070
     0
  0
ACAD_PROXY_OBJECT
  5
451
330
450
100
AcDbProxyObject
 90
      499
 91
      528
 93
      169
310
40501405074A53845F33003D003100350030007A0080
1001
ACAD
1000
AcadProxyRoundTripData
1071
      519
1071
 11403297
1070
     0
  0
ENDSEC
  0
EOF
