  0
SECTION
  2
HEADER
  9
$ACADVER
  1
AC1014
  9
$ACADMAINTVER
 70
     9
  9
$DWGCODEPAGE
  3
ANSI_936
  9
$INSBASE
 10
0.0
 20
0.0
 30
0.0
  9
$EXTMIN
 10
-0.1355730977247731
 20
-0.0500129967281282
 30
-0.0015258207003583
  9
$EXTMAX
 10
297.1311181439305
 20
210.0205984696881
 30
0.0000000349246037
  9
$LIMMIN
 10
0.0
 20
0.0
  9
$LIMMAX
 10
420.0
 20
297.0
  9
$ORTHOMODE
 70
     0
  9
$REGENMODE
 70
     1
  9
$FILLMODE
 70
     1
  9
$QTEXTMODE
 70
     0
  9
$MIRRTEXT
 70
     0
  9
$DRAGMODE
 70
     2
  9
$LTSCALE
 40
1.0
  9
$OSMODE
 70
    37
  9
$ATTMODE
 70
     1
  9
$TEXTSIZE
 40
2.5
  9
$TRACEWID
 40
1.0
  9
$TEXTSTYLE
  7
STANDARD
  9
$CLAYER
  8
0
  9
$CELTYPE
  6
BYLAYER
  9
$CECOLOR
 62
   256
  9
$CELTSCALE
 40
1.0
  9
$DELOBJ
 70
     1
  9
$DISPSILH
 70
     0
  9
$DIMSCALE
 40
1.0
  9
$DIMASZ
 40
2.5
  9
$DIMEXO
 40
0.625
  9
$DIMDLI
 40
3.75
  9
$DIMRND
 40
0.0
  9
$DIMDLE
 40
0.0
  9
$DIMEXE
 40
1.25
  9
$DIMTP
 40
0.0
  9
$DIMTM
 40
0.0
  9
$DIMTXT
 40
2.5
  9
$DIMCEN
 40
2.5
  9
$DIMTSZ
 40
0.0
  9
$DIMTOL
 70
     0
  9
$DIMLIM
 70
     0
  9
$DIMTIH
 70
     0
  9
$DIMTOH
 70
     0
  9
$DIMSE1
 70
     0
  9
$DIMSE2
 70
     0
  9
$DIMTAD
 70
     1
  9
$DIMZIN
 70
     8
  9
$DIMBLK
  1

  9
$DIMASO
 70
     1
  9
$DIMSHO
 70
     1
  9
$DIMPOST
  1

  9
$DIMAPOST
  1

  9
$DIMALT
 70
     0
  9
$DIMALTD
 70
     3
  9
$DIMALTF
 40
0.03937007874016
  9
$DIMLFAC
 40
1.0
  9
$DIMTOFL
 70
     1
  9
$DIMTVP
 40
0.0
  9
$DIMTIX
 70
     0
  9
$DIMSOXD
 70
     0
  9
$DIMSAH
 70
     0
  9
$DIMBLK1
  1

  9
$DIMBLK2
  1

  9
$DIMSTYLE
  2
ISO-25
  9
$DIMCLRD
 70
     0
  9
$DIMCLRE
 70
     0
  9
$DIMCLRT
 70
     0
  9
$DIMTFAC
 40
1.0
  9
$DIMGAP
 40
0.625
  9
$DIMJUST
 70
     0
  9
$DIMSD1
 70
     0
  9
$DIMSD2
 70
     0
  9
$DIMTOLJ
 70
     0
  9
$DIMTZIN
 70
     8
  9
$DIMALTZ
 70
     0
  9
$DIMALTTZ
 70
     0
  9
$DIMFIT
 70
     3
  9
$DIMUPT
 70
     0
  9
$DIMUNIT
 70
     2
  9
$DIMDEC
 70
     2
  9
$DIMTDEC
 70
     2
  9
$DIMALTU
 70
     2
  9
$DIMALTTD
 70
     3
  9
$DIMTXSTY
  7
STANDARD
  9
$DIMAUNIT
 70
     0
  9
$LUNITS
 70
     2
  9
$LUPREC
 70
     4
  9
$SKETCHINC
 40
1.0
  9
$FILLETRAD
 40
0.0
  9
$AUNITS
 70
     0
  9
$AUPREC
 70
     0
  9
$MENU
  1
.
  9
$ELEVATION
 40
0.0
  9
$PELEVATION
 40
0.0
  9
$THICKNESS
 40
0.0
  9
$LIMCHECK
 70
     0
  9
$CHAMFERA
 40
0.0
  9
$CHAMFERB
 40
0.0
  9
$CHAMFERC
 40
0.0
  9
$CHAMFERD
 40
0.0
  9
$SKPOLY
 70
     0
  9
$TDCREATE
 40
2460229.650486111
  9
$TDUPDATE
 40
2460669.462424907
  9
$TDINDWG
 40
0.0952546296
  9
$TDUSRTIMER
 40
0.0952546296
  9
$USRTIMER
 70
     1
  9
$ANGBASE
 50
0.0
  9
$ANGDIR
 70
     0
  9
$PDMODE
 70
     0
  9
$PDSIZE
 40
0.0
  9
$PLINEWID
 40
0.0
  9
$COORDS
 70
     1
  9
$SPLFRAME
 70
     0
  9
$SPLINETYPE
 70
     6
  9
$SPLINESEGS
 70
     8
  9
$ATTDIA
 70
     0
  9
$ATTREQ
 70
     1
  9
$HANDLING
 70
     1
  9
$HANDSEED
  5
CB9
  9
$SURFTAB1
 70
     6
  9
$SURFTAB2
 70
     6
  9
$SURFTYPE
 70
     6
  9
$SURFU
 70
     6
  9
$SURFV
 70
     6
  9
$UCSNAME
  2

  9
$UCSORG
 10
0.0
 20
0.0
 30
0.0
  9
$UCSXDIR
 10
1.0
 20
0.0
 30
0.0
  9
$UCSYDIR
 10
0.0
 20
1.0
 30
0.0
  9
$PUCSNAME
  2

  9
$PUCSORG
 10
0.0
 20
0.0
 30
0.0
  9
$PUCSXDIR
 10
1.0
 20
0.0
 30
0.0
  9
$PUCSYDIR
 10
0.0
 20
1.0
 30
0.0
  9
$USERI1
 70
     0
  9
$USERI2
 70
     0
  9
$USERI3
 70
     0
  9
$USERI4
 70
     0
  9
$USERI5
 70
     0
  9
$USERR1
 40
0.0
  9
$USERR2
 40
0.0
  9
$USERR3
 40
0.0
  9
$USERR4
 40
0.0
  9
$USERR5
 40
0.0
  9
$WORLDVIEW
 70
     1
  9
$SHADEDGE
 70
     3
  9
$SHADEDIF
 70
    70
  9
$TILEMODE
 70
     1
  9
$MAXACTVP
 70
    64
  9
$PINSBASE
 10
0.0
 20
0.0
 30
0.0
  9
$PLIMCHECK
 70
     0
  9
$PEXTMIN
 10
0.0
 20
0.0
 30
0.0
  9
$PEXTMAX
 10
0.0
 20
0.0
 30
0.0
  9
$PLIMMIN
 10
0.0
 20
0.0
  9
$PLIMMAX
 10
12.0
 20
9.0
  9
$UNITMODE
 70
     0
  9
$VISRETAIN
 70
     1
  9
$PLINEGEN
 70
     0
  9
$PSLTSCALE
 70
     1
  9
$TREEDEPTH
 70
  3020
  9
$PICKSTYLE
 70
     1
  9
$CMLSTYLE
  2
STANDARD
  9
$CMLJUST
 70
     0
  9
$CMLSCALE
 40
20.0
  9
$PROXYGRAPHICS
 70
     1
  9
$MEASUREMENT
 70
     1
  0
ENDSEC
  0
SECTION
  2
CLASSES
  0
CLASS
  1
ACDBDICTIONARYWDFLT
  2
AcDbDictionaryWithDefault
  3
ObjectDBX Classes
 90
        0
280
     0
281
     0
  0
CLASS
  1
ACDBPLACEHOLDER
  2
AcDbPlaceHolder
  3
ObjectDBX Classes
 90
        0
280
     0
281
     0
  0
CLASS
  1
LAYOUT
  2
AcDbLayout
  3
ObjectDBX Classes
 90
        0
280
     0
281
     0
  0
CLASS
  1
DICTIONARYVAR
  2
AcDbDictionaryVar
  3
ObjectDBX Classes
 90
        0
280
     0
281
     0
  0
CLASS
  1
TABLESTYLE
  2
AcDbTableStyle
  3
ObjectDBX Classes
 90
     4095
280
     0
281
     0
  0
CLASS
  1
MATERIAL
  2
AcDbMaterial
  3
ObjectDBX Classes
 90
     1153
280
     0
281
     0
  0
CLASS
  1
VISUALSTYLE
  2
AcDbVisualStyle
  3
ObjectDBX Classes
 90
     4095
280
     0
281
     0
  0
CLASS
  1
SCALE
  2
AcDbScale
  3
ObjectDBX Classes
 90
     1153
280
     0
281
     0
  0
CLASS
  1
MLEADERSTYLE
  2
AcDbMLeaderStyle
  3
ACDB_MLEADERSTYLE_CLASS
 90
     4095
280
     0
281
     0
  0
CLASS
  1
CELLSTYLEMAP
  2
AcDbCellStyleMap
  3
ObjectDBX Classes
 90
     1152
280
     0
281
     0
  0
CLASS
  1
EXACXREFPANELOBJECT
  2
ExAcXREFPanelObject
  3
EXAC_ESW
 90
     1025
280
     1
281
     0
  0
CLASS
  1
NPOCOLLECTION
  2
AcDbImpNonPersistentObjectsCollection
  3
ObjectDBX Classes
 90
     1153
280
     1
281
     0
  0
CLASS
  1
LAYER_INDEX
  2
AcDbLayerIndex
  3
ObjectDBX Classes
 90
        0
280
     0
281
     0
  0
CLASS
  1
SPATIAL_INDEX
  2
AcDbSpatialIndex
  3
AutoCAD 2000
 90
        0
280
     0
281
     0
  0
CLASS
  1
IDBUFFER
  2
AcDbIdBuffer
  3
ObjectDBX Classes
 90
        0
280
     0
281
     0
  0
CLASS
  1
ACDBSECTIONVIEWSTYLE
  2
AcDbSectionViewStyle
  3
ObjectDBX Classes
 90
     1025
280
     0
281
     0
  0
CLASS
  1
ACDBDETAILVIEWSTYLE
  2
AcDbDetailViewStyle
  3
ObjectDBX Classes
 90
     1025
280
     0
281
     0
  0
CLASS
  1
ACDBASSOC2DCONSTRAINTGROUP
  2
AcDbAssoc2dConstraintGroup
  3
ObjectDBX Classes
 90
     1025
280
     1
281
     0
  0
CLASS
  1
ACDBASSOCGEOMDEPENDENCY
  2
AcDbAssocGeomDependency
  3
ObjectDBX Classes
 90
     1025
280
     1
281
     0
  0
CLASS
  1
ACDBASSOCVALUEDEPENDENCY
  2
AcDbAssocValueDependency
  3
ObjectDBX Classes
 90
     1025
280
     1
281
     0
  0
CLASS
  1
ACDBASSOCDEPENDENCY
  2
AcDbAssocDependency
  3
ObjectDBX Classes
 90
     1025
280
     1
281
     0
  0
CLASS
  1
ASSOCDIMDEPENDENCYBODY
  2
AcDbAssocDimDependencyBody
  3
ObjectDBX Classes
 90
     1025
280
     1
281
     0
  0
CLASS
  1
ACDBASSOCVARIABLE
  2
AcDbAssocVariable
  3
ObjectDBX Classes
 90
     1025
280
     1
281
     0
  0
CLASS
  1
ACDBASSOCNETWORK
  2
AcDbAssocNetwork
  3
ObjectDBX Classes
 90
     1025
280
     1
281
     0
  0
CLASS
  1
PLOTSETTINGS
  2
AcDbPlotSettings
  3
ObjectDBX Classes
 90
        0
280
     0
281
     0
  0
CLASS
  1
RAPIDRTRENDERSETTINGS
  2
AcDbRapidRTRenderSettings
  3
ObjectDBX Classes
 90
     1024
280
     0
281
     0
  0
CLASS
  1
ACAD_TABLE
  2
AcDbTable
  3
ObjectDBX Classes
 90
     1025
280
     0
281
     1
  0
CLASS
  1
TABLECONTENT
  2
AcDbTableContent
  3
ObjectDBX Classes
 90
     1152
280
     0
281
     0
  0
CLASS
  1
TABLEGEOMETRY
  2
AcDbTableGeometry
  3
ObjectDBX Classes
 90
     1152
280
     0
281
     0
  0
CLASS
  1
ACAD_PROXY_OBJECT_WRAPPER
  2
AcDbProxyObjectWrapper
  3
AutoCAD 2000
 90
        0
280
     0
281
     0
  0
CLASS
  1
XRECORD
  2
AcDbXrecord
  3
ObjectDBX Classes
 90
        0
280
     0
281
     0
  0
CLASS
  1
LWPOLYLINE
  2
AcDbPolyline
  3
ObjectDBX Classes
 90
        0
280
     0
281
     1
  0
CLASS
  1
HATCH
  2
AcDbHatch
  3
ObjectDBX Classes
 90
        0
280
     0
281
     1
  0
ENDSEC
  0
SECTION
  2
TABLES
  0
TABLE
  2
VPORT
  5
8
102
{ACAD_XDICTIONARY
360
CB2
102
}
330
0
100
AcDbSymbolTable
 70
     1
  0
VPORT
  5
EA
330
8
100
AcDbSymbolTableRecord
100
AcDbViewportTableRecord
  2
*ACTIVE
 70
     0
 10
0.0
 20
0.0
 11
1.0
 21
1.0
 12
148.4977725231029
 22
104.98529273648
 13
0.0
 23
0.0
 14
10.0
 24
10.0
 15
10.0
 25
10.0
 16
0.0
 26
0.0
 36
1.0
 17
0.0
 27
0.0
 37
0.0
 40
211.6762467132933
 41
2.100765306122449
 42
50.0
 43
0.0
 44
0.0
 50
0.0
 51
0.0
 71
     0
 72
  1000
 73
     1
 74
     3
 75
     0
 76
     1
 77
     0
 78
     0
1001
ACAD_NAV_VCDISPLAY
1070
     3
  0
ENDTAB
  0
TABLE
  2
LTYPE
  5
5
330
0
100
AcDbSymbolTable
 70
     2
  0
LTYPE
  5
14
330
5
100
AcDbSymbolTableRecord
100
AcDbLinetypeTableRecord
  2
BYBLOCK
 70
     0
  3

 72
    65
 73
     0
 40
0.0
  0
LTYPE
  5
15
330
5
100
AcDbSymbolTableRecord
100
AcDbLinetypeTableRecord
  2
BYLAYER
 70
     0
  3

 72
    65
 73
     0
 40
0.0
  0
LTYPE
  5
16
330
5
100
AcDbSymbolTableRecord
100
AcDbLinetypeTableRecord
  2
CONTINUOUS
 70
     0
  3
Solid line
 72
    65
 73
     0
 40
0.0
  0
LTYPE
  5
2DF
330
5
100
AcDbSymbolTableRecord
100
AcDbLinetypeTableRecord
  2
CENTER
 70
     0
  3
Center ____ _ ____ _ ____ _ ____ _ ____ _ ____
 72
    65
 73
     4
 40
10.16
 49
6.35
 74
     0
 49
-1.27
 74
     0
 49
1.27
 74
     0
 49
-1.27
 74
     0
  0
ENDTAB
  0
TABLE
  2
LAYER
  5
2
102
{ACAD_XDICTIONARY
360
1FF
102
}
330
0
100
AcDbSymbolTable
 70
    10
  0
LAYER
  5
10
330
2
100
AcDbSymbolTableRecord
100
AcDbLayerTableRecord
  2
0
 70
     0
 62
     7
  6
CONTINUOUS
  0
LAYER
  5
2E0
330
2
100
AcDbSymbolTableRecord
100
AcDbLayerTableRecord
  2
粗实线层
 70
     0
 62
     7
  6
CONTINUOUS
  0
LAYER
  5
2E2
330
2
100
AcDbSymbolTableRecord
100
AcDbLayerTableRecord
  2
细实线层
 70
     0
 62
     7
  6
CONTINUOUS
  0
LAYER
  5
2E4
330
2
100
AcDbSymbolTableRecord
100
AcDbLayerTableRecord
  2
DEFPOINTS
 70
     0
 62
     7
  6
CONTINUOUS
  0
LAYER
  5
2E5
330
2
100
AcDbSymbolTableRecord
100
AcDbLayerTableRecord
  2
1轮廓实线层
 70
     0
 62
     7
  6
CONTINUOUS
  0
LAYER
  5
2E7
330
2
100
AcDbSymbolTableRecord
100
AcDbLayerTableRecord
  2
3中心线层
 70
     0
 62
     1
  6
CENTER
  0
LAYER
  5
2E9
330
2
100
AcDbSymbolTableRecord
100
AcDbLayerTableRecord
  2
6文字层
 70
     0
 62
     3
  6
CONTINUOUS
  0
LAYER
  5
2EB
330
2
100
AcDbSymbolTableRecord
100
AcDbLayerTableRecord
  2
7标注层
 70
     0
 62
     4
  6
CONTINUOUS
  0
LAYER
  5
2ED
330
2
100
AcDbSymbolTableRecord
100
AcDbLayerTableRecord
  2
2细线层
 70
     0
 62
     4
  6
CONTINUOUS
  0
LAYER
  5
2EF
330
2
100
AcDbSymbolTableRecord
100
AcDbLayerTableRecord
  2
ADSK_CONSTRAINTS
 70
     0
 62
     7
  6
CONTINUOUS
  0
ENDTAB
  0
TABLE
  2
STYLE
  5
3
330
0
100
AcDbSymbolTable
 70
     5
  0
STYLE
  5
11
330
3
100
AcDbSymbolTableRecord
100
AcDbTextStyleTableRecord
  2
STANDARD
 70
     0
 40
0.0
 41
1.0
 50
0.0
 71
     0
 42
2.5
  3
arial.ttf
  4

1001
ACAD
1000
Arial
1071
       34
  0
STYLE
  5
132
330
3
100
AcDbSymbolTableRecord
100
AcDbTextStyleTableRecord
  2
ANNOTATIVE
 70
     0
 40
0.0
 41
1.0
 50
0.0
 71
     0
 42
2.5
  3
arial.ttf
  4

1001
ACADANNOTATIVE
1000
AnnotativeData
1002
{
1070
     1
1070
     1
1002
}
1001
ACAD
1000
Arial
1071
       34
  0
STYLE
  5
2F0
330
3
100
AcDbSymbolTableRecord
100
AcDbTextStyleTableRecord
  2
标准
 70
     0
 40
9.59
 41
1.0
 50
0.0
 71
     0
 42
2.5
  3
simsun.ttc
  4

1001
ACAD
1000
SimSun
1071
       34
  0
STYLE
  5
2F1
330
3
100
AcDbSymbolTableRecord
100
AcDbTextStyleTableRecord
  2
TH-GBD2M
 70
     0
 40
2.5
 41
0.8
 50
0.0
 71
     0
 42
2.5
  3
calibri.ttf
  4

1001
ACADANNOTATIVE
1000
AnnotativeData
1002
{
1070
     1
1070
     1
1002
}
1001
ACAD
1000
Calibri
1071
       34
  0
STYLE
  5
2F2
330
3
100
AcDbSymbolTableRecord
100
AcDbTextStyleTableRecord
  2
TH_GBDIM
 70
     0
 40
1.5
 41
0.8
 50
0.0
 71
     0
 42
5.0
  3
calibri.ttf
  4

1001
ACAD
1000
Calibri
1071
       34
  0
ENDTAB
  0
TABLE
  2
VIEW
  5
6
330
0
100
AcDbSymbolTable
 70
     0
  0
ENDTAB
  0
TABLE
  2
UCS
  5
7
330
0
100
AcDbSymbolTable
 70
     0
  0
ENDTAB
  0
TABLE
  2
APPID
  5
9
330
0
100
AcDbSymbolTable
 70
    20
  0
APPID
  5
12
330
9
100
AcDbSymbolTableRecord
100
AcDbRegAppTableRecord
  2
ACAD
 70
     0
  0
APPID
  5
9E
330
9
100
AcDbSymbolTableRecord
100
AcDbRegAppTableRecord
  2
ACAD_PSEXT
 70
     0
  0
APPID
  5
133
330
9
100
AcDbSymbolTableRecord
100
AcDbRegAppTableRecord
  2
ACADANNOPO
 70
     0
  0
APPID
  5
134
330
9
100
AcDbSymbolTableRecord
100
AcDbRegAppTableRecord
  2
ACADANNOTATIVE
 70
     0
  0
APPID
  5
135
330
9
100
AcDbSymbolTableRecord
100
AcDbRegAppTableRecord
  2
ACAD_DSTYLE_DIMJAG
 70
     0
  0
APPID
  5
136
330
9
100
AcDbSymbolTableRecord
100
AcDbRegAppTableRecord
  2
ACAD_DSTYLE_DIMTALN
 70
     0
  0
APPID
  5
165
330
9
100
AcDbSymbolTableRecord
100
AcDbRegAppTableRecord
  2
ACAD_MLEADERVER
 70
     0
  0
APPID
  5
217
330
9
100
AcDbSymbolTableRecord
100
AcDbRegAppTableRecord
  2
ACAD_NAV_VCDISPLAY
 70
     0
  0
APPID
  5
2F5
330
9
100
AcDbSymbolTableRecord
100
AcDbRegAppTableRecord
  2
ACAD_DSTYLE_DIMBREAK
 70
     0
  0
APPID
  5
2F6
330
9
100
AcDbSymbolTableRecord
100
AcDbRegAppTableRecord
  2
ACAD_DSTYLE_DIMRADIAL_EXTE
 70
     0
  0
APPID
  5
2F7
330
9
100
AcDbSymbolTableRecord
100
AcDbRegAppTableRecord
  2
ACAD_DSTYLE_DIMINSPECT
 70
     0
  0
APPID
  5
2F8
330
9
100
AcDbSymbolTableRecord
100
AcDbRegAppTableRecord
  2
GENIUS_GENDTOL_13
 70
     0
  0
APPID
  5
2F9
330
9
100
AcDbSymbolTableRecord
100
AcDbRegAppTableRecord
  2
ACDBBLOCKREPETAG
 70
     0
  0
APPID
  5
2FA
330
9
100
AcDbSymbolTableRecord
100
AcDbRegAppTableRecord
  2
CAXA_DRAFT_PAPERFRAME
 70
     0
  0
APPID
  5
2FB
330
9
100
AcDbSymbolTableRecord
100
AcDbRegAppTableRecord
  2
CAXA_DRAFT_BLKHIDE
 70
     0
  0
APPID
  5
4F7
330
9
100
AcDbSymbolTableRecord
100
AcDbRegAppTableRecord
  2
ACAD_DSTYLE_DIMJAG_POSITIO
 70
     0
  0
APPID
  5
4FB
330
9
100
AcDbSymbolTableRecord
100
AcDbRegAppTableRecord
  2
ACAD_EXEMPT_FROM_CAD_STAND
 70
     0
  0
APPID
  5
7A3
330
9
100
AcDbSymbolTableRecord
100
AcDbRegAppTableRecord
  2
GRADIENTCOLOR1ACI
 70
     0
  0
APPID
  5
7A4
330
9
100
AcDbSymbolTableRecord
100
AcDbRegAppTableRecord
  2
GRADIENTCOLOR2ACI
 70
     0
  0
APPID
  5
93C
330
9
100
AcDbSymbolTableRecord
100
AcDbRegAppTableRecord
  2
ACAD_OBJECT_NAME
 70
     0
  0
ENDTAB
  0
TABLE
  2
DIMSTYLE
  5
A
330
0
100
AcDbSymbolTable
 70
     5
  0
DIMSTYLE
105
1B0
330
A
100
AcDbSymbolTableRecord
100
AcDbDimStyleTableRecord
  2
STANDARD
 70
     0
  3

  4

  5

  6

  7

 40
1.0
 41
0.18
 42
0.0625
 43
0.38
 44
0.18
 45
0.0
 46
0.0
 47
0.0
 48
0.0
140
0.18
141
0.09
142
0.0
143
25.4
144
1.0
145
0.0
146
1.0
147
0.09
 71
     0
 72
     0
 73
     1
 74
     1
 75
     0
 76
     0
 77
     0
 78
     0
170
     0
171
     2
172
     0
173
     0
174
     0
175
     0
176
     0
177
     0
178
     0
270
     2
271
     4
272
     4
273
     2
274
     2
340
11
275
     0
280
     0
281
     0
282
     0
283
     1
284
     0
285
     0
286
     0
287
     3
288
     0
  0
DIMSTYLE
105
137
330
A
100
AcDbSymbolTableRecord
100
AcDbDimStyleTableRecord
  2
ANNOTATIVE
 70
     0
  3

  4

  5

  6

  7

 40
0.0
 41
2.5
 42
0.625
 43
3.75
 44
1.25
 45
0.0
 46
0.0
 47
0.0
 48
0.0
140
2.5
141
2.5
142
0.0
143
0.03937007874016
144
1.0
145
0.0
146
1.0
147
0.625
 71
     0
 72
     0
 73
     0
 74
     0
 75
     0
 76
     0
 77
     1
 78
     8
170
     0
171
     3
172
     1
173
     0
174
     0
175
     0
176
     0
177
     0
178
     0
270
     2
271
     2
272
     2
273
     2
274
     3
340
11
275
     0
280
     0
281
     0
282
     0
283
     0
284
     8
285
     0
286
     0
287
     3
288
     0
1001
ACADANNOTATIVE
1000
AnnotativeData
1002
{
1070
     1
1070
     1
1002
}
1001
ACAD_DSTYLE_DIMJAG
1070
   388
1040
1.5
1001
ACAD_DSTYLE_DIMTALN
1070
   392
1070
     0
  0
DIMSTYLE
105
27
102
{ACAD_REACTORS
330
B30
330
B32
330
B33
330
B36
102
}
330
A
100
AcDbSymbolTableRecord
100
AcDbDimStyleTableRecord
  2
ISO-25
 70
     0
  3

  4

  5

  6

  7

 40
1.0
 41
2.5
 42
0.625
 43
3.75
 44
1.25
 45
0.0
 46
0.0
 47
0.0
 48
0.0
140
2.5
141
2.5
142
0.0
143
0.03937007874016
144
1.0
145
0.0
146
1.0
147
0.625
 71
     0
 72
     0
 73
     0
 74
     0
 75
     0
 76
     0
 77
     1
 78
     8
170
     0
171
     3
172
     1
173
     0
174
     0
175
     0
176
     0
177
     0
178
     0
270
     2
271
     2
272
     2
273
     2
274
     3
340
11
275
     0
280
     0
281
     0
282
     0
283
     0
284
     8
285
     0
286
     0
287
     3
288
     0
  0
DIMSTYLE
105
2F3
102
{ACAD_REACTORS
330
B2D
330
B34
330
B38
330
B41
330
B42
330
B45
330
B46
330
B47
102
}
330
A
100
AcDbSymbolTableRecord
100
AcDbDimStyleTableRecord
  2
TH-GBD2M
 70
     0
  3

  4

  5

  6

  7

 40
1.0
 41
4.0
 42
0.0
 43
0.38
 44
2.0
 45
0.0
 46
0.0
 47
0.0
 48
0.0
140
2.5
141
0.0
142
0.0
143
25.4
144
1.0
145
0.0
146
1.0
147
1.5
 71
     0
 72
     0
 73
     0
 74
     0
 75
     0
 76
     0
 77
     1
 78
     1
170
     0
171
     2
172
     0
173
     0
174
     0
175
     0
176
     0
177
     0
178
     3
270
     2
271
     2
272
     2
273
     2
274
     2
340
2F1
275
     0
280
     0
281
     0
282
     0
283
     1
284
     0
285
     0
286
     0
287
     3
288
     0
1001
ACAD_DSTYLE_DIMBREAK
1070
   391
1040
3.75
1001
ACAD_DSTYLE_DIMJAG
1070
   388
1040
1.5
1001
ACAD_DSTYLE_DIMTALN
1070
   392
1070
     0
  0
DIMSTYLE
105
2F4
102
{ACAD_REACTORS
330
B2A
330
B2B
102
}
330
A
100
AcDbSymbolTableRecord
100
AcDbDimStyleTableRecord
  2
透镜标注
 70
     0
  3

  4

  5

  6

  7

 40
1.0
 41
4.0
 42
0.625
 43
3.75
 44
1.25
 45
0.0
 46
0.0
 47
0.0
 48
0.000000001
140
2.5
141
2.5
142
0.0
143
0.03937007874016
144
1.0
145
0.0
146
1.0
147
0.625
 71
     0
 72
     0
 73
     0
 74
     1
 75
     0
 76
     0
 77
     1
 78
     1
170
     0
171
     3
172
     1
173
     0
174
     0
175
     0
176
     0
177
     0
178
   256
270
     2
271
     2
272
     2
273
     2
274
     3
340
2F1
275
     0
280
     0
281
     0
282
     0
283
     0
284
     0
285
     0
286
     0
287
     3
288
     0
1001
ACAD_DSTYLE_DIMBREAK
1070
   391
1040
3.75
1001
ACAD_DSTYLE_DIMJAG
1070
   388
1040
1.5
1001
ACAD_DSTYLE_DIMTALN
1070
   392
1070
     0
  0
ENDTAB
  0
TABLE
  2
BLOCK_RECORD
  5
1
330
0
100
AcDbSymbolTable
 70
    10
  0
BLOCK_RECORD
  5
1F
102
{ACAD_XDICTIONARY
360
1CE
102
}
330
1
100
AcDbSymbolTableRecord
100
AcDbBlockTableRecord
  2
*MODEL_SPACE
  0
BLOCK_RECORD
  5
D2
330
1
100
AcDbSymbolTableRecord
100
AcDbBlockTableRecord
  2
*PAPER_SPACE
  0
BLOCK_RECORD
  5
39F
330
1
100
AcDbSymbolTableRecord
100
AcDbBlockTableRecord
  2
_CLOSEDBLANK
  0
BLOCK_RECORD
  5
A5E
330
1
100
AcDbSymbolTableRecord
100
AcDbBlockTableRecord
  2
*X40
  0
BLOCK_RECORD
  5
B9A
330
1
100
AcDbSymbolTableRecord
100
AcDbBlockTableRecord
  2
*D46
  0
BLOCK_RECORD
  5
BA7
330
1
100
AcDbSymbolTableRecord
100
AcDbBlockTableRecord
  2
*D47
  0
BLOCK_RECORD
  5
BB3
330
1
100
AcDbSymbolTableRecord
100
AcDbBlockTableRecord
  2
*D48
  0
BLOCK_RECORD
  5
BC0
330
1
100
AcDbSymbolTableRecord
100
AcDbBlockTableRecord
  2
*D49
  0
BLOCK_RECORD
  5
BCD
330
1
100
AcDbSymbolTableRecord
100
AcDbBlockTableRecord
  2
*D50
  0
BLOCK_RECORD
  5
BDA
330
1
100
AcDbSymbolTableRecord
100
AcDbBlockTableRecord
  2
*D51
  0
BLOCK_RECORD
  5
BE7
330
1
100
AcDbSymbolTableRecord
100
AcDbBlockTableRecord
  2
*D52
  0
BLOCK_RECORD
  5
BF4
330
1
100
AcDbSymbolTableRecord
100
AcDbBlockTableRecord
  2
*T53
  0
ENDTAB
  0
ENDSEC
  0
SECTION
  2
BLOCKS
  0
BLOCK
  5
20
330
1F
100
AcDbEntity
  8
0
100
AcDbBlockBegin
  2
*MODEL_SPACE
 70
     0
 10
0.0
 20
0.0
 30
0.0
  3
*MODEL_SPACE
  1

  0
ENDBLK
  5
21
330
1F
100
AcDbEntity
  8
0
100
AcDbBlockEnd
  0
BLOCK
  5
D4
330
D2
100
AcDbEntity
 67
     1
  8
0
100
AcDbBlockBegin
  2
*PAPER_SPACE
 70
     0
 10
0.0
 20
0.0
 30
0.0
  3
*PAPER_SPACE
  1

  0
ENDBLK
  5
D5
330
D2
100
AcDbEntity
 67
     1
  8
0
100
AcDbBlockEnd
  0
BLOCK
  5
3A3
330
39F
100
AcDbEntity
  8
0
100
AcDbBlockBegin
  2
_CLOSEDBLANK
 70
     0
 10
0.0
 20
0.0
 30
0.0
  3
_CLOSEDBLANK
  1

  0
LINE
  5
3A0
330
39F
100
AcDbEntity
  8
0
  6
BYBLOCK
 62
     0
100
AcDbLine
 10
-1.0
 20
0.1666666666666667
 30
0.0
 11
0.0
 21
0.0
 31
0.0
  0
LINE
  5
3A1
330
39F
100
AcDbEntity
  8
0
  6
BYBLOCK
 62
     0
100
AcDbLine
 10
0.0
 20
0.0
 30
0.0
 11
-1.0
 21
-0.1666666666666667
 31
0.0
  0
LINE
  5
3A2
330
39F
100
AcDbEntity
  8
0
  6
BYBLOCK
 62
     0
100
AcDbLine
 10
-1.0
 20
0.1666666666666667
 30
0.0
 11
-1.0
 21
-0.1666666666666667
 31
0.0
  0
ENDBLK
  5
3A4
330
39F
100
AcDbEntity
  8
0
100
AcDbBlockEnd
  0
BLOCK
  5
A5F
330
A5E
100
AcDbEntity
  8
0
100
AcDbBlockBegin
  2
*X40
 70
     1
 10
0.0
 20
0.0
 30
0.0
  3
*X40
  1

  0
LINE
  5
A60
330
A5E
100
AcDbEntity
  8
细实线层
100
AcDbLine
 10
-148.5
 20
-105.0
 30
0.0
 11
148.5
 21
-105.0
 31
0.0
  0
LINE
  5
A61
330
A5E
100
AcDbEntity
  8
细实线层
100
AcDbLine
 10
148.5
 20
-105.0
 30
0.0
 11
148.5
 21
105.0
 31
0.0
  0
LINE
  5
A62
330
A5E
100
AcDbEntity
  8
细实线层
100
AcDbLine
 10
148.5
 20
105.0
 30
0.0
 11
-148.5
 21
105.0
 31
0.0
  0
LINE
  5
A63
330
A5E
100
AcDbEntity
  8
细实线层
100
AcDbLine
 10
-148.5
 20
105.0
 30
0.0
 11
-148.5
 21
-105.0
 31
0.0
  0
LINE
  5
A64
330
A5E
100
AcDbEntity
  8
粗实线层
100
AcDbLine
 10
-138.5
 20
95.0
 30
0.0
 11
-138.5
 21
-95.0
 31
0.0
  0
LINE
  5
A65
330
A5E
100
AcDbEntity
  8
粗实线层
100
AcDbLine
 10
-138.5
 20
-95.0
 30
0.0
 11
138.5
 21
-95.0
 31
0.0
  0
LINE
  5
A66
330
A5E
100
AcDbEntity
  8
粗实线层
100
AcDbLine
 10
138.5
 20
-95.0
 30
0.0
 11
138.5
 21
95.0
 31
0.0
  0
LINE
  5
A67
330
A5E
100
AcDbEntity
  8
粗实线层
100
AcDbLine
 10
138.5
 20
95.0
 30
0.0
 11
-138.5
 21
95.0
 31
0.0
  0
LINE
  5
A68
330
A5E
100
AcDbEntity
  8
粗实线层
100
AcDbLine
 10
-148.5
 20
0.0
 30
0.0
 11
-133.5
 21
0.0
 31
0.0
  0
LINE
  5
A69
330
A5E
100
AcDbEntity
  8
粗实线层
100
AcDbLine
 10
148.5
 20
0.0
 30
0.0
 11
133.5
 21
0.0
 31
0.0
  0
LINE
  5
A6A
330
A5E
100
AcDbEntity
  8
粗实线层
100
AcDbLine
 10
0.0
 20
105.0
 30
0.0
 11
0.0
 21
90.0
 31
0.0
  0
LINE
  5
A6B
330
A5E
100
AcDbEntity
  8
粗实线层
100
AcDbLine
 10
0.0
 20
-105.0
 30
0.0
 11
0.0
 21
-95.0
 31
0.0
  0
ENDBLK
  5
A6C
330
A5E
100
AcDbEntity
  8
0
100
AcDbBlockEnd
  0
BLOCK
  5
B9B
330
B9A
100
AcDbEntity
  8
0
100
AcDbBlockBegin
  2
*D46
 70
     1
 10
0.0
 20
0.0
 30
0.0
  3
*D46
  1

  0
LINE
  5
C14
330
B9A
100
AcDbEntity
  8
7标注层
 62
     0
100
AcDbLine
 10
154.5254637855724
 20
158.2238872265568
 30
0.0
 11
154.5254637855724
 21
166.4516569819214
 31
0.0
  0
LINE
  5
C15
330
B9A
100
AcDbEntity
  8
7标注层
 62
     0
100
AcDbLine
 10
174.5254637855724
 20
158.2238872265568
 30
0.0
 11
174.5254637855724
 21
166.4516569819214
 31
0.0
  0
LINE
  5
C16
330
B9A
100
AcDbEntity
  8
7标注层
 62
     0
100
AcDbLine
 10
158.5254637855724
 20
165.2016569819214
 30
0.0
 11
170.5254637855724
 21
165.2016569819214
 31
0.0
  0
LINE
  5
C17
330
B9A
100
AcDbEntity
  8
7标注层
 62
     0
100
AcDbLine
 10
174.5254637855724
 20
165.2016569819214
 30
0.0
 11
191.2812791701879
 21
165.2016569819214
 31
0.0
  0
SOLID
  5
C18
330
B9A
100
AcDbEntity
  8
7标注层
 62
     0
100
AcDbTrace
 10
158.5254637855724
 20
165.868323648588
 30
0.0
 11
158.5254637855724
 21
164.5349903152547
 31
0.0
 12
154.5254637855724
 22
165.2016569819214
 32
0.0
 13
154.5254637855724
 23
165.2016569819214
 33
0.0
  0
SOLID
  5
C19
330
B9A
100
AcDbEntity
  8
7标注层
 62
     0
100
AcDbTrace
 10
170.5254637855724
 20
165.868323648588
 30
0.0
 11
170.5254637855724
 21
164.5349903152547
 31
0.0
 12
174.5254637855724
 22
165.2016569819214
 32
0.0
 13
174.5254637855724
 23
165.2016569819214
 33
0.0
  0
MTEXT
  5
C1A
330
B9A
100
AcDbEntity
  8
7标注层
100
AcDbMText
 10
184.9033714778802
 20
167.9594518537162
 30
0.0
 40
2.5
 41
0.0
 71
     5
 72
     1
  1
20.00{}{\H0.71x;\C3;\S 0.00^ -0.10;}
  7
TH-GBD2M
  0
POINT
  5
C1B
330
B9A
100
AcDbEntity
  8
DEFPOINTS
 62
     0
100
AcDbPoint
 10
154.5254637855724
 20
157.5988872265568
 30
0.0
  0
POINT
  5
C1C
330
B9A
100
AcDbEntity
  8
DEFPOINTS
 62
     0
100
AcDbPoint
 10
174.5254637855724
 20
157.5988872265568
 30
0.0
  0
POINT
  5
C1D
330
B9A
100
AcDbEntity
  8
DEFPOINTS
 62
     0
100
AcDbPoint
 10
174.5254637855724
 20
165.2016569819214
 30
0.0
  0
ENDBLK
  5
B9C
330
B9A
100
AcDbEntity
  8
0
100
AcDbBlockEnd
  0
BLOCK
  5
BA8
330
BA7
100
AcDbEntity
  8
0
100
AcDbBlockBegin
  2
*D47
 70
     1
 10
0.0
 20
0.0
 30
0.0
  3
*D47
  1

  0
LINE
  5
C1E
330
BA7
100
AcDbEntity
  8
7标注层
 62
     0
100
AcDbLine
 10
153.9004637855724
 20
132.5988872265569
 30
0.0
 11
148.6389754338165
 21
132.5988872265569
 31
0.0
  0
LINE
  5
C1F
330
BA7
100
AcDbEntity
  8
7标注层
 62
     0
100
AcDbLine
 10
153.9004637855724
 20
157.5988872265569
 30
0.0
 11
148.6389754338165
 21
157.5988872265569
 31
0.0
  0
LINE
  5
C20
330
BA7
100
AcDbEntity
  8
7标注层
 62
     0
100
AcDbLine
 10
149.8889754338165
 20
136.5988872265569
 30
0.0
 11
149.8889754338165
 21
153.5988872265569
 31
0.0
  0
SOLID
  5
C21
330
BA7
100
AcDbEntity
  8
7标注层
 62
     0
100
AcDbTrace
 10
149.2223087671499
 20
136.5988872265569
 30
0.0
 11
150.5556421004832
 21
136.5988872265569
 31
0.0
 12
149.8889754338165
 22
132.5988872265569
 32
0.0
 13
149.8889754338165
 23
132.5988872265569
 33
0.0
  0
SOLID
  5
C22
330
BA7
100
AcDbEntity
  8
7标注层
 62
     0
100
AcDbTrace
 10
149.2223087671499
 20
153.5988872265569
 30
0.0
 11
150.5556421004832
 21
153.5988872265569
 31
0.0
 12
149.8889754338165
 22
157.5988872265569
 32
0.0
 13
149.8889754338165
 23
157.5988872265569
 33
0.0
  0
MTEXT
  5
C23
330
BA7
100
AcDbEntity
  8
7标注层
100
AcDbMText
 10
147.1311805620217
 20
145.0988872265568
 30
0.0
 40
2.5
 41
0.0
 71
     5
 72
     1
  1
25.00{}{\H0.71x;\C3;\S 0.00^ -0.10;}
  7
TH-GBD2M
 11
6.123233995736766E-17
 21
1.0
 31
0.0
  0
POINT
  5
C24
330
BA7
100
AcDbEntity
  8
DEFPOINTS
 62
     0
100
AcDbPoint
 10
154.5254637855724
 20
132.5988872265569
 30
0.0
  0
POINT
  5
C25
330
BA7
100
AcDbEntity
  8
DEFPOINTS
 62
     0
100
AcDbPoint
 10
154.5254637855724
 20
157.5988872265569
 30
0.0
  0
POINT
  5
C26
330
BA7
100
AcDbEntity
  8
DEFPOINTS
 62
     0
100
AcDbPoint
 10
149.8889754338165
 20
157.5988872265569
 30
0.0
  0
ENDBLK
  5
BA9
330
BA7
100
AcDbEntity
  8
0
100
AcDbBlockEnd
  0
BLOCK
  5
BB4
330
BB3
100
AcDbEntity
  8
0
100
AcDbBlockBegin
  2
*D48
 70
     1
 10
0.0
 20
0.0
 30
0.0
  3
*D48
  1

  0
LINE
  5
C27
330
BB3
100
AcDbEntity
  8
7标注层
 62
     0
100
AcDbLine
 10
154.8952587175559
 20
101.6906529386613
 30
0.0
 11
137.6316746294096
 21
101.6906529386613
 31
0.0
  0
LINE
  5
C28
330
BB3
100
AcDbEntity
  8
7标注层
 62
     0
100
AcDbLine
 10
154.8787816632958
 20
92.38065293866205
 30
0.0
 11
137.6316746294096
 21
92.38065293866205
 31
0.0
  0
LINE
  5
C29
330
BB3
100
AcDbEntity
  8
7标注层
 62
     0
100
AcDbLine
 10
139.6316746294096
 20
105.6906529386613
 30
0.0
 11
139.6316746294096
 21
109.6906529386613
 31
0.0
  0
LINE
  5
C2A
330
BB3
100
AcDbEntity
  8
7标注层
 62
     0
100
AcDbLine
 10
139.6316746294096
 20
88.38065293866205
 30
0.0
 11
139.6316746294096
 21
75.32372986173837
 31
0.0
  0
SOLID
  5
C2B
330
BB3
100
AcDbEntity
  8
7标注层
 62
     0
100
AcDbTrace
 10
138.965007962743
 20
105.6906529386613
 30
0.0
 11
140.2983412960763
 21
105.6906529386613
 31
0.0
 12
139.6316746294096
 22
101.6906529386613
 32
0.0
 13
139.6316746294096
 23
101.6906529386613
 33
0.0
  0
SOLID
  5
C2C
330
BB3
100
AcDbEntity
  8
7标注层
 62
     0
100
AcDbTrace
 10
138.965007962743
 20
88.38065293866205
 30
0.0
 11
140.2983412960763
 21
88.38065293866205
 31
0.0
 12
139.6316746294096
 22
92.38065293866205
 32
0.0
 13
139.6316746294096
 23
92.38065293866205
 33
0.0
  0
MTEXT
  5
C2D
330
BB3
100
AcDbEntity
  8
7标注层
 62
     3
100
AcDbMText
 10
136.8509053986404
 20
79.46834524635369
 30
0.0
 40
2.5
 41
0.0
 71
     5
 72
     1
  1
\A1;9.31
  7
TH-GBD2M
 11
6.123233995736766E-17
 21
1.0
 31
0.0
  0
POINT
  5
C2E
330
BB3
100
AcDbEntity
  8
DEFPOINTS
 62
     0
100
AcDbPoint
 10
154.8952587175559
 20
101.6906529386613
 30
0.0
  0
POINT
  5
C2F
330
BB3
100
AcDbEntity
  8
DEFPOINTS
 62
     0
100
AcDbPoint
 10
154.8787816632958
 20
92.38065293866205
 30
0.0
  0
POINT
  5
C30
330
BB3
100
AcDbEntity
  8
DEFPOINTS
 62
     0
100
AcDbPoint
 10
139.6316746294096
 20
92.38065293866205
 30
0.0
  0
ENDBLK
  5
BB5
330
BB3
100
AcDbEntity
  8
0
100
AcDbBlockEnd
  0
BLOCK
  5
BC1
330
BC0
100
AcDbEntity
  8
0
100
AcDbBlockBegin
  2
*D49
 70
     1
 10
0.0
 20
0.0
 30
0.0
  3
*D49
  1

  0
LINE
  5
C31
330
BC0
100
AcDbEntity
  8
7标注层
 62
     0
100
AcDbLine
 10
174.8966493604422
 20
101.6906529386613
 30
0.0
 11
171.3307679763034
 21
101.6906529386613
 31
0.0
  0
LINE
  5
C32
330
BC0
100
AcDbEntity
  8
7标注层
 62
     0
100
AcDbLine
 10
174.8992316642426
 20
92.68071461227126
 30
0.0
 11
171.3307679763034
 21
92.68071461227126
 31
0.0
  0
LINE
  5
C33
330
BC0
100
AcDbEntity
  8
7标注层
 62
     0
100
AcDbLine
 10
173.3307679763034
 20
105.6906529386613
 30
0.0
 11
173.3307679763034
 21
109.6906529386613
 31
0.0
  0
LINE
  5
C34
330
BC0
100
AcDbEntity
  8
7标注层
 62
     0
100
AcDbLine
 10
173.3307679763034
 20
88.68071461227126
 30
0.0
 11
173.3307679763034
 21
76.39148384303955
 31
0.0
  0
SOLID
  5
C35
330
BC0
100
AcDbEntity
  8
7标注层
 62
     0
100
AcDbTrace
 10
172.6641013096367
 20
105.6906529386613
 30
0.0
 11
173.99743464297
 21
105.6906529386613
 31
0.0
 12
173.3307679763034
 22
101.6906529386613
 32
0.0
 13
173.3307679763034
 23
101.6906529386613
 33
0.0
  0
SOLID
  5
C36
330
BC0
100
AcDbEntity
  8
7标注层
 62
     0
100
AcDbTrace
 10
172.6641013096367
 20
88.68071461227126
 30
0.0
 11
173.99743464297
 21
88.68071461227126
 31
0.0
 12
173.3307679763034
 22
92.68071461227126
 32
0.0
 13
173.3307679763034
 23
92.68071461227126
 33
0.0
  0
MTEXT
  5
C37
330
BC0
100
AcDbEntity
  8
7标注层
 62
     3
100
AcDbMText
 10
170.5499987455341
 20
80.53609922765486
 30
0.0
 40
2.5
 41
0.0
 71
     5
 72
     1
  1
\A1;9.01
  7
TH-GBD2M
 11
6.123233995736766E-17
 21
1.0
 31
0.0
  0
POINT
  5
C38
330
BC0
100
AcDbEntity
  8
DEFPOINTS
 62
     0
100
AcDbPoint
 10
174.8966493604422
 20
101.6906529386613
 30
0.0
  0
POINT
  5
C39
330
BC0
100
AcDbEntity
  8
DEFPOINTS
 62
     0
100
AcDbPoint
 10
174.8992316642426
 20
92.68071461227126
 30
0.0
  0
POINT
  5
C3A
330
BC0
100
AcDbEntity
  8
DEFPOINTS
 62
     0
100
AcDbPoint
 10
173.3307679763034
 20
92.68071461227126
 30
0.0
  0
ENDBLK
  5
BC2
330
BC0
100
AcDbEntity
  8
0
100
AcDbBlockEnd
  0
BLOCK
  5
BCE
330
BCD
100
AcDbEntity
  8
0
100
AcDbBlockBegin
  2
*D50
 70
     1
 10
0.0
 20
0.0
 30
0.0
  3
*D50
  1

  0
LINE
  5
C3B
330
BCD
100
AcDbEntity
  8
7标注层
 62
     0
100
AcDbLine
 10
174.8787816632962
 20
103.4806529386624
 30
0.0
 11
174.8787816632962
 21
117.181159324145
 31
0.0
  0
LINE
  5
C3C
330
BCD
100
AcDbEntity
  8
7标注层
 62
     0
100
AcDbLine
 10
179.8787816632962
 20
103.5318959266122
 30
0.0
 11
179.8787816632962
 21
117.181159324145
 31
0.0
  0
LINE
  5
C3D
330
BCD
100
AcDbEntity
  8
7标注层
 62
     0
100
AcDbLine
 10
170.8787816632962
 20
115.181159324145
 30
0.0
 11
166.8787816632962
 21
115.181159324145
 31
0.0
  0
LINE
  5
C3E
330
BCD
100
AcDbEntity
  8
7标注层
 62
     0
100
AcDbLine
 10
183.8787816632962
 20
115.181159324145
 30
0.0
 11
197.148382810927
 21
115.181159324145
 31
0.0
  0
SOLID
  5
C3F
330
BCD
100
AcDbEntity
  8
7标注层
 62
     0
100
AcDbTrace
 10
170.8787816632962
 20
115.8478259908117
 30
0.0
 11
170.8787816632962
 21
114.5144926574784
 31
0.0
 12
174.8787816632962
 22
115.181159324145
 32
0.0
 13
174.8787816632962
 23
115.181159324145
 33
0.0
  0
SOLID
  5
C40
330
BCD
100
AcDbEntity
  8
7标注层
 62
     0
100
AcDbTrace
 10
183.8787816632962
 20
115.8478259908117
 30
0.0
 11
183.8787816632962
 21
114.5144926574784
 31
0.0
 12
179.8787816632962
 22
115.181159324145
 32
0.0
 13
179.8787816632962
 23
115.181159324145
 33
0.0
  0
MTEXT
  5
C41
330
BCD
100
AcDbEntity
  8
7标注层
 62
     3
100
AcDbMText
 10
192.9876135801578
 20
117.9619285549143
 30
0.0
 40
2.5
 41
0.0
 71
     5
 72
     1
  1
\A1;5.00
  7
TH-GBD2M
  0
POINT
  5
C42
330
BCD
100
AcDbEntity
  8
DEFPOINTS
 62
     0
100
AcDbPoint
 10
174.8787816632962
 20
103.4806529386624
 30
0.0
  0
POINT
  5
C43
330
BCD
100
AcDbEntity
  8
DEFPOINTS
 62
     0
100
AcDbPoint
 10
179.8787816632962
 20
103.5318959266122
 30
0.0
  0
POINT
  5
C44
330
BCD
100
AcDbEntity
  8
DEFPOINTS
 62
     0
100
AcDbPoint
 10
179.8787816632962
 20
115.181159324145
 30
0.0
  0
ENDBLK
  5
BCF
330
BCD
100
AcDbEntity
  8
0
100
AcDbBlockEnd
  0
BLOCK
  5
BDB
330
BDA
100
AcDbEntity
  8
0
100
AcDbBlockBegin
  2
*D51
 70
     1
 10
0.0
 20
0.0
 30
0.0
  3
*D51
  1

  0
LINE
  5
C45
330
BDA
100
AcDbEntity
  8
7标注层
 62
     0
100
AcDbLine
 10
216.5046934378361
 20
145.0988872265566
 30
0.0
 11
216.5046934378361
 21
166.8925052789577
 31
0.0
  0
LINE
  5
C46
330
BDA
100
AcDbEntity
  8
7标注层
 62
     0
100
AcDbLine
 10
225.504762761092
 20
145.0988872265566
 30
0.0
 11
225.504762761092
 21
166.8925052789577
 31
0.0
  0
LINE
  5
C47
330
BDA
100
AcDbEntity
  8
7标注层
 62
     0
100
AcDbLine
 10
212.5046934378361
 20
164.8925052789577
 30
0.0
 11
208.5046934378361
 21
164.8925052789577
 31
0.0
  0
LINE
  5
C48
330
BDA
100
AcDbEntity
  8
7标注层
 62
     0
100
AcDbLine
 10
229.504762761092
 20
164.8925052789577
 30
0.0
 11
249.010916607246
 21
164.8925052789577
 31
0.0
  0
SOLID
  5
C49
330
BDA
100
AcDbEntity
  8
7标注层
 62
     0
100
AcDbTrace
 10
212.5046934378361
 20
165.5591719456244
 30
0.0
 11
212.5046934378361
 21
164.2258386122911
 31
0.0
 12
216.5046934378361
 22
164.8925052789577
 32
0.0
 13
216.5046934378361
 23
164.8925052789577
 33
0.0
  0
SOLID
  5
C4A
330
BDA
100
AcDbEntity
  8
7标注层
 62
     0
100
AcDbTrace
 10
229.504762761092
 20
165.5591719456244
 30
0.0
 11
229.504762761092
 21
164.2258386122911
 31
0.0
 12
225.504762761092
 22
164.8925052789577
 32
0.0
 13
225.504762761092
 23
164.8925052789577
 33
0.0
  0
MTEXT
  5
C4B
330
BDA
100
AcDbEntity
  8
7标注层
 62
     3
100
AcDbMText
 10
241.2578396841691
 20
167.673274509727
 30
0.0
 40
2.5
 41
0.0
 71
     5
 72
     1
  1
\A1;9.00%%p0.20
  7
TH-GBD2M
  0
POINT
  5
C4C
330
BDA
100
AcDbEntity
  8
DEFPOINTS
 62
     0
100
AcDbPoint
 10
216.5046934378361
 20
145.0988872265566
 30
0.0
  0
POINT
  5
C4D
330
BDA
100
AcDbEntity
  8
DEFPOINTS
 62
     0
100
AcDbPoint
 10
225.504762761092
 20
145.0988872265566
 30
0.0
  0
POINT
  5
C4E
330
BDA
100
AcDbEntity
  8
DEFPOINTS
 62
     0
100
AcDbPoint
 10
225.504762761092
 20
164.8925052789577
 30
0.0
  0
ENDBLK
  5
BDC
330
BDA
100
AcDbEntity
  8
0
100
AcDbBlockEnd
  0
BLOCK
  5
BE8
330
BE7
100
AcDbEntity
  8
0
100
AcDbBlockBegin
  2
*D52
 70
     1
 10
0.0
 20
0.0
 30
0.0
  3
*D52
  1

  0
LINE
  5
C4F
330
BE7
100
AcDbEntity
  8
7标注层
 62
     0
100
AcDbLine
 10
216.5046934378361
 20
132.5988872265566
 30
0.0
 11
216.5046934378361
 21
125.494368451743
 31
0.0
  0
LINE
  5
C50
330
BE7
100
AcDbEntity
  8
7标注层
 62
     0
100
AcDbLine
 10
225.634915902745
 20
132.5988872265564
 30
0.0
 11
225.634915902745
 21
125.494368451743
 31
0.0
  0
LINE
  5
C51
330
BE7
100
AcDbEntity
  8
7标注层
 62
     0
100
AcDbLine
 10
212.5046934378361
 20
127.494368451743
 30
0.0
 11
208.5046934378361
 21
127.494368451743
 31
0.0
  0
LINE
  5
C52
330
BE7
100
AcDbEntity
  8
7标注层
 62
     0
100
AcDbLine
 10
229.634915902745
 20
127.494368451743
 30
0.0
 11
233.634915902745
 21
127.494368451743
 31
0.0
  0
SOLID
  5
C53
330
BE7
100
AcDbEntity
  8
7标注层
 62
     0
100
AcDbTrace
 10
212.5046934378361
 20
128.1610351184096
 30
0.0
 11
212.5046934378361
 21
126.8277017850763
 31
0.0
 12
216.5046934378361
 22
127.494368451743
 32
0.0
 13
216.5046934378361
 23
127.494368451743
 33
0.0
  0
SOLID
  5
C54
330
BE7
100
AcDbEntity
  8
7标注层
 62
     0
100
AcDbTrace
 10
229.634915902745
 20
128.1610351184096
 30
0.0
 11
229.634915902745
 21
126.8277017850763
 31
0.0
 12
225.634915902745
 22
127.494368451743
 32
0.0
 13
225.634915902745
 23
127.494368451743
 33
0.0
  0
MTEXT
  5
C55
330
BE7
100
AcDbEntity
  8
7标注层
 62
     3
100
AcDbMText
 10
221.0698046702905
 20
130.2751376825122
 30
0.0
 40
2.5
 41
0.0
 71
     5
 72
     1
  1
\A1;9.13
  7
TH-GBD2M
  0
POINT
  5
C56
330
BE7
100
AcDbEntity
  8
DEFPOINTS
 62
     0
100
AcDbPoint
 10
216.5046934378361
 20
132.5988872265566
 30
0.0
  0
POINT
  5
C57
330
BE7
100
AcDbEntity
  8
DEFPOINTS
 62
     0
100
AcDbPoint
 10
225.634915902745
 20
132.5988872265564
 30
0.0
  0
POINT
  5
C58
330
BE7
100
AcDbEntity
  8
DEFPOINTS
 62
     0
100
AcDbPoint
 10
225.634915902745
 20
127.494368451743
 30
0.0
  0
ENDBLK
  5
BE9
330
BE7
100
AcDbEntity
  8
0
100
AcDbBlockEnd
  0
BLOCK
  5
C0E
330
BF4
100
AcDbEntity
  8
0
100
AcDbBlockBegin
  2
*T53
 70
     1
 10
0.0
 20
0.0
 30
0.0
  3
*T53
  1

  0
MTEXT
  5
BF5
330
BF4
100
AcDbEntity
  8
2细线层
 62
     3
100
AcDbMText
 10
60.65000000000001
 20
-3.166666666666671
 30
0.0
 40
2.5
 41
33.0
 71
     5
 72
     5
  1
{\fSimSun|b1|i0|c134|p34;S1}
  0
MTEXT
  5
BF6
330
BF4
100
AcDbEntity
  8
2细线层
 62
     3
100
AcDbMText
 10
96.65
 20
-3.166666666666671
 30
0.0
 40
2.5
 41
33.0
 71
     5
 72
     5
  1
{\fSimSun|b1|i0|c134|p34;S2}
  0
MTEXT
  5
BF7
330
BF4
100
AcDbEntity
  8
2细线层
 62
     3
100
AcDbMText
 10
21.325
 20
-9.5
 30
0.0
 40
2.5
 41
39.65
 71
     5
 72
     5
  1
{\fSimSun|b1|i0|c134|p34;形状}
  0
MTEXT
  5
BF8
330
BF4
100
AcDbEntity
  8
2细线层
 62
     3
100
AcDbMText
 10
60.65000000000001
 20
-9.5
 30
0.0
 40
2.5
 41
33.0
 71
     5
 72
     5
  1
{\fSimSun|b1|i0|c134|p34;平面}
  0
MTEXT
  5
BF9
330
BF4
100
AcDbEntity
  8
2细线层
 62
     3
100
AcDbMText
 10
96.65
 20
-9.5
 30
0.0
 40
2.5
 41
33.0
 71
     5
 72
     5
  1
{\fSimSun|b1|i0|c134|p34;凹面}
  0
MTEXT
  5
BFA
330
BF4
100
AcDbEntity
  8
2细线层
 62
     3
100
AcDbMText
 10
21.325
 20
-15.83333333333334
 30
0.0
 40
2.5
 41
39.65
 71
     5
 72
     5
  1
{\fSimSun|b1|i0|c134|p34;曲率半径}
  0
MTEXT
  5
BFB
330
BF4
100
AcDbEntity
  8
2细线层
 62
     3
100
AcDbMText
 10
60.65000000000001
 20
-15.83333333333334
 30
0.0
 40
2.5
 41
33.0
 71
     5
 72
     5
  1
{\fSimSun|b1|i0|c134|p34;无穷}
  0
MTEXT
  5
BFC
330
BF4
100
AcDbEntity
  8
2细线层
 62
     3
100
AcDbMText
 10
96.65
 20
-15.83333333333334
 30
0.0
 40
2.5
 41
33.0
 71
     5
 72
     5
  1
{\fSimSun|b1|i0|c134|p34;1000.00}
  0
MTEXT
  5
BFD
330
BF4
100
AcDbEntity
  8
2细线层
 62
     3
100
AcDbMText
 10
21.325
 20
-22.16666666666667
 30
0.0
 40
2.5
 41
39.65
 71
     5
 72
     5
  1
{\fSimSun|b1|i0|c134|p34;通光孔径}
  0
MTEXT
  5
BFE
330
BF4
100
AcDbEntity
  8
2细线层
 62
     3
100
AcDbMText
 10
60.65000000000001
 20
-22.16666666666667
 30
0.0
 40
2.5
 41
33.0
 71
     5
 72
     5
  1
{\fSimSun|b1|i0|c134|p34;/}
  0
MTEXT
  5
BFF
330
BF4
100
AcDbEntity
  8
2细线层
 62
     3
100
AcDbMText
 10
96.65
 20
-22.16666666666667
 30
0.0
 40
2.5
 41
33.0
 71
     5
 72
     5
  1
{\fSimSun|b1|i0|c134|p34;>90%}
  0
MTEXT
  5
C00
330
BF4
100
AcDbEntity
  8
2细线层
 62
     3
100
AcDbMText
 10
21.325
 20
-28.50000000000001
 30
0.0
 40
2.5
 41
39.65
 71
     5
 72
     5
  1
{\fSimSun|b1|i0|c134|p34;光洁度}
  0
MTEXT
  5
C01
330
BF4
100
AcDbEntity
  8
2细线层
 62
     3
100
AcDbMText
 10
60.65000000000001
 20
-28.50000000000001
 30
0.0
 40
2.5
 41
33.0
 71
     5
 72
     5
  1
{\fSimSun|b1|i0|c134|p34;细磨或检验性抛光}
  0
MTEXT
  5
C02
330
BF4
100
AcDbEntity
  8
2细线层
 62
     3
100
AcDbMText
 10
96.65
 20
-28.50000000000001
 30
0.0
 40
2.5
 41
33.0
 71
     5
 72
     5
  1
{\fSimSun|b1|i0|c134|p34;40-20}
  0
LINE
  5
C03
330
BF4
100
AcDbEntity
  8
2细线层
  6
BYBLOCK
 62
     0
100
AcDbLine
 10
0.0
 20
0.0
 30
0.0
 11
114.65
 21
0.0
 31
0.0
  0
LINE
  5
C04
330
BF4
100
AcDbEntity
  8
2细线层
  6
BYBLOCK
 62
     0
100
AcDbLine
 10
0.0
 20
-6.333333333333336
 30
0.0
 11
114.65
 21
-6.333333333333336
 31
0.0
  0
LINE
  5
C05
330
BF4
100
AcDbEntity
  8
2细线层
  6
BYBLOCK
 62
     0
100
AcDbLine
 10
0.0
 20
-12.66666666666667
 30
0.0
 11
114.65
 21
-12.66666666666667
 31
0.0
  0
LINE
  5
C06
330
BF4
100
AcDbEntity
  8
2细线层
  6
BYBLOCK
 62
     0
100
AcDbLine
 10
0.0
 20
-19.00000000000001
 30
0.0
 11
114.65
 21
-19.00000000000001
 31
0.0
  0
LINE
  5
C07
330
BF4
100
AcDbEntity
  8
2细线层
  6
BYBLOCK
 62
     0
100
AcDbLine
 10
0.0
 20
-25.33333333333334
 30
0.0
 11
114.65
 21
-25.33333333333334
 31
0.0
  0
LINE
  5
C08
330
BF4
100
AcDbEntity
  8
2细线层
  6
BYBLOCK
 62
     0
100
AcDbLine
 10
0.0
 20
-31.66666666666668
 30
0.0
 11
114.65
 21
-31.66666666666668
 31
0.0
  0
LINE
  5
C09
330
BF4
100
AcDbEntity
  8
2细线层
  6
BYBLOCK
 62
     0
100
AcDbLine
 10
0.0
 20
0.0
 30
0.0
 11
0.0
 21
-31.66666666666668
 31
0.0
  0
LINE
  5
C0A
330
BF4
100
AcDbEntity
  8
2细线层
  6
BYBLOCK
 62
     0
100
AcDbLine
 10
42.65
 20
0.0
 30
0.0
 11
42.65
 21
-31.66666666666668
 31
0.0
  0
LINE
  5
C0B
330
BF4
100
AcDbEntity
  8
2细线层
  6
BYBLOCK
 62
     0
100
AcDbLine
 10
78.65
 20
0.0
 30
0.0
 11
78.65
 21
-31.66666666666668
 31
0.0
  0
LINE
  5
C0C
330
BF4
100
AcDbEntity
  8
2细线层
  6
BYBLOCK
 62
     0
100
AcDbLine
 10
114.65
 20
0.0
 30
0.0
 11
114.65
 21
-31.66666666666668
 31
0.0
  0
LINE
  5
C0D
330
BF4
100
AcDbEntity
  8
DEFPOINTS
 62
     8
 60
     1
100
AcDbLine
 10
0.0
 20
0.0
 30
0.0
 11
0.0
 21
0.0
 31
0.0
  0
ENDBLK
  5
C0F
330
BF4
100
AcDbEntity
  8
0
100
AcDbBlockEnd
  0
ENDSEC
  0
SECTION
  2
ENTITIES
  0
LINE
  5
B25
330
1F
100
AcDbEntity
  8
3中心线层
100
AcDbLine
 10
136.4657842709007
 20
145.0988872265568
 30
0.0
 11
242.4516749199815
 21
145.0988872265568
 31
0.0
  0
LINE
  5
B26
102
{ACAD_REACTORS
330
B82
102
}
330
1F
100
AcDbEntity
  8
3中心线层
100
AcDbLine
 10
164.5220664069593
 20
160.5058369894825
 30
0.0
 11
164.5220664069593
 21
83.983597745927
 31
0.0
  0
LINE
  5
B27
102
{ACAD_REACTORS
330
B90
102
}
330
1F
100
AcDbEntity
  8
1轮廓实线层
100
AcDbLine
 10
154.5254637855724
 20
132.5988872265568
 30
0.0
 11
154.5254637855724
 21
157.5988872265568
 31
0.0
  0
LINE
  5
B28
102
{ACAD_REACTORS
330
B7F
102
}
330
1F
100
AcDbEntity
  8
1轮廓实线层
100
AcDbLine
 10
154.5254637855724
 20
157.5988872265568
 30
0.0
 11
174.5254637855724
 21
157.5988872265568
 31
0.0
  0
LINE
  5
B29
102
{ACAD_REACTORS
330
B7D
102
}
330
1F
100
AcDbEntity
  8
1轮廓实线层
100
AcDbLine
 10
174.5254637855724
 20
157.5988872265568
 30
0.0
 11
174.5254637855724
 21
132.5988872265568
 31
0.0
  0
DIMENSION
  5
B2A
330
1F
100
AcDbEntity
  8
7标注层
100
AcDbDimension
  2
*D46
 10
174.5254637855724
 20
165.2016569819214
 30
0.0
 11
184.9033714778802
 21
165.2016569819214
 31
0.0
 70
   160
  1
<>{}{\H0.71x;\C3;\S 0.00^ -0.10;}
  3
透镜标注
100
AcDbAlignedDimension
 13
154.5254637855724
 23
157.5988872265568
 33
0.0
 14
174.5254637855724
 24
157.5988872265568
 34
0.0
100
AcDbRotatedDimension
1001
GENIUS_GENDTOL_13
1000
TolSmNrm
1000

1000
{\H0.71x;$2\S$+$P^ $-$M;}
1040
50.0
1001
ACAD_DSTYLE_DIMINSPECT
1070
   396
1000
100%
1070
   395
1000

1070
   394
1070
    33
1070
   393
1070
     0
1001
ACAD
1000
DSTYLE
1002
{
1070
    48
1040
0.1
1070
   288
1070
     1
1002
}
  0
DIMENSION
  5
B2B
330
1F
100
AcDbEntity
  8
7标注层
100
AcDbDimension
  2
*D47
 10
149.8889754338165
 20
157.5988872265569
 30
0.0
 11
149.8889754338165
 21
145.0988872265568
 31
0.0
 70
   160
  1
<>{}{\H0.71x;\C3;\S 0.00^ -0.10;}
  3
透镜标注
100
AcDbAlignedDimension
 13
154.5254637855724
 23
132.5988872265568
 33
0.0
 14
154.5254637855724
 24
157.5988872265568
 34
0.0
 50
90.0
100
AcDbRotatedDimension
1001
GENIUS_GENDTOL_13
1000
TolSmNrm
1000

1000
{\H0.71x;$2\S$+$P^ $-$M;}
1040
50.0
1001
ACAD_DSTYLE_DIMINSPECT
1070
   396
1000
100%
1070
   395
1000

1070
   394
1070
    33
1070
   393
1070
     0
1001
ACAD
1000
DSTYLE
1002
{
1070
    48
1040
0.1
1070
   288
1070
     1
1002
}
  0
LINE
  5
B2C
102
{ACAD_REACTORS
330
B87
102
}
330
1F
100
AcDbEntity
  8
1轮廓实线层
100
AcDbLine
 10
154.5254637855724
 20
132.5988872265568
 30
0.0
 11
174.5254637855724
 21
132.5988872265568
 31
0.0
  0
DIMENSION
  5
B2D
330
1F
100
AcDbEntity
  8
7标注层
100
AcDbDimension
  2
*D48
 10
139.6316746294096
 20
92.38065293866205
 30
0.0
 11
139.6316746294096
 21
79.46834524635369
 31
0.0
 70
   160
  3
TH-GBD2M
100
AcDbAlignedDimension
 13
154.8952587175559
 23
101.6906529386613
 33
0.0
 14
154.8787816632957
 24
92.38065293866202
 34
0.0
 50
90.0
100
AcDbRotatedDimension
  0
LINE
  5
B2E
102
{ACAD_REACTORS
330
B91
102
}
330
1F
100
AcDbEntity
  8
7标注层
 62
     0
100
AcDbLine
 10
154.8966493604421
 20
101.6906529386613
 30
0.0
 11
154.8966493604421
 21
92.38065293866134
 31
0.0
  0
LINE
  5
B2F
102
{ACAD_REACTORS
330
B88
102
}
330
1F
100
AcDbEntity
  8
0
100
AcDbLine
 10
174.8966493604421
 20
98.45395209973344
 30
0.0
 11
174.8966493604421
 21
92.68071004089484
 31
0.0
  0
DIMENSION
  5
B30
102
{ACAD_REACTORS
330
B80
102
}
102
{ACAD_XDICTIONARY
360
CA3
102
}
330
1F
100
AcDbEntity
  8
ADSK_CONSTRAINTS
 60
     1
100
AcDbDimension
 10
154.8966493604376
 20
114.9715383568462
 30
0.0
 11
154.8966493604376
 21
114.9715383568462
 31
0.0
 70
   128
  1
d2=20
  3
ISO-25
100
AcDbAlignedDimension
 13
174.8966493604421
 23
95.56733107031414
 33
0.0
 14
154.8966493604421
 24
97.03565293866131
 34
0.0
100
AcDbRotatedDimension
  0
ARC
  5
B31
102
{ACAD_REACTORS
330
B78
102
}
330
1F
100
AcDbEntity
  8
0
100
AcDbCircle
 10
179.897066047349
 20
-907.3067877974325
 30
0.0
 40
1000.0
100
AcDbArc
 50
90.28650396593977
 51
91.43256761943202
  0
DIMENSION
  5
B32
102
{ACAD_REACTORS
330
B85
102
}
102
{ACAD_XDICTIONARY
360
CA5
102
}
330
1F
100
AcDbEntity
  8
ADSK_CONSTRAINTS
 60
     1
100
AcDbDimension
 10
179.8970660475253
 20
-907.3067878072252
 30
0.0
 11
195.2263941995322
 21
85.79834948481164
 31
0.0
 70
   132
  1
半径1=1000
  3
ISO-25
100
AcDbRadialDimension
 15
195.3309830624109
 25
92.57410221176372
 35
0.0
 40
0.0
1001
ACAD
1000
DSTYLE
1002
{
1070
   288
1070
     1
1002
}
1001
ACAD_DSTYLE_DIMRADIAL_EXTE
1070
   387
1070
     1
1070
   388
1040
0.6462361007784128
1070
   390
1040
2.510730858992122
  0
DIMENSION
  5
B33
102
{ACAD_REACTORS
330
B73
102
}
102
{ACAD_XDICTIONARY
360
CA7
102
}
330
1F
100
AcDbEntity
  8
ADSK_CONSTRAINTS
 60
     1
100
AcDbDimension
 10
174.5254637855719
 20
151.8898570628919
 30
0.0
 11
174.5254637855719
 21
151.8898570628919
 31
0.0
 70
   128
  1
d1=20
  3
ISO-25
100
AcDbAlignedDimension
 13
154.5254637855724
 23
157.5988872265568
 33
0.0
 14
174.5254637855724
 24
157.5988872265568
 34
0.0
100
AcDbRotatedDimension
  0
DIMENSION
  5
B34
330
1F
100
AcDbEntity
  8
7标注层
100
AcDbDimension
  2
*D49
 10
173.3307679763034
 20
92.68071461227126
 30
0.0
 11
173.3307679763034
 21
80.53609922765486
 31
0.0
 70
   160
  3
TH-GBD2M
100
AcDbAlignedDimension
 13
174.8966493604421
 23
101.6906529386613
 33
0.0
 14
174.8992316642425
 24
92.68071461227123
 34
0.0
 50
90.0
100
AcDbRotatedDimension
  0
ARC
  5
B35
102
{ACAD_REACTORS
330
B92
102
}
330
1F
100
AcDbEntity
  8
0
  6
CENTER
100
AcDbCircle
 10
179.8966493605318
 20
-907.3067982179467
 30
0.0
 40
1000.0
100
AcDbArc
 50
88.56745626242837
 51
91.43254373757166
  0
DIMENSION
  5
B36
102
{ACAD_REACTORS
330
B71
102
}
102
{ACAD_XDICTIONARY
360
CA9
102
}
330
1F
100
AcDbEntity
  8
ADSK_CONSTRAINTS
 60
     1
100
AcDbDimension
 10
179.8966493605318
 20
-907.306798218129
 30
0.0
 11
423.7187545454906
 21
48.74227988558516
 31
0.0
 70
   132
  1
半径3=1000
  3
ISO-25
100
AcDbRadialDimension
 15
445.0962733202666
 25
56.88672978959391
 35
0.0
 40
0.0
1001
ACAD
1000
DSTYLE
1002
{
1070
   288
1070
     1
1002
}
1001
ACAD_DSTYLE_DIMRADIAL_EXTE
1070
   387
1070
     1
1070
   388
1040
1.357546453390195
1070
   390
1040
1.653637165106711
  0
LINE
  5
B37
102
{ACAD_REACTORS
330
B70
102
}
330
1F
100
AcDbEntity
  8
3中心线层
100
AcDbLine
 10
179.8787816632962
 20
106.2687953605
 30
0.0
 11
179.8787816632962
 21
82.27580836049651
 31
0.0
  0
DIMENSION
  5
B38
330
1F
100
AcDbEntity
  8
7标注层
100
AcDbDimension
  2
*D50
 10
179.8787816632962
 20
115.181159324145
 30
0.0
 11
192.9876135801578
 21
115.181159324145
 31
0.0
 70
   160
  3
TH-GBD2M
100
AcDbAlignedDimension
 13
174.8787816632962
 23
103.4806529386624
 33
0.0
 14
179.8787816632962
 24
103.5318959266122
 34
0.0
100
AcDbRotatedDimension
  0
LINE
  5
B39
330
1F
100
AcDbEntity
  8
3中心线层
100
AcDbLine
 10
201.4070201357158
 20
145.0988872265568
 30
0.0
 11
232.7404801171147
 21
145.0988872265568
 31
0.0
  0
LINE
  5
B3A
330
1F
100
AcDbEntity
  8
3中心线层
100
AcDbLine
 10
204.2897376955834
 20
145.0988872265566
 30
0.0
 11
235.6231976769818
 21
145.0988872265566
 31
0.0
  0
LEADER
  5
B3B
330
1F
100
AcDbEntity
  8
7标注层
100
AcDbLeader
  3
TH-GBD2M
 76
     3
 10
225.5184233655968
 20
145.1106671191046
 30
0.0
 10
230.0843375524569
 20
153.9111514510746
 30
0.0
 10
235.1096495417728
 20
153.9111514510746
 30
0.0
1001
ACAD
1000
DSTYLE
1002
{
1070
     5
1000

1070
   340
1005
2F1
1070
   147
1040
1.5
1070
    77
1070
     0
1002
}
  0
MTEXT
  5
B3C
330
1F
100
AcDbEntity
  8
7标注层
 62
     3
100
AcDbMText
 10
232.6503763776186
 20
156.6067897559294
 30
0.0
 40
2.5
 41
0.0
 71
     5
 72
     1
  1
\A1;S2
  7
TH-GBD2M
  0
LEADER
  5
B3D
330
1F
100
AcDbEntity
  8
7标注层
100
AcDbLeader
  3
TH-GBD2M
 76
     3
 10
216.5046936087483
 20
145.0988868971353
 30
0.0
 10
211.9387794218883
 20
153.8993712291053
 30
0.0
 10
206.9134674325724
 20
153.8993712291053
 30
0.0
211
-1.0
221
0.0
231
0.0
1001
ACAD
1000
DSTYLE
1002
{
1070
     5
1000

1070
   340
1005
2F1
1070
   147
1040
1.5
1070
    77
1070
     0
1002
}
  0
MTEXT
  5
B3E
330
1F
100
AcDbEntity
  8
7标注层
 62
     3
100
AcDbMText
 10
209.2080743651836
 20
157.5171179448705
 30
0.0
 40
2.5
 41
0.0
 71
     5
 72
     1
  1
\A1;S1
  7
TH-GBD2M
  0
LINE
  5
B3F
102
{ACAD_REACTORS
330
B89
102
}
330
1F
100
AcDbEntity
  8
1轮廓实线层
100
AcDbLine
 10
216.5046934378352
 20
157.5988872265098
 30
0.0
 11
216.5046934378352
 21
132.5988872265098
 31
0.0
  0
ARC
  5
B40
102
{ACAD_REACTORS
330
B8F
102
}
330
1F
100
AcDbEntity
  8
1轮廓实线层
100
AcDbCircle
 10
825.5046934378352
 20
145.0988872265098
 30
0.0
 40
600.0
100
AcDbArc
 50
178.8062515628589
 51
181.1937484371411
  0
DIMENSION
  5
B41
330
1F
100
AcDbEntity
  8
7标注层
100
AcDbDimension
  2
*D51
 10
225.504762761092
 20
164.8925052789577
 30
0.0
 11
241.2578396841691
 21
164.8925052789577
 31
0.0
 70
   160
  1
<>%%p0.20
  3
TH-GBD2M
100
AcDbAlignedDimension
 13
216.5046934378361
 23
145.0988872265566
 33
0.0
 14
225.504762761092
 24
145.0988872265566
 34
0.0
100
AcDbRotatedDimension
1001
ACAD_DSTYLE_DIMINSPECT
1070
   396
1000
100%
1070
   395
1000

1070
   394
1070
    33
1070
   393
1070
     0
  0
DIMENSION
  5
B42
330
1F
100
AcDbEntity
  8
7标注层
100
AcDbDimension
  2
*D52
 10
225.634915902745
 20
127.494368451743
 30
0.0
 11
221.0698046702905
 21
127.494368451743
 31
0.0
 70
   160
  3
TH-GBD2M
100
AcDbAlignedDimension
 13
216.5046934378361
 23
132.5988872265566
 33
0.0
 14
225.634915902745
 24
132.5988872265564
 34
0.0
100
AcDbRotatedDimension
  0
LINE
  5
B43
102
{ACAD_REACTORS
330
B7E
102
}
330
1F
100
AcDbEntity
  8
1轮廓实线层
100
AcDbLine
 10
216.5046934378352
 20
132.5988872265098
 30
0.0
 11
225.6349159027436
 21
132.5988872265098
 31
0.0
  0
LINE
  5
B44
102
{ACAD_REACTORS
330
B77
102
}
330
1F
100
AcDbEntity
  8
1轮廓实线层
100
AcDbLine
 10
216.5046934378352
 20
157.5988872265098
 30
0.0
 11
225.6349159027441
 21
157.5988872265098
 31
0.0
  0
DIMENSION
  5
B45
102
{ACAD_REACTORS
330
B8B
102
}
102
{ACAD_XDICTIONARY
360
CAB
102
}
330
1F
100
AcDbEntity
  8
ADSK_CONSTRAINTS
 60
     1
100
AcDbDimension
 10
825.5046934386763
 20
145.0988872265098
 30
0.0
 11
251.2190527791519
 21
94.28602345560097
 31
0.0
 70
   132
  1
半径2=600
  3
TH-GBD2M
100
AcDbRadialDimension
 15
227.8396123733256
 25
92.21740770714331
 35
0.0
 40
0.0
1001
ACAD
1000
DSTYLE
1002
{
1070
   288
1070
     1
1002
}
1001
ACAD_DSTYLE_DIMRADIAL_EXTE
1070
   387
1070
     1
1070
   388
1040
3.019949950077523
1070
   390
1040
3.263235357102063
  0
DIMENSION
  5
B46
102
{ACAD_REACTORS
330
B8D
102
}
102
{ACAD_XDICTIONARY
360
CAD
102
}
330
1F
100
AcDbEntity
  8
ADSK_CONSTRAINTS
 60
     1
100
AcDbDimension
 10
210.6988532909363
 20
135.7308749715396
 30
0.0
 11
210.6988532909363
 21
135.7308749715396
 31
0.0
 70
   128
  1
d3=25
  3
TH-GBD2M
100
AcDbAlignedDimension
 13
221.0698046702896
 23
157.5988872265098
 33
0.0
 14
221.0698046702896
 24
132.5988872265098
 34
0.0
 50
90.0
100
AcDbRotatedDimension
  0
DIMENSION
  5
B47
102
{ACAD_REACTORS
330
B7B
102
}
102
{ACAD_XDICTIONARY
360
CAF
102
}
330
1F
100
AcDbEntity
  8
ADSK_CONSTRAINTS
 60
     1
100
AcDbDimension
 10
225.5046934378352
 20
141.0585589674329
 30
0.0
 11
225.5046934378352
 21
141.0585589674329
 31
0.0
 70
   128
  1
d6=9
  3
TH-GBD2M
100
AcDbAlignedDimension
 13
216.5046934378352
 23
145.0988872265098
 33
0.0
 14
225.5046934378352
 24
145.0988872265098
 34
0.0
100
AcDbRotatedDimension
  0
LINE
  5
B48
330
1F
100
AcDbEntity
  8
0
100
AcDbLine
 10
154.8966493604421
 20
101.6906529386613
 30
0.0
 11
174.8966493604421
 21
101.6906529386613
 31
0.0
  0
LINE
  5
B49
330
1F
100
AcDbEntity
  8
0
100
AcDbLine
 10
174.8966493604421
 20
101.6906529386613
 30
0.0
 11
174.9412962967826
 21
92.68092394468545
 31
0.0
  0
LINE
  5
B4A
330
1F
100
AcDbEntity
  8
6文字层
 62
     0
100
AcDbLine
 10
147.0
 20
9.999999999998181
 30
0.0
 11
26.99999999994907
 21
9.999999999998181
 31
0.0
  0
INSERT
  5
B4B
330
1F
100
AcDbEntity
  8
6文字层
100
AcDbBlockReference
  2
*X40
 10
148.5
 20
105.0
 30
0.0
1001
CAXA_DRAFT_PAPERFRAME
1071
        2
1041
138.5
1041
-95.0
1041
0.0
1000
A4A-D-Sighted(CHS)
1070
     1
1001
CAXA_DRAFT_BLKHIDE
1070
     0
  0
LINE
  5
B4C
330
1F
100
AcDbEntity
  8
1轮廓实线层
100
AcDbLine
 10
147.0
 20
9.999999999998181
 30
0.0
 11
287.0
 21
9.999999999998181
 31
0.0
  0
LINE
  5
B4D
330
1F
100
AcDbEntity
  8
粗实线层
100
AcDbLine
 10
182.0003469713993
 20
15.84100763374863
 30
0.0
 11
287.0
 21
15.841007633755
 31
0.0
  0
LINE
  5
B4E
330
1F
100
AcDbEntity
  8
细实线层
100
AcDbLine
 10
276.7561453540075
 20
15.841007633755
 30
0.0
 11
276.7561453540075
 21
9.999999999998181
 31
0.0
  0
LINE
  5
B4F
330
1F
100
AcDbEntity
  8
细实线层
100
AcDbLine
 10
273.8686453540085
 20
12.92050381687659
 30
0.0
 11
280.4311453540085
 21
12.92050381687659
 31
0.0
  0
CIRCLE
  5
B50
330
1F
100
AcDbEntity
  8
细实线层
100
AcDbCircle
 10
276.7561453540075
 20
12.92050381687659
 30
0.0
 40
2.187499999999943
  0
CIRCLE
  5
B51
330
1F
100
AcDbEntity
  8
细实线层
100
AcDbCircle
 10
276.7561453540075
 20
12.92050381687659
 30
0.0
 40
0.6562499999999829
  0
LINE
  5
B52
330
1F
100
AcDbEntity
  8
3中心线层
 62
     7
 48
0.1
100
AcDbLine
 10
265.144564142629
 20
12.92050381687659
 30
0.0
 11
273.8686453540085
 21
12.92050381687659
 31
0.0
  0
LINE
  5
B53
330
1F
100
AcDbEntity
  8
3中心线层
 62
     7
100
AcDbLine
 10
266.2950959920181
 20
12.59237881687659
 30
0.0
 11
266.2950959920181
 21
13.24862881687386
 31
0.0
  0
LINE
  5
B54
330
1F
100
AcDbEntity
  8
3中心线层
 62
     7
100
AcDbLine
 10
272.4200959920181
 20
10.73300381687659
 30
0.0
 11
272.4200959920181
 21
15.10800381687477
 31
0.0
  0
LINE
  5
B55
330
1F
100
AcDbEntity
  8
细实线层
100
AcDbLine
 10
266.2950959920181
 20
13.24862881687386
 30
0.0
 11
272.4200959920181
 21
15.10800381687477
 31
0.0
  0
LINE
  5
B56
330
1F
100
AcDbEntity
  8
细实线层
100
AcDbLine
 10
266.2950959920181
 20
12.59237881687659
 30
0.0
 11
272.4200959920181
 21
10.73300381687659
 31
0.0
  0
LINE
  5
B57
330
1F
100
AcDbEntity
  8
粗实线层
100
AcDbLine
 10
182.0003469713993
 20
26.33333333332939
 30
0.0
 11
287.0
 21
26.33333333333303
 31
0.0
  0
LINE
  5
B58
330
1F
100
AcDbEntity
  8
粗实线层
100
AcDbLine
 10
182.0003469713993
 20
39.99999999999909
 30
0.0
 11
287.0
 21
40.0
 31
0.0
  0
MTEXT
  5
B59
330
1F
100
AcDbEntity
  8
6文字层
100
AcDbMText
 10
194.1794353788573
 20
21.13543729905632
 30
0.0
 40
2.5
 41
17.84855769230755
 71
     5
 72
     5
  1
{\fSimHei|b1|i0|c134|p49;名称 }
1001
ACDBBLOCKREPETAG
1000

1001
ACAD
1000
ACAD_MTEXT_DEFINED_HEIGHT_BEGIN
1070
    46
1040
4.283653846153733
1000
ACAD_MTEXT_DEFINED_HEIGHT_END
  0
MTEXT
  5
B5A
330
1F
100
AcDbEntity
  8
6文字层
100
AcDbMText
 10
258.4247746021283
 20
33.3388339475614
 30
0.0
 40
3.0
 41
63.12269194006068
 71
     5
 72
     5
  1
{\fSimHei|b1|i0|c134|p49;联合光科技（北京）有限公司}
1001
ACDBBLOCKREPETAG
1000

1001
ACAD
1000
ACAD_MTEXT_DEFINED_HEIGHT_BEGIN
1070
    46
1040
3.808394365490182
1000
ACAD_MTEXT_DEFINED_HEIGHT_END
  0
MTEXT
  5
B5B
330
1F
100
AcDbEntity
  8
6文字层
100
AcDbMText
 10
194.3732816028787
 20
12.98934071260373
 30
0.0
 40
2.5
 41
17.84855769230755
 71
     5
 72
     5
  1
{\fSimHei|b1|i0|c134|p49;产品编号} 
1001
ACDBBLOCKREPETAG
1000

1001
ACAD
1000
ACAD_MTEXT_DEFINED_HEIGHT_BEGIN
1070
    46
1040
4.283653846153733
1000
ACAD_MTEXT_DEFINED_HEIGHT_END
  0
MTEXT
  5
B5C
330
1F
100
AcDbEntity
  8
6文字层
100
AcDbMText
 10
253.431637469479
 20
13.14343400566213
 30
0.0
 40
2.5
 41
17.84855769230755
 71
     5
 72
     5
  1
{\fSimHei|b1|i0|c134|p49;mm }
1001
ACDBBLOCKREPETAG
1000

1001
ACAD
1000
ACAD_MTEXT_DEFINED_HEIGHT_BEGIN
1070
    46
1040
4.283653846153733
1000
ACAD_MTEXT_DEFINED_HEIGHT_END
  0
LINE
  5
B5D
330
1F
100
AcDbEntity
  8
粗实线层
100
AcDbLine
 10
182.0003469713993
 20
9.941096743267735
 30
0.0
 11
182.0003469713993
 21
39.94109674325682
 31
0.0
  0
LINE
  5
B5E
330
1F
100
AcDbEntity
  8
粗实线层
100
AcDbLine
 10
206.7603328645291
 20
9.999999999998181
 30
0.0
 11
206.7603328645291
 21
26.33333333332394
 31
0.0
  0
LINE
  5
B5F
330
1F
100
AcDbEntity
  8
粗实线层
100
AcDbLine
 10
229.6358957687498
 20
26.42852234707152
 30
0.0
 11
229.6358957687498
 21
40.0
 31
0.0
  0
LINE
  5
B60
330
1F
100
AcDbEntity
  8
粗实线层
100
AcDbLine
 10
229.6358957687498
 20
9.999999999991815
 30
0.0
 11
229.6358957687389
 21
15.84100763374499
 31
0.0
  0
MTEXT
  5
B61
330
1F
100
AcDbEntity
  8
6文字层
100
AcDbMText
 10
238.1972593395403
 20
12.82885780604101
 30
0.0
 40
2.5
 41
17.84855769230755
 71
     5
 72
     5
  1
{\fSimHei|b1|i0|c134|p49;单位}
1001
ACAD
1000
ACAD_MTEXT_DEFINED_HEIGHT_BEGIN
1070
    46
1040
3.291666666666666
1000
ACAD_MTEXT_DEFINED_HEIGHT_END
  0
LINE
  5
B62
330
1F
100
AcDbEntity
  8
粗实线层
100
AcDbLine
 10
246.7401531749383
 20
9.999999999998181
 30
0.0
 11
246.7401531749383
 21
15.84100763375227
 31
0.0
  0
LINE
  5
B63
330
1F
100
AcDbEntity
  8
粗实线层
100
AcDbLine
 10
259.3051658955483
 20
9.999999999998181
 30
0.0
 11
259.3051658955483
 21
15.84100763375227
 31
0.0
  0
LINE
  5
B64
330
1F
100
AcDbEntity
  8
0
100
AcDbLine
 10
287.0
 20
9.999999999998181
 30
0.0
 11
187.0
 21
9.999999999998181
 31
0.0
  0
HATCH
  5
B65
330
1F
100
AcDbEntity
  8
3中心线层
 62
     0
100
AcDbHatch
 10
0.0
 20
0.0
 30
0.0
210
0.0
220
0.0
230
1.0
  2
SOLID
 70
     1
 71
     0
 91
       14
 92
        5
 93
        5
 72
     4
 94
        3
 73
     0
 74
     0
 95
        8
 96
        4
 40
7.0
 40
7.0
 40
7.0
 40
7.0
 40
8.0
 40
8.0
 40
8.0
 40
8.0
 10
192.6618587974899
 20
36.25070197904824
 10
192.6618587974899
 20
37.06457350248093
 10
192.0020850279489
 20
37.72435081693493
 10
191.1882099595987
 20
37.72435081693493
 72
     4
 94
        3
 73
     0
 74
     0
 95
        8
 96
        4
 40
0.0
 40
0.0
 40
0.0
 40
0.0
 40
1.0
 40
1.0
 40
1.0
 40
1.0
 10
191.1882099595987
 20
37.72435081693493
 10
191.1882099595987
 20
37.72435081693493
 10
185.5392245201383
 20
37.72435081693493
 10
185.5392245201383
 20
37.72435081693493
 72
     4
 94
        3
 73
     0
 74
     0
 95
       11
 96
        7
 40
1.0
 40
1.0
 40
1.0
 40
1.0
 40
2.0
 40
2.0
 40
2.0
 40
3.0
 40
3.0
 40
3.0
 40
3.0
 10
185.5392245201383
 20
37.72435081693493
 10
184.7253529966983
 20
37.72435081693493
 10
184.0655792271573
 20
37.06457350248093
 10
184.0655792271573
 20
36.25070197904824
 10
184.0655792271573
 20
36.25070197904824
 10
184.0655792271573
 20
30.60171653959333
 10
184.0655792271573
 20
30.60171653959333
 72
     4
 94
        3
 73
     0
 74
     0
 95
       11
 96
        7
 40
3.0
 40
3.0
 40
3.0
 40
3.0
 40
4.0
 40
4.0
 40
4.0
 40
5.0
 40
5.0
 40
5.0
 40
5.0
 10
184.0655792271573
 20
30.60171653959333
 10
184.0655792271573
 20
29.78784147123315
 10
184.7253529966983
 20
29.128067701703
 10
185.5392245201383
 20
29.128067701703
 10
185.5392245201383
 20
29.128067701703
 10
191.1882099595987
 20
29.128067701703
 10
191.1882099595987
 20
29.128067701703
 72
     4
 94
        3
 73
     0
 74
     0
 95
       11
 96
        7
 40
5.0
 40
5.0
 40
5.0
 40
5.0
 40
6.0
 40
6.0
 40
6.0
 40
7.0
 40
7.0
 40
7.0
 40
7.0
 10
191.1882099595987
 20
29.128067701703
 10
192.0020850279489
 20
29.128067701703
 10
192.6618587974899
 20
29.78784147123315
 10
192.6618587974899
 20
30.60171653959333
 10
192.6618587974899
 20
30.60171653959333
 10
192.6618587974899
 20
36.25070197904824
 10
192.6618587974899
 20
36.25070197904824
 97
        0
 92
       20
 93
       12
 72
     4
 94
        3
 73
     0
 74
     0
 95
        8
 96
        4
 40
10.0
 40
10.0
 40
10.0
 40
10.0
 40
11.0
 40
11.0
 40
11.0
 40
11.0
 10
184.9252050572486
 20
33.4262074868584
 10
184.9252050572486
 20
35.32524340482541
 10
186.4647043638888
 20
36.86472144193522
 10
188.3637367369411
 20
36.86472144193522
 72
     4
 94
        3
 73
     0
 74
     0
 95
        8
 96
        4
 40
11.0
 40
11.0
 40
11.0
 40
11.0
 40
12.0
 40
12.0
 40
12.0
 40
12.0
 10
188.3637367369411
 20
36.86472144193522
 10
190.2627655650576
 20
36.86472144193522
 10
191.8022294224902
 20
35.32524340482541
 10
191.8022294224902
 20
33.4262074868584
 72
     4
 94
        3
 73
     0
 74
     0
 95
        8
 96
        4
 40
12.0
 40
12.0
 40
12.0
 40
12.0
 40
13.0
 40
13.0
 40
13.0
 40
13.0
 10
191.8022294224902
 20
33.4262074868584
 10
191.8022294224902
 20
31.52716802397026
 10
190.2627655650576
 20
29.98769353177613
 10
188.3637367369411
 20
29.98769353177613
 72
     4
 94
        3
 73
     0
 74
     0
 95
        8
 96
        4
 40
0.0
 40
0.0
 40
0.0
 40
0.0
 40
1.0
 40
1.0
 40
1.0
 40
1.0
 10
188.3637367369411
 20
29.98769353177613
 10
188.0946452623284
 20
29.98769353177613
 10
187.8332285435681
 20
30.01972899076281
 10
187.5820318345995
 20
30.07842580717261
 72
     4
 94
        3
 73
     0
 74
     0
 95
        8
 96
        4
 40
1.0
 40
1.0
 40
1.0
 40
1.0
 40
2.0
 40
2.0
 40
2.0
 40
2.0
 10
187.5820318345995
 20
30.07842580717261
 10
187.9056371177994
 20
30.29957575834487
 10
188.11810910022
 20
30.67139197904726
 10
188.11810910022
 20
31.09293281888768
 72
     4
 94
        3
 73
     0
 74
     0
 95
        8
 96
        4
 40
2.0
 40
2.0
 40
2.0
 40
2.0
 40
3.0
 40
3.0
 40
3.0
 40
3.0
 10
188.11810910022
 20
31.09293281888768
 10
188.11810910022
 20
31.183693453655
 10
188.1079706236596
 20
31.27204354154401
 10
188.0892888853687
 20
31.357196109906
 72
     4
 94
        3
 73
     0
 74
     0
 95
        8
 96
        4
 40
3.0
 40
3.0
 40
3.0
 40
3.0
 40
4.0
 40
4.0
 40
4.0
 40
4.0
 10
188.0892888853687
 20
31.357196109906
 10
188.1791420201389
 20
31.34529226225004
 10
188.2706222740489
 20
31.33853918607656
 10
188.3637296470988
 20
31.33853918607656
 72
     4
 94
        3
 73
     0
 74
     0
 95
        8
 96
        4
 40
4.0
 40
4.0
 40
4.0
 40
4.0
 40
5.0
 40
5.0
 40
5.0
 40
5.0
 10
188.3637296470988
 20
31.33853918607656
 10
189.5167119420094
 20
31.33853918607656
 10
190.4513873131073
 20
32.27321810209014
 10
190.4513873131073
 20
33.4262074868584
 72
     4
 94
        3
 73
     0
 74
     0
 95
       11
 96
        7
 40
5.0
 40
5.0
 40
5.0
 40
5.0
 40
6.0
 40
6.0
 40
6.0
 40
7.0
 40
7.0
 40
7.0
 40
7.0
 10
190.4513873131073
 20
33.4262074868584
 10
190.4513873131073
 20
34.57919332670099
 10
189.5167119420094
 20
35.51387578763661
 10
188.3637296470988
 20
35.51387578763661
 10
187.2107473521701
 20
35.51387578763661
 10
186.2760507115399
 20
34.57919332670099
 10
186.2760507115399
 20
33.4262074868584
 72
     4
 94
        3
 73
     0
 74
     0
 95
        8
 96
        4
 40
7.0
 40
7.0
 40
7.0
 40
7.0
 40
8.0
 40
8.0
 40
8.0
 40
8.0
 10
186.2760507115399
 20
33.4262074868584
 10
186.2760507115399
 20
33.0067297915466
 10
186.4001158873289
 20
32.61639135404675
 10
186.6130664341981
 20
32.28921278959024
 72
     4
 94
        3
 73
     0
 74
     0
 95
        8
 96
        4
 40
8.0
 40
8.0
 40
8.0
 40
8.0
 40
9.0
 40
9.0
 40
9.0
 40
9.0
 10
186.6130664341981
 20
32.28921278959024
 10
186.1285606920083
 20
32.1774449477989
 10
185.7536143053003
 20
31.77934667631143
 10
185.6766292369284
 20
31.2824620669353
 72
     4
 94
        3
 73
     0
 74
     0
 95
        8
 96
        4
 40
9.0
 40
9.0
 40
9.0
 40
9.0
 40
10.0
 40
10.0
 40
10.0
 40
10.0
 10
185.6766292369284
 20
31.2824620669353
 10
185.2068420103788
 20
31.87036609037659
 10
184.9252050572486
 20
32.61513645170271
 10
184.9252050572486
 20
33.4262074868584
 97
        0
 92
       20
 93
        1
 72
     4
 94
        3
 73
     0
 74
     0
 95
       17
 96
       13
 40
0.0
 40
0.0
 40
0.0
 40
0.0
 40
1.0
 40
1.0
 40
1.0
 40
2.0
 40
2.0
 40
2.0
 40
3.0
 40
3.0
 40
3.0
 40
4.0
 40
4.0
 40
4.0
 40
4.0
 10
186.7672669908388
 20
33.4262074868584
 10
186.7672669908388
 20
34.30790400053138
 10
187.4820331334267
 20
35.02266305326521
 10
188.3637261021777
 20
35.02266305326521
 10
189.2454190709195
 20
35.02266305326521
 10
189.9601710338084
 20
34.30790400053138
 10
189.9601710338084
 20
33.4262074868584
 10
189.9601710338084
 20
32.54451097318542
 10
189.2454190709195
 20
31.82975546537637
 10
188.3637261021777
 20
31.82975546537637
 10
187.4820331334267
 20
31.82975546537637
 10
186.7672669908388
 20
32.54451097318542
 10
186.7672669908388
 20
33.4262074868584
 97
        0
 92
       20
 93
        3
 72
     4
 94
        3
 73
     0
 74
     0
 95
       11
 96
        7
 40
1.0
 40
1.0
 40
1.0
 40
1.0
 40
2.0
 40
2.0
 40
2.0
 40
3.0
 40
3.0
 40
3.0
 40
3.0
 10
186.0304407994408
 20
31.09293281888768
 10
186.0304407994408
 20
31.56769002592137
 10
186.415316512328
 20
31.95255864897081
 10
186.890073719358
 20
31.95255864897081
 10
187.364830926399
 20
31.95255864897081
 10
187.7496960045082
 20
31.56769002592137
 10
187.7496960045082
 20
31.09293281888768
 72
     4
 94
        3
 73
     0
 74
     0
 95
        8
 96
        4
 40
3.0
 40
3.0
 40
3.0
 40
3.0
 40
4.0
 40
4.0
 40
4.0
 40
4.0
 10
187.7496960045082
 20
31.09293281888768
 10
187.7496960045082
 20
30.61817206693831
 10
187.364830926399
 20
30.2333034438916
 10
186.890073719358
 20
30.2333034438916
 72
     4
 94
        3
 73
     0
 74
     0
 95
        8
 96
        4
 40
0.0
 40
0.0
 40
0.0
 40
0.0
 40
1.0
 40
1.0
 40
1.0
 40
1.0
 10
186.890073719358
 20
30.2333034438916
 10
186.415316512328
 20
30.2333034438916
 10
186.0304407994408
 20
30.61817206693831
 10
186.0304407994408
 20
31.09293281888768
 97
        0
 92
        5
 93
       33
 72
     4
 94
        3
 73
     0
 74
     0
 95
       11
 96
        7
 40
5.0
 40
5.0
 40
5.0
 40
5.0
 40
6.0
 40
6.0
 40
6.0
 40
7.0
 40
7.0
 40
7.0
 40
7.0
 10
197.4327506761892
 20
34.32502693008155
 10
197.4327506761892
 20
34.32502693008155
 10
198.2561444363273
 20
34.32502693008155
 10
198.2561444363273
 20
34.32502693008155
 10
198.1278935863393
 20
35.43518281976503
 10
197.2437450432899
 20
36.0075006624802
 10
196.1908979454383
 20
36.0075006624802
 72
     4
 94
        3
 73
     0
 74
     0
 95
        8
 96
        4
 40
4.0
 40
4.0
 40
4.0
 40
4.0
 40
5.0
 40
5.0
 40
5.0
 40
5.0
 10
196.1908979454383
 20
36.0075006624802
 10
194.746598626356
 20
36.0075006624802
 10
193.8827155485687
 20
34.83527263742235
 10
193.8827155485687
 20
33.42861601341701
 72
     4
 94
        3
 73
     0
 74
     0
 95
        8
 96
        4
 40
3.0
 40
3.0
 40
3.0
 40
3.0
 40
4.0
 40
4.0
 40
4.0
 40
4.0
 10
193.8827155485687
 20
33.42861601341701
 10
193.8827155485687
 20
32.02193813182384
 10
194.746598626356
 20
30.84973136434746
 10
196.1908979454383
 20
30.84973136434746
 72
     4
 94
        3
 73
     0
 74
     0
 95
        8
 96
        4
 40
2.0
 40
2.0
 40
2.0
 40
2.0
 40
3.0
 40
3.0
 40
3.0
 40
3.0
 10
196.1908979454383
 20
30.84973136434746
 10
196.7780554708497
 20
30.84973136434746
 10
197.1897731573572
 20
31.02210908549841
 10
197.6419385486497
 20
31.54617222023535
 72
     4
 94
        3
 73
     0
 74
     0
 95
       11
 96
        7
 40
0.5
 40
0.5
 40
0.5
 40
0.5
 40
1.5
 40
1.5
 40
1.5
 40
2.0
 40
2.0
 40
2.0
 40
2.0
 10
197.6419385486497
 20
31.54617222023535
 10
197.6419385486497
 20
31.54617222023535
 10
197.7701893986396
 20
30.96694566382303
 10
197.7701893986396
 20
30.96694566382303
 10
197.7701893986396
 20
30.96694566382303
 10
197.9051711295469
 20
30.96694566382303
 10
198.040152860458
 20
30.96694566382303
 72
     4
 94
        3
 73
     0
 74
     0
 95
       11
 96
        7
 40
14.749965
 40
14.749965
 40
14.749965
 40
14.749965
 40
15.249965
 40
15.249965
 40
15.249965
 40
15.5
 40
15.5
 40
15.5
 40
15.5
 10
198.040152860458
 20
30.96694566382303
 10
198.175134591349
 20
30.96694566382303
 10
198.3101163222473
 20
30.96694566382303
 10
198.3101163222473
 20
30.96694566382303
 10
198.3101163222473
 20
30.96694566382303
 10
198.3101163222473
 20
31.12903359009397
 10
198.3101163222473
 20
31.37215413333979
 72
     4
 94
        3
 73
     0
 74
     0
 95
        8
 96
        4
 40
14.49997
 40
14.49997
 40
14.49997
 40
14.49997
 40
14.749965
 40
14.749965
 40
14.749965
 40
14.749965
 10
198.3101163222473
 20
31.37215413333979
 10
198.3101163222473
 20
31.61523578275319
 10
198.3101163222473
 20
31.93932412440699
 10
198.3101163222473
 20
32.26340274389622
 72
     4
 94
        3
 73
     0
 74
     0
 95
        8
 96
        4
 40
14.3749725
 40
14.3749725
 40
14.3749725
 40
14.3749725
 40
14.49997
 40
14.49997
 40
14.49997
 40
14.49997
 10
198.3101163222473
 20
32.26340274389622
 10
198.3101163222473
 20
32.42544205364266
 10
198.3101163222473
 20
32.58747893285272
 10
198.3101163222473
 20
32.73938632971203
 72
     4
 94
        3
 73
     0
 74
     0
 95
        8
 96
        4
 40
14.18747625
 40
14.18747625
 40
14.18747625
 40
14.18747625
 40
14.3749725
 40
14.3749725
 40
14.3749725
 40
14.3749725
 10
198.3101163222473
 20
32.73938632971203
 10
198.3101163222473
 20
32.96724742500464
 10
198.3101163222473
 20
33.17231718502717
 10
198.3101163222473
 20
33.32041680994917
 72
     4
 94
        3
 73
     0
 74
     0
 95
        8
 96
        4
 40
14.1249775
 40
14.1249775
 40
14.1249775
 40
14.1249775
 40
14.18747625
 40
14.18747625
 40
14.18747625
 40
14.18747625
 10
198.3101163222473
 20
33.32041680994917
 10
198.3101163222473
 20
33.36978335159347
 10
198.3101163222473
 20
33.41281987822549
 10
198.3101163222473
 20
33.44826050836582
 72
     4
 94
        3
 73
     0
 74
     0
 95
        8
 96
        4
 40
14.093728125
 40
14.093728125
 40
14.093728125
 40
14.093728125
 40
14.1249775
 40
14.1249775
 40
14.1249775
 40
14.1249775
 10
198.3101163222473
 20
33.44826050836582
 10
198.3101163222473
 20
33.46598082344099
 10
198.3101163222473
 20
33.48180216438595
 10
198.3101163222473
 20
33.49556629603558
 72
     4
 94
        3
 73
     0
 74
     0
 95
        8
 96
        4
 40
14.06247875
 40
14.06247875
 40
14.06247875
 40
14.06247875
 40
14.093728125
 40
14.093728125
 40
14.093728125
 40
14.093728125
 10
198.3101163222473
 20
33.49556629603558
 10
198.3101163222473
 20
33.5093304276761
 10
198.3101163222473
 20
33.52103735001583
 10
198.3101163222473
 20
33.53052882786415
 72
     4
 94
        3
 73
     0
 74
     0
 95
       11
 96
        7
 40
13.99997958222998
 40
13.99997958222998
 40
13.99997958222998
 40
13.99997958222998
 40
14.0
 40
14.0
 40
14.0
 40
14.00071240722656
 40
14.00071240722656
 40
14.00071240722656
 40
14.00071240722656
 10
198.3101163196898
 20
33.55962648270179
 10
198.3101163213978
 20
33.55962648270179
 10
198.3101163222473
 20
33.55962648270179
 10
198.3101163222473
 20
33.55962648270179
 10
198.3101163222473
 20
33.55962648270179
 10
198.3101163222473
 20
33.5596251668585
 10
198.3101163222473
 20
33.55962253703728
 72
     4
 94
        3
 73
     0
 74
     0
 95
        8
 96
        4
 40
13.49999
 40
13.49999
 40
13.49999
 40
13.49999
 40
13.99997958222998
 40
13.99997958222998
 40
13.99997958222998
 40
13.99997958222998
 10
198.3101163196898
 20
33.55962648270179
 10
198.310074429819
 20
33.55962648270179
 10
197.7971442815888
 20
33.55962648270179
 10
197.2842243915402
 20
33.55962648270179
 72
     4
 94
        3
 73
     0
 74
     0
 95
       11
 96
        7
 40
12.99902343580856
 40
12.99902343580856
 40
12.99902343580856
 40
12.99902343580856
 40
13.49901343580856
 40
13.49901343580856
 40
13.49901343580856
 40
13.49999
 40
13.49999
 40
13.49999
 40
13.49999
 10
197.2842243915402
 20
33.55962648270179
 10
196.7713040729195
 20
33.55962648270179
 10
196.2583940124987
 20
33.55962648270179
 10
196.2583940124987
 20
33.55962648270179
 10
196.2583940124987
 20
33.55962648270179
 10
196.2583940124987
 20
33.55962585797351
 10
196.2583940124987
 20
33.55962460973387
 72
     4
 94
        3
 73
     0
 74
     0
 95
        8
 96
        4
 40
12.906251875
 40
12.906251875
 40
12.906251875
 40
12.906251875
 40
12.93750125
 40
12.93750125
 40
12.93750125
 40
12.93750125
 10
196.2583940124987
 20
33.55226998693524
 10
196.2583940124987
 20
33.54987112850631
 10
196.2583940124987
 20
33.54691253559486
 10
196.2583940124987
 20
33.54343418830922
 72
     4
 94
        3
 73
     0
 74
     0
 95
        8
 96
        4
 40
12.81250375
 40
12.81250375
 40
12.81250375
 40
12.81250375
 40
12.8750024998249
 40
12.8750024998249
 40
12.8750024998249
 40
12.8750024998249
 10
196.2583940124987
 20
33.53147986342901
 10
196.2583940124987
 20
33.52252411166319
 10
196.2583940124987
 20
33.5116492629295
 10
196.2583940124987
 20
33.49917515820289
 72
     4
 94
        3
 73
     0
 74
     0
 95
        8
 96
        4
 40
12.75000499991749
 40
12.75000499991749
 40
12.75000499991749
 40
12.75000499991749
 40
12.81250375
 40
12.81250375
 40
12.81250375
 40
12.81250375
 10
196.2583940124987
 20
33.49917515820289
 10
196.2583940124987
 20
33.48670105341716
 10
196.2583940124987
 20
33.47262769262124
 10
196.2583940124987
 20
33.45727491677917
 72
     4
 94
        3
 73
     0
 74
     0
 95
        8
 96
        4
 40
12.6250075
 40
12.6250075
 40
12.6250075
 40
12.6250075
 40
12.75000499991749
 40
12.75000499991749
 40
12.75000499991749
 40
12.75000499991749
 10
196.2583940124987
 20
33.45727491677917
 10
196.2583940124987
 20
33.42656936515232
 10
196.2583940124987
 20
33.39074615335994
 10
196.2583940124987
 20
33.35236400913072
 72
     4
 94
        3
 73
     0
 74
     0
 95
        8
 96
        4
 40
12.50000999999212
 40
12.50000999999212
 40
12.50000999999212
 40
12.50000999999212
 40
12.6250075
 40
12.6250075
 40
12.6250075
 40
12.6250075
 10
196.2583940124987
 20
33.35236400913072
 10
196.2583940124987
 20
33.31398186487695
 10
196.2583940124987
 20
33.27304078819088
 10
196.2583940124987
 20
33.23209950678574
 72
     4
 94
        3
 73
     0
 74
     0
 95
        8
 96
        4
 40
12.250015
 40
12.250015
 40
12.250015
 40
12.250015
 40
12.50000999999212
 40
12.50000999999212
 40
12.50000999999212
 40
12.50000999999212
 10
196.2583940124987
 20
33.23209950678574
 10
196.2583940124987
 20
33.15021694400366
 10
196.2583940124987
 20
33.06833356241077
 10
196.2583940124987
 20
33.00691918389657
 72
     4
 94
        3
 73
     0
 74
     0
 95
       11
 96
        7
 40
11.99928759277344
 40
11.99928759277344
 40
11.99928759277344
 40
11.99928759277344
 40
12.24930259277344
 40
12.24930259277344
 40
12.24930259277344
 40
12.250015
 40
12.250015
 40
12.250015
 40
12.250015
 10
196.2583940124987
 20
33.00691918389657
 10
196.2583940124987
 20
32.94549989213374
 10
196.2583940124987
 20
32.9045528786819
 10
196.2583940124987
 20
32.9045528786819
 10
196.2583940124987
 20
32.9045528786819
 10
196.2583946633076
 20
32.9045528786819
 10
196.2583959640269
 20
32.9045528786819
 72
     4
 94
        3
 73
     0
 74
     0
 95
        8
 96
        4
 40
11.906271875
 40
11.906271875
 40
11.906271875
 40
11.906271875
 40
11.93752124974706
 40
11.93752124974706
 40
11.93752124974706
 40
11.93752124974706
 10
196.2727857364407
 20
32.9045528786819
 10
196.2774802290987
 20
32.9045528786819
 10
196.2832704823995
 20
32.9045528786819
 10
196.290078233098
 20
32.9045528786819
 72
     4
 94
        3
 73
     0
 74
     0
 95
        8
 96
        4
 40
11.8750225
 40
11.8750225
 40
11.8750225
 40
11.8750225
 40
11.906271875
 40
11.906271875
 40
11.906271875
 40
11.906271875
 10
196.290078233098
 20
32.9045528786819
 10
196.2968859838275
 20
32.9045528786819
 10
196.30471123198
 20
32.9045528786819
 10
196.3134757142689
 20
32.9045528786819
 72
     4
 94
        3
 73
     0
 74
     0
 95
        8
 96
        4
 40
11.81252375
 40
11.81252375
 40
11.81252375
 40
11.81252375
 40
11.8750225
 40
11.8750225
 40
11.8750225
 40
11.8750225
 10
196.3134757142689
 20
32.9045528786819
 10
196.3310046788501
 20
32.9045528786819
 10
196.3522905800291
 20
32.9045528786819
 10
196.3767073118088
 20
32.9045528786819
 72
     4
 94
        3
 73
     0
 74
     0
 95
        8
 96
        4
 40
11.75002499995332
 40
11.75002499995332
 40
11.75002499995332
 40
11.75002499995332
 40
11.81252375
 40
11.81252375
 40
11.81252375
 40
11.81252375
 10
196.3767073118088
 20
32.9045528786819
 10
196.4011240436084
 20
32.9045528786819
 10
196.4286716059978
 20
32.9045528786819
 10
196.4587238929689
 20
32.9045528786819
 72
     4
 94
        3
 73
     0
 74
     0
 95
        8
 96
        4
 40
11.6250275
 40
11.6250275
 40
11.6250275
 40
11.6250275
 40
11.75002499995332
 40
11.75002499995332
 40
11.75002499995332
 40
11.75002499995332
 10
196.4587238929689
 20
32.9045528786819
 10
196.5188284668402
 20
32.9045528786819
 10
196.5889519390075
 20
32.9045528786819
 10
196.6640854614179
 20
32.9045528786819
 72
     4
 94
        3
 73
     0
 74
     0
 95
        8
 96
        4
 40
11.50003
 40
11.50003
 40
11.50003
 40
11.50003
 40
11.6250275
 40
11.6250275
 40
11.6250275
 40
11.6250275
 10
196.6640854614179
 20
32.9045528786819
 10
196.7392189838502
 20
32.9045528786819
 10
196.8193625565091
 20
32.9045528786819
 10
196.8995073313272
 20
32.9045528786819
 72
     4
 94
        3
 73
     0
 74
     0
 95
        8
 96
        4
 40
11.250035
 40
11.250035
 40
11.250035
 40
11.250035
 40
11.50003
 40
11.50003
 40
11.50003
 40
11.50003
 10
196.8995073313272
 20
32.9045528786819
 10
197.0597968809398
 20
32.9045528786819
 10
197.220091239149
 20
32.9045528786819
 10
197.3403196212785
 20
32.9045528786819
 72
     4
 94
        3
 73
     0
 74
     0
 95
       11
 96
        7
 40
10.0
 40
10.0
 40
10.0
 40
10.0
 40
10.250035
 40
10.250035
 40
10.250035
 40
11.250035
 40
11.250035
 40
11.250035
 40
11.250035
 10
197.3403196212785
 20
32.9045528786819
 10
197.4605672403395
 20
32.9045528786819
 10
197.5407360609206
 20
32.9045528786819
 10
197.5407360609206
 20
32.9045528786819
 10
197.5272118797893
 20
32.07021409738627
 10
197.0547810232383
 20
31.53926350653728
 10
196.1908979454383
 20
31.55305967635013
 72
     4
 94
        3
 73
     0
 74
     0
 95
        8
 96
        4
 40
9.0
 40
9.0
 40
9.0
 40
9.0
 40
10.0
 40
10.0
 40
10.0
 40
10.0
 10
196.1908979454383
 20
31.55305967635013
 10
195.1583163128489
 20
31.55305967635013
 10
194.7263747739689
 20
32.48392913118823
 10
194.7263747739689
 20
33.42861601341701
 72
     4
 94
        3
 73
     0
 74
     0
 95
        8
 96
        4
 40
8.0
 40
8.0
 40
8.0
 40
8.0
 40
9.0
 40
9.0
 40
9.0
 40
9.0
 10
194.7263747739689
 20
33.42861601341701
 10
194.7263747739689
 20
34.37328163806797
 10
195.1583163128489
 20
35.30417235047662
 10
196.1908979454383
 20
35.30417235047662
 72
     4
 94
        3
 73
     0
 74
     0
 95
        8
 96
        4
 40
7.0
 40
7.0
 40
7.0
 40
7.0
 40
8.0
 40
8.0
 40
8.0
 40
8.0
 10
196.1908979454383
 20
35.30417235047662
 10
196.7983209361282
 20
35.30417235047662
 10
197.3517304280067
 20
34.97319182040883
 10
197.4327506761892
 20
34.32502693008155
 97
        0
 92
        5
 93
        8
 72
     4
 94
        3
 73
     0
 74
     0
 95
       11
 96
        7
 40
0.5
 40
0.5
 40
0.5
 40
0.5
 40
1.5
 40
1.5
 40
1.5
 40
2.0
 40
2.0
 40
2.0
 40
2.0
 10
199.5447570417182
 20
33.01937972961241
 10
199.5447570417182
 20
33.01937972961241
 10
199.5447570417182
 20
35.88469663157503
 10
199.5447570417182
 20
35.88469663157503
 10
199.5447570417182
 20
35.88469663157503
 10
199.3283343781968
 20
35.88469663157503
 10
199.1119117146773
 20
35.88469663157503
 72
     4
 94
        3
 73
     0
 74
     0
 95
       11
 96
        7
 40
9.5
 40
9.5
 40
9.5
 40
9.5
 40
10.0
 40
10.0
 40
10.0
 40
10.5
 40
10.5
 40
10.5
 40
10.5
 10
199.1119117146773
 20
35.88469663157503
 10
198.8954890511486
 20
35.88469663157503
 10
198.6790663876382
 20
35.88469663157503
 10
198.6790663876382
 20
35.88469663157503
 10
198.6790663876382
 20
35.88469663157503
 10
198.6790663876382
 20
35.0977643328697
 10
198.6790663876382
 20
34.31083203416983
 72
     4
 94
        3
 73
     0
 74
     0
 95
       11
 96
        7
 40
8.0
 40
8.0
 40
8.0
 40
8.0
 40
8.5
 40
8.5
 40
8.5
 40
9.5
 40
9.5
 40
9.5
 40
9.5
 10
198.6790663876382
 20
34.31083203416983
 10
198.6790663876382
 20
33.52389973546906
 10
198.6790663876382
 20
32.73696743676646
 10
198.6790663876382
 20
32.73696743676646
 10
198.6790663876382
 20
31.47651678240345
 10
199.4893729950381
 20
30.84973136434746
 10
200.7082917402076
 20
30.84973136434746
 72
     4
 94
        3
 73
     0
 74
     0
 95
        8
 96
        4
 40
7.0
 40
7.0
 40
7.0
 40
7.0
 40
8.0
 40
8.0
 40
8.0
 40
8.0
 10
200.7082917402076
 20
30.84973136434746
 10
201.9272104853681
 20
30.84973136434746
 10
202.737517092768
 20
31.47651678240345
 10
202.737517092768
 20
32.73696743676646
 72
     4
 94
        3
 73
     0
 74
     0
 95
       11
 96
        7
 40
5.5
 40
5.5
 40
5.5
 40
5.5
 40
6.5
 40
6.5
 40
6.5
 40
7.0
 40
7.0
 40
7.0
 40
7.0
 10
202.737517092768
 20
32.73696743676646
 10
202.737517092768
 20
32.73696743676646
 10
202.737517092768
 20
35.88469663157503
 10
202.737517092768
 20
35.88469663157503
 10
202.737517092768
 20
35.88469663157503
 10
202.521083753827
 20
35.88469663157503
 10
202.3046504148988
 20
35.88469663157503
 72
     4
 94
        3
 73
     0
 74
     0
 95
       11
 96
        7
 40
4.5
 40
4.5
 40
4.5
 40
4.5
 40
5.0
 40
5.0
 40
5.0
 40
5.5
 40
5.5
 40
5.5
 40
5.5
 10
202.3046504148988
 20
35.88469663157503
 10
202.0882170759596
 20
35.88469663157503
 10
201.8717837370277
 20
35.88469663157503
 10
201.8717837370277
 20
35.88469663157503
 10
201.8717837370277
 20
35.88469663157503
 10
201.8717837370277
 20
35.16836740608323
 10
201.8717837370277
 20
34.45203818059144
 72
     4
 94
        3
 73
     0
 74
     0
 95
       11
 96
        7
 40
3.0
 40
3.0
 40
3.0
 40
3.0
 40
3.5
 40
3.5
 40
3.5
 40
4.5
 40
4.5
 40
4.5
 40
4.5
 10
201.8717837370277
 20
34.45203818059144
 10
201.8717837370277
 20
33.73570895510056
 10
201.8717837370277
 20
33.01937972961241
 10
201.8717837370277
 20
33.01937972961241
 10
201.8717837370277
 20
32.35815275223649
 10
201.8302350266076
 20
31.5936010968926
 10
200.7082917402076
 20
31.5936010968926
 72
     4
 94
        3
 73
     0
 74
     0
 95
        8
 96
        4
 40
2.0
 40
2.0
 40
2.0
 40
2.0
 40
3.0
 40
3.0
 40
3.0
 40
3.0
 10
200.7082917402076
 20
31.5936010968926
 10
199.5863057521383
 20
31.5936010968926
 10
199.5447570417182
 20
32.35815275223649
 10
199.5447570417182
 20
33.01937972961241
 97
        0
 92
        5
 93
        1
 72
     4
 94
        3
 73
     0
 74
     0
 95
       17
 96
       13
 40
0.0
 40
0.0
 40
0.0
 40
0.0
 40
1.0
 40
1.0
 40
1.0
 40
2.0
 40
2.0
 40
2.0
 40
3.0
 40
3.0
 40
3.0
 40
4.0
 40
4.0
 40
4.0
 40
4.0
 10
208.8866848314883
 20
33.42205313907289
 10
208.8866848314883
 20
32.02225724819073
 10
208.0121345599382
 20
30.85578535162767
 10
206.550001090558
 20
30.85578535162767
 10
205.0878676211778
 20
30.85578535162767
 10
204.2133173496277
 20
32.02225724819073
 10
204.2133173496277
 20
33.42205313907289
 10
204.2133173496277
 20
34.82182787638067
 10
205.0878676211778
 20
35.98832092652083
 10
206.550001090558
 20
35.98832092652083
 10
208.0121345599382
 20
35.98832092652083
 10
208.8866848314883
 20
34.82182787638067
 10
208.8866848314883
 20
33.42205313907289
 97
        0
 92
       20
 93
        4
 72
     4
 94
        3
 73
     0
 74
     0
 95
        8
 96
        4
 40
2.0
 40
2.0
 40
2.0
 40
2.0
 40
3.0
 40
3.0
 40
3.0
 40
3.0
 10
206.550001090558
 20
35.28843355787103
 10
207.5953751265879
 20
35.28843355787103
 10
208.0326502623702
 20
34.36209710859657
 10
208.0326502623702
 20
33.42205313907289
 72
     4
 94
        3
 73
     0
 74
     0
 95
        8
 96
        4
 40
1.0
 40
1.0
 40
1.0
 40
1.0
 40
2.0
 40
2.0
 40
2.0
 40
2.0
 10
208.0326502623702
 20
33.42205313907289
 10
208.0326502623702
 20
32.48198801597391
 10
207.5953751265879
 20
31.55567272028384
 10
206.550001090558
 20
31.55567272028384
 72
     4
 94
        3
 73
     0
 74
     0
 95
        8
 96
        4
 40
0.0
 40
0.0
 40
0.0
 40
0.0
 40
1.0
 40
1.0
 40
1.0
 40
1.0
 10
206.550001090558
 20
31.55567272028384
 10
205.5046691812204
 20
31.55567272028384
 10
205.067394045449
 20
32.48198801597391
 10
205.067394045449
 20
33.42205313907289
 72
     4
 94
        3
 73
     0
 74
     0
 95
        8
 96
        4
 40
3.0
 40
3.0
 40
3.0
 40
3.0
 40
4.0
 40
4.0
 40
4.0
 40
4.0
 10
205.067394045449
 20
33.42205313907289
 10
205.067394045449
 20
34.36209710859657
 10
205.5046691812204
 20
35.28843355787103
 10
206.550001090558
 20
35.28843355787103
 97
        0
 92
        5
 93
       31
 72
     4
 94
        3
 73
     0
 74
     0
 95
        8
 96
        4
 40
1.0
 40
1.0
 40
1.0
 40
1.0
 40
2.0
 40
2.0
 40
2.0
 40
2.0
 10
213.0681188951185
 20
34.41104720021303
 10
213.0681188951185
 20
35.05395337570008
 10
212.8016692284073
 20
36.0075006624802
 10
211.4078320548888
 20
36.0075006624802
 72
     4
 94
        3
 73
     0
 74
     0
 95
       11
 96
        7
 40
6.749964999999998
 40
6.749964999999998
 40
6.749964999999998
 40
6.749964999999998
 40
7.749964999999998
 40
7.749964999999998
 40
7.749964999999998
 40
8.0
 40
8.0
 40
8.0
 40
8.0
 10
211.4078320548888
 20
36.0075006624802
 10
211.4078320548888
 20
36.0075006624802
 10
209.2556348971284
 20
36.0075006624802
 10
209.2556348971284
 20
36.0075006624802
 10
209.2556348971284
 20
36.0075006624802
 10
209.2556348971284
 20
35.68504981406295
 10
209.2556348971284
 20
35.20139611300328
 72
     4
 94
        3
 73
     0
 74
     0
 95
        8
 96
        4
 40
6.499969999999998
 40
6.499969999999998
 40
6.499969999999998
 40
6.499969999999998
 40
6.749964999999998
 40
6.749964999999998
 40
6.749964999999998
 40
6.749964999999998
 10
209.2556348971284
 20
35.20139611300328
 10
209.2556348971284
 20
34.71781978570198
 10
209.2556348971284
 20
34.07309217931743
 10
209.2556348971284
 20
33.42838391379792
 72
     4
 94
        3
 73
     0
 74
     0
 95
        8
 96
        4
 40
6.3749725
 40
6.3749725
 40
6.3749725
 40
6.3749725
 40
6.499969999999998
 40
6.499969999999998
 40
6.499969999999998
 40
6.499969999999998
 10
209.2556348971284
 20
33.42838391379792
 10
209.2556348971284
 20
33.10602978103816
 10
209.2556348971284
 20
32.78368048348875
 10
209.2556348971284
 20
32.48148234865494
 72
     4
 94
        3
 73
     0
 74
     0
 95
        8
 96
        4
 40
6.249974999999997
 40
6.249974999999997
 40
6.249974999999997
 40
6.249974999999997
 40
6.374972499999997
 40
6.374972499999997
 40
6.374972499999997
 40
6.374972499999997
 10
209.2556348971284
 20
32.48148234865494
 10
209.2556348971284
 20
32.17928421381566
 10
209.2556348971284
 20
31.8972372416838
 10
209.2556348971284
 20
31.65548775975458
 72
     4
 94
        3
 73
     0
 74
     0
 95
        8
 96
        4
 40
6.187476249999998
 40
6.187476249999998
 40
6.187476249999998
 40
6.187476249999998
 40
6.249974999999999
 40
6.249974999999999
 40
6.249974999999999
 40
6.249974999999999
 10
209.2556348971284
 20
31.65548775975458
 10
209.2556348971284
 20
31.53461301879088
 10
209.2556348971284
 20
31.42381265037966
 10
209.2556348971284
 20
31.32560494544668
 72
     4
 94
        3
 73
     0
 74
     0
 95
        8
 96
        4
 40
6.124977499999999
 40
6.124977499999999
 40
6.124977499999999
 40
6.124977499999999
 40
6.187476249999998
 40
6.187476249999998
 40
6.187476249999998
 40
6.187476249999998
 10
209.2556348971284
 20
31.32560494544668
 10
209.2556348971284
 20
31.22739724051917
 10
209.2556348971284
 20
31.14178219908081
 10
209.2556348971284
 20
31.07127811206192
 72
     4
 94
        3
 73
     0
 74
     0
 95
        8
 96
        4
 40
6.093728125
 40
6.093728125
 40
6.093728125
 40
6.093728125
 40
6.124977499999999
 40
6.124977499999999
 40
6.124977499999999
 40
6.124977499999999
 10
209.2556348971284
 20
31.07127811206192
 10
209.2556348971284
 20
31.03602606855475
 10
209.2556348971284
 20
31.00455176364994
 10
209.2556348971284
 20
30.97716998372471
 72
     4
 94
        3
 73
     0
 74
     0
 95
        8
 96
        4
 40
6.06247875
 40
6.06247875
 40
6.06247875
 40
6.06247875
 40
6.093728125
 40
6.093728125
 40
6.093728125
 40
6.093728125
 10
209.2556348971284
 20
30.97716998372471
 10
209.2556348971284
 20
30.94978820379674
 10
209.2556348971284
 20
30.92649894883652
 10
209.2556348971284
 20
30.90761700522216
 72
     4
 94
        3
 73
     0
 74
     0
 95
        8
 96
        4
 40
6.046854062499998
 40
6.046854062499998
 40
6.046854062499998
 40
6.046854062499998
 40
6.062478749999998
 40
6.062478749999998
 40
6.062478749999998
 40
6.062478749999998
 10
209.2556348971284
 20
30.90761700522216
 10
209.2556348971284
 20
30.89817603341544
 10
209.2556348971284
 20
30.88983688943881
 10
209.2556348971284
 20
30.88263892160012
 72
     4
 94
        3
 73
     0
 74
     0
 95
        8
 96
        4
 40
6.031229375000001
 40
6.031229375000001
 40
6.031229375000001
 40
6.031229375000001
 40
6.046854062500001
 40
6.046854062500001
 40
6.046854062500001
 40
6.046854062500001
 10
209.2556348971284
 20
30.88263892160012
 10
209.2556348971284
 20
30.87544095375597
 10
209.2556348971284
 20
30.86938416204339
 10
209.2556348971284
 20
30.86450789475475
 72
     4
 94
        3
 73
     0
 74
     0
 95
       11
 96
        7
 40
5.999979147302425
 40
5.999979147302425
 40
5.999979147302425
 40
5.999979147302425
 40
6.0
 40
6.0
 40
6.0
 40
6.000468271484374
 40
6.000468271484374
 40
6.000468271484374
 40
6.000468271484374
 10
209.2556348982398
 20
30.84973136434746
 10
209.2556348974995
 20
30.84973136434746
 10
209.2556348971284
 20
30.84973136434746
 10
209.2556348971284
 20
30.84973136434746
 10
209.2556348971284
 20
30.84973136434746
 10
209.2556348971284
 20
30.84973249533869
 10
209.2556348971284
 20
30.84973475624793
 72
     4
 94
        3
 73
     0
 74
     0
 95
        8
 96
        4
 40
5.49999
 40
5.49999
 40
5.49999
 40
5.49999
 40
5.999979147302425
 40
5.999979147302425
 40
5.999979147302425
 40
5.999979147302425
 10
209.2556348982398
 20
30.84973136434746
 10
209.2556527071774
 20
30.84973136434746
 10
209.4691701507909
 20
30.84973136434746
 10
209.6826833242467
 20
30.84973136434746
 72
     4
 94
        3
 73
     0
 74
     0
 95
       11
 96
        7
 40
4.999511717945667
 40
4.999511717945667
 40
4.999511717945667
 40
4.999511717945667
 40
5.499501717945666
 40
5.499501717945666
 40
5.499501717945666
 40
5.499989999999998
 40
5.499989999999998
 40
5.499989999999998
 40
5.499989999999998
 10
209.6826833242467
 20
30.84973136434746
 10
209.8961968618278
 20
30.84973136434746
 10
210.1097061292185
 20
30.84973136434746
 10
210.1097061292185
 20
30.84973136434746
 10
210.1097061292185
 20
30.84973136434746
 10
210.1097061292185
 20
30.84973183625425
 10
210.1097061292185
 20
30.84973277961035
 72
     4
 94
        3
 73
     0
 74
     0
 95
        8
 96
        4
 40
4.937501249873328
 40
4.937501249873328
 40
4.937501249873328
 40
4.937501249873328
 40
4.9531259375
 40
4.9531259375
 40
4.9531259375
 40
4.9531259375
 10
210.1097061292185
 20
30.86237038596209
 10
210.1097061292185
 20
30.86513375723371
 10
210.1097061292185
 20
30.86833504028255
 10
210.1097061292185
 20
30.87195913503274
 72
     4
 94
        3
 73
     0
 74
     0
 95
        8
 96
        4
 40
4.906251875000001
 40
4.906251875000001
 40
4.906251875000001
 40
4.906251875000001
 40
4.93750124987333
 40
4.93750124987333
 40
4.93750124987333
 40
4.93750124987333
 10
210.1097061292185
 20
30.87195913503274
 10
210.1097061292185
 20
30.87920732444127
 10
210.1097061292185
 20
30.88814676061338
 10
210.1097061292185
 20
30.89865664296667
 72
     4
 94
        3
 73
     0
 74
     0
 95
        8
 96
        4
 40
4.875002499912453
 40
4.875002499912453
 40
4.875002499912453
 40
4.875002499912453
 40
4.906251875000001
 40
4.906251875000001
 40
4.906251875000001
 40
4.906251875000001
 10
210.1097061292185
 20
30.89865664296667
 10
210.1097061292185
 20
30.90916652539363
 10
210.1097061292185
 20
30.92124685402723
 10
210.1097061292185
 20
30.93477682828234
 72
     4
 94
        3
 73
     0
 74
     0
 95
        8
 96
        4
 40
4.812503749999999
 40
4.812503749999999
 40
4.812503749999999
 40
4.812503749999999
 40
4.875002499912453
 40
4.875002499912453
 40
4.875002499912453
 40
4.875002499912453
 10
210.1097061292185
 20
30.93477682828234
 10
210.1097061292185
 20
30.9618367766825
 10
210.1097061292185
 20
30.99469530752594
 10
210.1097061292185
 20
31.03238601619159
 72
     4
 94
        3
 73
     0
 74
     0
 95
        8
 96
        4
 40
4.750005000000001
 40
4.750005000000001
 40
4.750005000000001
 40
4.750005000000001
 40
4.812503749999999
 40
4.812503749999999
 40
4.812503749999999
 40
4.812503749999999
 10
210.1097061292185
 20
31.03238601619159
 10
210.1097061292185
 20
31.07007672489999
 10
210.1097061292185
 20
31.11259961143787
 10
210.1097061292185
 20
31.15898827116507
 72
     4
 94
        3
 73
     0
 74
     0
 95
        8
 96
        4
 40
4.625007500000001
 40
4.625007500000001
 40
4.625007500000001
 40
4.625007500000001
 40
4.750005000000002
 40
4.750005000000002
 40
4.750005000000002
 40
4.750005000000002
 10
210.1097061292185
 20
31.15898827116507
 10
210.1097061292185
 20
31.25176559061219
 10
210.1097061292185
 20
31.36000600280295
 10
210.1097061292185
 20
31.47597827062873
 72
     4
 94
        3
 73
     0
 74
     0
 95
        8
 96
        4
 40
4.500009999999996
 40
4.500009999999996
 40
4.500009999999996
 40
4.500009999999996
 40
4.625007499999997
 40
4.625007499999997
 40
4.625007499999997
 40
4.625007499999997
 10
210.1097061292185
 20
31.47597827062873
 10
210.1097061292185
 20
31.59195053845269
 10
210.1097061292185
 20
31.71565466189804
 10
210.1097061292185
 20
31.83935940386164
 72
     4
 94
        3
 73
     0
 74
     0
 95
        8
 96
        4
 40
4.250014999999999
 40
4.250014999999999
 40
4.250014999999999
 40
4.250014999999999
 40
4.500009999999996
 40
4.500009999999996
 40
4.500009999999996
 40
4.500009999999996
 10
210.1097061292185
 20
31.83935940386164
 10
210.1097061292185
 20
32.08676888778791
 10
210.1097061292185
 20
32.33418084575351
 10
210.1097061292185
 20
32.51974538083596
 72
     4
 94
        3
 73
     0
 74
     0
 95
       11
 96
        7
 40
3.999287592773436
 40
3.999287592773436
 40
3.999287592773436
 40
3.999287592773436
 40
4.249302592773437
 40
4.249302592773437
 40
4.249302592773437
 40
4.250014999999999
 40
4.250014999999999
 40
4.250014999999999
 40
4.250014999999999
 10
210.1097061292185
 20
32.51974538083596
 10
210.1097061292185
 20
32.70532476137487
 10
210.1097061292185
 20
32.8290468228397
 10
210.1097061292185
 20
32.8290468228397
 10
210.1097061292185
 20
32.8290468228397
 10
210.1097067880492
 20
32.8290468228397
 10
210.1097081047701
 20
32.8290468228397
 72
     4
 94
        3
 73
     0
 74
     0
 95
        8
 96
        4
 40
3.906271874999998
 40
3.906271874999998
 40
3.906271874999998
 40
3.906271874999998
 40
3.937521249747056
 40
3.937521249747056
 40
3.937521249747056
 40
3.937521249747056
 10
210.1242749955982
 20
32.8290468228397
 10
210.1290272710594
 20
32.8290468228397
 10
210.1348887944696
 20
32.8290468228397
 10
210.1417803392469
 20
32.8290468228397
 72
     4
 94
        3
 73
     0
 74
     0
 95
        8
 96
        4
 40
3.875022499912441
 40
3.875022499912441
 40
3.875022499912441
 40
3.875022499912441
 40
3.906271874999998
 40
3.906271874999998
 40
3.906271874999998
 40
3.906271874999998
 10
210.1417803392469
 20
32.8290468228397
 10
210.1486718841188
 20
32.8290468228397
 10
210.1565934503906
 20
32.8290468228397
 10
210.1654658115076
 20
32.8290468228397
 72
     4
 94
        3
 73
     0
 74
     0
 95
        8
 96
        4
 40
3.81252375
 40
3.81252375
 40
3.81252375
 40
3.81252375
 40
3.875022499912441
 40
3.875022499912441
 40
3.875022499912441
 40
3.875022499912441
 10
210.1654658115076
 20
32.8290468228397
 10
210.1832105336598
 20
32.8290468228397
 10
210.2047584351476
 20
32.8290468228397
 10
210.2294757034779
 20
32.8290468228397
 72
     4
 94
        3
 73
     0
 74
     0
 95
        8
 96
        4
 40
3.750024999999998
 40
3.750024999999998
 40
3.750024999999998
 40
3.750024999999998
 40
3.81252375
 40
3.81252375
 40
3.81252375
 40
3.81252375
 10
210.2294757034779
 20
32.8290468228397
 10
210.2541929718409
 20
32.8290468228397
 10
210.2820796070282
 20
32.8290468228397
 10
210.3125017965285
 20
32.8290468228397
 72
     4
 94
        3
 73
     0
 74
     0
 95
        8
 96
        4
 40
3.6250275
 40
3.6250275
 40
3.6250275
 40
3.6250275
 40
3.750024999999998
 40
3.750024999999998
 40
3.750024999999998
 40
3.750024999999998
 10
210.3125017965285
 20
32.8290468228397
 10
210.3733461755382
 20
32.8290468228397
 10
210.4443327718091
 20
32.8290468228397
 10
210.5203910851578
 20
32.8290468228397
 72
     4
 94
        3
 73
     0
 74
     0
 95
        8
 96
        4
 40
3.50003
 40
3.50003
 40
3.50003
 40
3.50003
 40
3.6250275
 40
3.6250275
 40
3.6250275
 40
3.6250275
 10
210.5203910851578
 20
32.8290468228397
 10
210.5964493985193
 20
32.8290468228397
 10
210.6775794289788
 20
32.8290468228397
 10
210.7587106763785
 20
32.8290468228397
 72
     4
 94
        3
 73
     0
 74
     0
 95
        8
 96
        4
 40
3.250035
 40
3.250035
 40
3.250035
 40
3.250035
 40
3.50003
 40
3.50003
 40
3.50003
 40
3.50003
 10
210.7587106763785
 20
32.8290468228397
 10
210.920973171189
 20
32.8290468228397
 10
211.0832405337787
 20
32.8290468228397
 10
211.2049487629065
 20
32.8290468228397
 72
     4
 94
        3
 73
     0
 74
     0
 95
       11
 96
        7
 40
2.0
 40
2.0
 40
2.0
 40
2.0
 40
2.250035
 40
2.250035
 40
2.250035
 40
3.250035
 40
3.250035
 40
3.250035
 40
3.250035
 10
211.2049487629065
 20
32.8290468228397
 10
211.3266764657292
 20
32.8290468228397
 10
211.4078320548888
 20
32.8290468228397
 10
211.4078320548888
 20
32.8290468228397
 10
212.8016692284073
 20
32.8218091455019
 10
213.0681188951185
 20
33.77535643228384
 10
213.0681188951185
 20
34.41104720021303
 97
        0
 92
       20
 93
       11
 72
     4
 94
        3
 73
     0
 74
     0
 95
        8
 96
        4
 40
3.250015000000001
 40
3.250015000000001
 40
3.250015000000001
 40
3.250015000000001
 40
3.500009999937033
 40
3.500009999937033
 40
3.500009999937033
 40
3.500009999937033
 10
210.74166786559
 20
35.2706828398268
 10
210.8996598794893
 20
35.2706828398268
 10
211.0576534732681
 20
35.2706828398268
 10
211.1761522233683
 20
35.2706828398268
 72
     4
 94
        3
 73
     0
 74
     0
 95
       11
 96
        7
 40
2.0
 40
2.0
 40
2.0
 40
2.0
 40
2.250015
 40
2.250015
 40
2.250015
 40
3.250015
 40
3.250015
 40
3.250015
 40
3.250015
 10
211.1761522233683
 20
35.2706828398268
 10
211.2946604535882
 20
35.2706828398268
 10
211.3736675205491
 20
35.2706828398268
 10
211.3736675205491
 20
35.2706828398268
 10
211.8246309485585
 20
35.2706828398268
 10
212.2140476630393
 20
35.09729036061435
 10
212.2140476630393
 20
34.41826260777361
 72
     4
 94
        3
 73
     0
 74
     0
 95
        8
 96
        4
 40
1.0
 40
1.0
 40
1.0
 40
1.0
 40
2.0
 40
2.0
 40
2.0
 40
2.0
 10
212.2140476630393
 20
34.41826260777361
 10
212.2140476630393
 20
33.76814102472144
 10
211.7426107902775
 20
33.56586464549582
 10
211.3600185573778
 20
33.56586464549582
 72
     4
 94
        3
 73
     0
 74
     0
 95
       11
 96
        7
 40
4.49999
 40
4.49999
 40
4.49999
 40
4.49999
 40
5.49999
 40
5.49999
 40
5.49999
 40
6.0
 40
6.0
 40
6.0
 40
6.0
 10
211.3600185573778
 20
33.56586464549582
 10
211.3600185573778
 20
33.56586464549582
 10
210.1097061292185
 20
33.56586464549582
 10
210.1097061292185
 20
33.56586464549582
 10
210.1097061292185
 20
33.56586464549582
 10
210.1097061292185
 20
33.9920862424342
 10
210.1097061292185
 20
34.41829931493521
 72
     4
 94
        3
 73
     0
 74
     0
 95
       11
 96
        7
 40
3.999267592773436
 40
3.999267592773436
 40
3.999267592773436
 40
3.999267592773436
 40
4.499257592773438
 40
4.499257592773438
 40
4.499257592773438
 40
4.49999
 40
4.49999
 40
4.49999
 40
4.49999
 10
210.1097061292185
 20
34.41829931493521
 10
210.1097061292185
 20
34.84449533925635
 10
210.1097061292185
 20
35.2706828398268
 10
210.1097061292185
 20
35.2706828398268
 10
210.1097061292185
 20
35.2706828398268
 10
210.1097068072377
 20
35.2706828398268
 10
210.1097081622702
 20
35.2706828398268
 72
     4
 94
        3
 73
     0
 74
     0
 95
        8
 96
        4
 40
3.906251875
 40
3.906251875
 40
3.906251875
 40
3.906251875
 40
3.937501249746713
 40
3.937501249746713
 40
3.937501249746713
 40
3.937501249746713
 10
210.1239004527906
 20
35.2706828398268
 10
210.1285290386495
 20
35.2706828398268
 10
210.1342376295288
 20
35.2706828398268
 10
210.1409490839505
 20
35.2706828398268
 72
     4
 94
        3
 73
     0
 74
     0
 95
        8
 96
        4
 40
3.8750025
 40
3.8750025
 40
3.8750025
 40
3.8750025
 40
3.906251875
 40
3.906251875
 40
3.906251875
 40
3.906251875
 10
210.1409490839505
 20
35.2706828398268
 10
210.1476605383978
 20
35.2706828398268
 10
210.1553748564274
 20
35.2706828398268
 10
210.1640148965889
 20
35.2706828398268
 72
     4
 94
        3
 73
     0
 74
     0
 95
        8
 96
        4
 40
3.812503749999999
 40
3.812503749999999
 40
3.812503749999999
 40
3.812503749999999
 40
3.8750025
 40
3.8750025
 40
3.8750025
 40
3.8750025
 10
210.1640148965889
 20
35.2706828398268
 10
210.1812949768791
 20
35.2706828398268
 10
210.2022779456292
 20
35.2706828398268
 10
210.2263466712193
 20
35.2706828398268
 72
     4
 94
        3
 73
     0
 74
     0
 95
        8
 96
        4
 40
3.750004999953268
 40
3.750004999953268
 40
3.750004999953268
 40
3.750004999953268
 40
3.812503749999999
 40
3.812503749999999
 40
3.812503749999999
 40
3.812503749999999
 10
210.2263466712193
 20
35.2706828398268
 10
210.2504153968275
 20
35.2706828398268
 10
210.2775698792793
 20
35.2706828398268
 10
210.3071929869475
 20
35.2706828398268
 72
     4
 94
        3
 73
     0
 74
     0
 95
        8
 96
        4
 40
3.625007499999998
 40
3.625007499999998
 40
3.625007499999998
 40
3.625007499999998
 40
3.750004999953268
 40
3.750004999953268
 40
3.750004999953268
 40
3.750004999953268
 10
210.3071929869475
 20
35.2706828398268
 10
210.3664392022183
 20
35.2706828398268
 10
210.43555991834
 20
35.2706828398268
 10
210.5096180823984
 20
35.2706828398268
 72
     4
 94
        3
 73
     0
 74
     0
 95
        8
 96
        4
 40
3.500009999937033
 40
3.500009999937033
 40
3.500009999937033
 40
3.500009999937033
 40
3.625007499999998
 40
3.625007499999998
 40
3.625007499999998
 40
3.625007499999998
 10
210.5096180823984
 20
35.2706828398268
 10
210.5836762465187
 20
35.2706828398268
 10
210.6626718585685
 20
35.2706828398268
 10
210.74166786559
 20
35.2706828398268
 97
        0
 92
        7
 72
     0
 73
     1
 93
        8
 10
217.3717970626894
 20
36.0075006624802
 10
213.4370689592397
 20
36.0075006624802
 10
213.4370689592397
 20
35.22732358513895
 10
214.9755772384269
 20
35.22732358513895
 10
214.9755772384269
 20
30.84973136434746
 10
215.8264892106981
 20
30.84973136434746
 10
215.8264892106981
 20
35.22732358513895
 10
217.3717970626894
 20
35.22732358513895
 97
        0
 92
        7
 72
     0
 73
     1
 93
        4
 10
218.6007119832193
 20
36.0075006624802
 10
217.7404715399571
 20
36.0075006624802
 10
217.7404715399571
 20
30.84973136434746
 10
218.6007119832193
 20
30.84973136434746
 97
        0
 92
        5
 93
        9
 72
     4
 94
        3
 73
     0
 74
     0
 95
       11
 96
        7
 40
8.0
 40
8.0
 40
8.0
 40
8.0
 40
8.5
 40
8.5
 40
8.5
 40
9.5
 40
9.5
 40
9.5
 40
9.5
 10
222.9586207235679
 20
34.32502693008155
 10
223.1726301818398
 20
34.32502693008155
 10
223.3866396401281
 20
34.32502693008155
 10
223.3866396401281
 20
34.32502693008155
 10
223.2839049660197
 20
35.38690685420352
 10
222.4141438410497
 20
36.00061320636723
 10
221.3115512352069
 20
36.0075006624802
 72
     4
 94
        3
 73
     0
 74
     0
 95
        8
 96
        4
 40
7.0
 40
7.0
 40
7.0
 40
7.0
 40
8.0
 40
8.0
 40
8.0
 40
8.0
 10
221.3115512352069
 20
36.0075006624802
 10
219.8459881161889
 20
36.0075006624802
 10
218.9693864580586
 20
34.83527263742235
 10
218.9693864580586
 20
33.42861601341701
 72
     4
 94
        3
 73
     0
 74
     0
 95
        8
 96
        4
 40
6.0
 40
6.0
 40
6.0
 40
6.0
 40
7.0
 40
7.0
 40
7.0
 40
7.0
 10
218.9693864580586
 20
33.42861601341701
 10
218.9693864580586
 20
32.02193813182384
 10
219.8459881161889
 20
30.84973136434746
 10
221.3115512352069
 20
30.84973136434746
 72
     4
 94
        3
 73
     0
 74
     0
 95
        8
 96
        4
 40
5.0
 40
5.0
 40
5.0
 40
5.0
 40
6.0
 40
6.0
 40
6.0
 40
6.0
 10
221.3115512352069
 20
30.84973136434746
 10
222.4963569156389
 20
30.84973136434746
 10
223.324990390558
 20
31.66338651970818
 10
223.3934801732903
 20
32.84250200088354
 72
     4
 94
        3
 73
     0
 74
     0
 95
       11
 96
        7
 40
3.0
 40
3.0
 40
3.0
 40
3.0
 40
4.0
 40
4.0
 40
4.0
 40
5.0
 40
5.0
 40
5.0
 40
5.0
 10
223.3934801732903
 20
32.84250200088354
 10
223.3934801732903
 20
32.84250200088354
 10
222.5579639396892
 20
32.84250200088354
 10
222.5579639396892
 20
32.84250200088354
 10
222.4895163824767
 20
32.12537751906621
 10
222.0717371529063
 20
31.55305967635013
 10
221.3115512352069
 20
31.55305967635013
 72
     4
 94
        3
 73
     0
 74
     0
 95
        8
 96
        4
 40
2.0
 40
2.0
 40
2.0
 40
2.0
 40
3.0
 40
3.0
 40
3.0
 40
3.0
 10
221.3115512352069
 20
31.55305967635013
 10
220.2637673457593
 20
31.55305967635013
 10
219.8254665166787
 20
32.48392913118823
 10
219.8254665166787
 20
33.42861601341701
 72
     4
 94
        3
 73
     0
 74
     0
 95
        8
 96
        4
 40
1.0
 40
1.0
 40
1.0
 40
1.0
 40
2.0
 40
2.0
 40
2.0
 40
2.0
 10
219.8254665166787
 20
33.42861601341701
 10
219.8254665166787
 20
34.37328163806797
 10
220.2637673457593
 20
35.30417235047662
 10
221.3115512352069
 20
35.30417235047662
 72
     4
 94
        3
 73
     0
 74
     0
 95
        8
 96
        4
 40
0.0
 40
0.0
 40
0.0
 40
0.0
 40
1.0
 40
1.0
 40
1.0
 40
1.0
 10
221.3115512352069
 20
35.30417235047662
 10
222.0238111952003
 20
35.30417235047662
 10
222.3867817083792
 20
34.89043605909683
 10
222.5306018070096
 20
34.32502693008155
 72
     4
 94
        3
 73
     0
 74
     0
 95
        8
 96
        4
 40
9.5
 40
9.5
 40
9.5
 40
9.5
 40
10.0
 40
10.0
 40
10.0
 40
10.0
 10
222.5306018070096
 20
34.32502693008155
 10
222.5306018070096
 20
34.32502693008155
 10
222.7446112652906
 20
34.32502693008155
 10
222.9586207235679
 20
34.32502693008155
 97
        0
 92
        5
 93
       15
 72
     4
 94
        3
 73
     0
 74
     0
 95
        8
 96
        4
 40
13.0
 40
13.0
 40
13.0
 40
13.0
 40
14.0
 40
14.0
 40
14.0
 40
14.0
 10
225.8386489072291
 20
30.84973136434746
 10
226.8281328781286
 20
30.84973136434746
 10
227.817573885879
 20
31.29103873777331
 10
227.817573885879
 20
32.39430717133837
 72
     4
 94
        3
 73
     0
 74
     0
 95
        8
 96
        4
 40
12.0
 40
12.0
 40
12.0
 40
12.0
 40
13.0
 40
13.0
 40
13.0
 40
13.0
 10
227.817573885879
 20
32.39430717133837
 10
227.817573885879
 20
32.9045528786819
 10
227.5040289239078
 20
33.45618709546488
 10
226.8490129619186
 20
33.64926970012493
 72
     4
 94
        3
 73
     0
 74
     0
 95
        8
 96
        4
 40
11.0
 40
11.0
 40
11.0
 40
11.0
 40
12.0
 40
12.0
 40
12.0
 40
12.0
 10
226.8490129619186
 20
33.64926970012493
 10
226.5911911865078
 20
33.72511674773796
 10
225.4902608424491
 20
34.00782131224787
 10
225.4136146089404
 20
34.02850493817914
 72
     4
 94
        3
 73
     0
 74
     0
 95
        8
 96
        4
 40
10.0
 40
10.0
 40
10.0
 40
10.0
 40
11.0
 40
11.0
 40
11.0
 40
11.0
 10
225.4136146089404
 20
34.02850493817914
 10
225.0582235530783
 20
34.12505686930035
 10
224.8213248245993
 20
34.3181182163853
 10
224.8213248245993
 20
34.66289491626958
 72
     4
 94
        3
 73
     0
 74
     0
 95
        8
 96
        4
 40
9.0
 40
9.0
 40
9.0
 40
9.0
 40
10.0
 40
10.0
 40
10.0
 40
10.0
 10
224.8213248245993
 20
34.66289491626958
 10
224.8213248245993
 20
35.15936571137627
 10
225.3299653843569
 20
35.30417235047662
 10
225.7341195988574
 20
35.30417235047662
 72
     4
 94
        3
 73
     0
 74
     0
 95
        8
 96
        4
 40
8.0
 40
8.0
 40
8.0
 40
8.0
 40
9.0
 40
9.0
 40
9.0
 40
9.0
 10
225.7341195988574
 20
35.30417235047662
 10
226.3333694111079
 20
35.30417235047662
 10
226.7654067004787
 20
35.06972249394676
 10
226.8072098311986
 20
34.43535377343778
 72
     4
 94
        3
 73
     0
 74
     0
 95
       11
 96
        7
 40
6.0
 40
6.0
 40
6.0
 40
6.0
 40
7.0
 40
7.0
 40
7.0
 40
8.0
 40
8.0
 40
8.0
 40
8.0
 10
226.8072098311986
 20
34.43535377343778
 10
226.8072098311986
 20
34.43535377343778
 10
227.6782444378478
 20
34.43535377343778
 10
227.6782444378478
 20
34.43535377343778
 10
227.6782444378478
 20
35.46275390181017
 10
226.8072098311986
 20
36.0075006624802
 10
225.7689627016498
 20
36.0075006624802
 72
     4
 94
        3
 73
     0
 74
     0
 95
        8
 96
        4
 40
5.0
 40
5.0
 40
5.0
 40
5.0
 40
6.0
 40
6.0
 40
6.0
 40
6.0
 10
225.7689627016498
 20
36.0075006624802
 10
224.8700879832595
 20
36.0075006624802
 10
223.9502902179593
 20
35.54550966312308
 10
223.9502902179593
 20
34.55945552903086
 72
     4
 94
        3
 73
     0
 74
     0
 95
        8
 96
        4
 40
4.0
 40
4.0
 40
4.0
 40
4.0
 40
5.0
 40
5.0
 40
5.0
 40
5.0
 10
223.9502902179593
 20
34.55945552903086
 10
223.9502902179593
 20
34.04920982169006
 10
224.2011519654188
 20
33.5389428567687
 10
225.051263525158
 20
33.31140171393781
 72
     4
 94
        3
 73
     0
 74
     0
 95
        8
 96
        4
 40
3.0
 40
3.0
 40
3.0
 40
3.0
 40
4.0
 40
4.0
 40
4.0
 40
4.0
 10
225.051263525158
 20
33.31140171393781
 10
225.7341195988574
 20
33.12520656539709
 10
226.1870369720091
 20
33.03556334796849
 10
226.5354679999291
 20
32.9045528786819
 72
     4
 94
        3
 73
     0
 74
     0
 95
        8
 96
        4
 40
2.0
 40
2.0
 40
2.0
 40
2.0
 40
3.0
 40
3.0
 40
3.0
 40
3.0
 10
226.5354679999291
 20
32.9045528786819
 10
226.7375236256194
 20
32.82870583107069
 10
226.9465822423572
 20
32.67701173584828
 10
226.9465822423572
 20
32.29775524021898
 72
     4
 94
        3
 73
     0
 74
     0
 95
        8
 96
        4
 40
1.0
 40
1.0
 40
1.0
 40
1.0
 40
2.0
 40
2.0
 40
2.0
 40
2.0
 10
226.9465822423572
 20
32.29775524021898
 10
226.9465822423572
 20
31.92540745828501
 10
226.6608773921089
 20
31.55305967635013
 10
225.8944150569569
 20
31.55305967635013
 72
     4
 94
        3
 73
     0
 74
     0
 95
        8
 96
        4
 40
0.0
 40
0.0
 40
0.0
 40
0.0
 40
1.0
 40
1.0
 40
1.0
 40
1.0
 10
225.8944150569569
 20
31.55305967635013
 10
225.1975959642568
 20
31.55305967635013
 10
224.6331892547769
 20
31.84956041067562
 10
224.6331892547769
 20
32.60805214435914
 72
     4
 94
        3
 73
     0
 74
     0
 95
        8
 96
        4
 40
15.5
 40
15.5
 40
15.5
 40
15.5
 40
16.0
 40
16.0
 40
16.0
 40
16.0
 10
224.6331892547769
 20
32.60805214435914
 10
224.6331892547769
 20
32.60805214435914
 10
224.4154306031196
 20
32.60805214435914
 10
224.1976719514569
 20
32.60805214435914
 72
     4
 94
        3
 73
     0
 74
     0
 95
       11
 96
        7
 40
14.0
 40
14.0
 40
14.0
 40
14.0
 40
14.5
 40
14.5
 40
14.5
 40
15.5
 40
15.5
 40
15.5
 40
15.5
 10
224.1976719514569
 20
32.60805214435914
 10
223.9799132997996
 20
32.60805214435914
 10
223.7621546481296
 20
32.60805214435914
 10
223.7621546481296
 20
32.60805214435914
 10
223.7830776950686
 20
31.3875694113176
 10
224.7028324972289
 20
30.84973136434746
 10
225.8386489072291
 20
30.84973136434746
 97
        0
 75
     1
 76
     1
 47
0.0244899890509677
 98
       14
 10
185.2888855928904
 20
36.81031742969481
 10
185.2888855928904
 20
36.81031742969481
 10
185.2888855928904
 20
36.81031742969481
 10
185.2888855928904
 20
36.81031742969481
 10
196.2122221199897
 20
35.52802127778705
 10
199.4144547605592
 20
34.75756560612717
 10
206.5601719246897
 20
35.73545195180031
 10
206.5601719246897
 20
35.73545195180031
 10
211.0077170877776
 20
35.73545195180031
 10
211.0077170877776
 20
35.73545195180031
 10
215.8110645093093
 20
35.67618649195811
 10
218.3016864757083
 20
35.0835287643913
 10
221.6225208953074
 20
35.58728673762835
 10
225.2991575733395
 20
31.32015172498086
1001
GRADIENTCOLOR1ACI
1070
     5
1001
GRADIENTCOLOR2ACI
1070
     2
1001
ACAD
1010
0.0
1020
0.0
1030
0.0
  0
MTEXT
  5
B66
330
1F
100
AcDbEntity
  8
6文字层
100
AcDbMText
 10
217.9586460285391
 20
12.98934071260373
 30
0.0
 40
2.5
 41
17.84855769230755
 71
     5
 72
     5
  1
{\fSimHei|b1|i0|c134|p49;270650}
1001
ACDBBLOCKREPETAG
1000

1001
ACAD
1000
ACAD_MTEXT_DEFINED_HEIGHT_BEGIN
1070
    46
1040
4.283653846153733
1000
ACAD_MTEXT_DEFINED_HEIGHT_END
  0
MTEXT
  5
B67
330
1F
100
AcDbEntity
  8
6文字层
100
AcDbMText
 10
245.5932871021887
 20
21.13543729905609
 30
0.0
 40
2.5
 41
71.44564321082993
 71
     5
 72
     5
  1
{\fSimHei|b1|i0|c134|p49;K9偏心平凹球面反射镜 金膜^J25.00X20.00mm F=500.00mm}
1001
ACDBBLOCKREPETAG
1000

1001
ACAD
1000
ACAD_MTEXT_DEFINED_HEIGHT_BEGIN
1070
    46
1040
4.283653846153733
1000
ACAD_MTEXT_DEFINED_HEIGHT_END
  0
LINE
  5
B68
330
1F
100
AcDbEntity
  8
6文字层
 62
     0
100
AcDbLine
 10
147.0000007298586
 20
10.00000025367171
 30
0.0
 11
27.00000072979856
 21
10.0000002536699
 31
0.0
  0
MTEXT
  5
B69
102
{ACAD_XDICTIONARY
360
B6A
102
}
330
1F
100
AcDbEntity
  8
6文字层
100
AcDbMText
 10
21.04260072708712
 20
70.86418703472486
 30
0.0
 40
2.5
 41
114.6703060300538
 71
     1
 72
     5
  1
{\fSimSun|b1|i0|c134|p49;\C1;注：}\P{\fSimSun|b1|i0|c134|p49;\C1;1：本图仅供参考,禁止使用本图加工生产.}\P{\fSimSun|b1|i0|c134|p49;\C1;2：图纸细节如有更改不再另行通知.}
  7
标准
1001
ACAD
1000
ACAD_MTEXT_COLUMN_INFO_BEGIN
1070
    75
1070
     2
1070
    79
1070
     0
1070
    76
1070
     1
1070
    78
1070
     0
1070
    48
1040
114.6703060300538
1070
    49
1040
1.0
1070
    50
1070
     1
1040
-12.28937728937729
1000
ACAD_MTEXT_COLUMN_INFO_END
  0
INSERT
  5
B6B
330
1F
100
AcDbEntity
  8
2细线层
100
AcDbBlockReference
  2
*T53
 10
10.0
 20
41.66666666666629
 30
0.0
  0
MTEXT
  5
B6C
330
1F
100
AcDbEntity
  8
6文字层
100
AcDbMText
 10
26.12401889801549
 20
163.7511217848771
 30
0.0
 40
2.5
 41
73.0012707428877
 71
     1
 72
     1
  3
{\fSimSun|b1|i0|c134|p34;\W1;注释：\fSimSun|b1|i0|c0|p34; \P1.\fSimSun|b1|i0|c134|p34;材料：精退火\fSimSun|b1|i0|c0|p34;K9\fSimSun|b1|i0|c134|p34;光学玻璃\fSimSun|b1|i0|c0|p34; Nd=1.5168                                                \P2.\fSimSun|b1
  3
|i0|c134|p34;表面面型：\fSimSun|b1|i0|c0|p34;\U+03BB/4 @ 633 nm            \P3.\fSimSun|b1|i0|c134|p34;焦距：500\fSimSun|b1|i0|c0|p34;.00\U+00B12%mm \P4.\fSimSun|b1|i0|c134|p34;镀膜：镀金+保护    \P\fSimSun|b1|i0|c0|p34;5.\fSimSun|b1|i0|c134|p34;倒
  1
边：\fSimSun|b1|i0|c0|p34;0.2~0.5mmX45\U+00B0}
  7
TH-GBD2M
1001
ACAD
1000
ACAD_MTEXT_DEFINED_HEIGHT_BEGIN
1070
    46
1040
26.01190476190477
1000
ACAD_MTEXT_DEFINED_HEIGHT_END
  0
ENDSEC
  0
SECTION
  2
OBJECTS
  0
DICTIONARY
  5
C
330
0
100
AcDbDictionary
  3
ACAD_ASSOCNETWORK
350
B20
  3
ACAD_CIP_PREVIOUS_PRODUCT_INFO
350
216
  3
ACAD_COLOR
350
6B
  3
ACAD_DETAILVIEWSTYLE
350
21B
  3
ACAD_GROUP
350
D
  3
ACAD_LAYOUT
350
1A
  3
ACAD_MATERIAL
350
6A
  3
ACAD_MLEADERSTYLE
350
12D
  3
ACAD_MLINESTYLE
350
17
  3
ACAD_PLOTSETTINGS
350
19
  3
ACAD_RENDER_ACTIVE_RAPIDRT
350
588
  3
ACAD_RENDER_RAPIDRT_SETTINGS
350
581
  3
ACAD_SCALELIST
350
10C
  3
ACAD_SECTIONVIEWSTYLE
350
219
  3
ACAD_VISUALSTYLE
350
EF
  3
ACDB_RECOMPOSE_DATA
350
CB8
  3
ACDBHEADERROUNDTRIPXREC
350
C7D
  3
ACDBVARIABLEDICTIONARY
350
5E
  3
DWGPROPS
350
CA2
  0
DICTIONARY
  5
CB2
330
8
100
AcDbDictionary
280
     1
  3
ACAD_XREC_ROUNDTRIP
360
CB3
  0
DICTIONARY
  5
1FF
330
2
100
AcDbDictionary
280
     1
  3
ACAD_LAYERSTATES
360
200
  0
DICTIONARY
  5
1CE
330
1F
100
AcDbDictionary
280
     1
  3
ACAD_ASSOCNETWORK
360
C10
  0
DICTIONARY
  5
CA3
330
B30
100
AcDbDictionary
280
     1
  3
ACAD_XREC_ROUNDTRIP
360
CA4
  0
DICTIONARY
  5
CA5
330
B32
100
AcDbDictionary
280
     1
  3
ACAD_XREC_ROUNDTRIP
360
CA6
  0
DICTIONARY
  5
CA7
330
B33
100
AcDbDictionary
280
     1
  3
ACAD_XREC_ROUNDTRIP
360
CA8
  0
DICTIONARY
  5
CA9
330
B36
100
AcDbDictionary
280
     1
  3
ACAD_XREC_ROUNDTRIP
360
CAA
  0
DICTIONARY
  5
CAB
330
B45
100
AcDbDictionary
280
     1
  3
ACAD_XREC_ROUNDTRIP
360
CAC
  0
DICTIONARY
  5
CAD
330
B46
100
AcDbDictionary
280
     1
  3
ACAD_XREC_ROUNDTRIP
360
CAE
  0
DICTIONARY
  5
CAF
330
B47
100
AcDbDictionary
280
     1
  3
ACAD_XREC_ROUNDTRIP
360
CB0
  0
DICTIONARY
  5
B6A
330
B69
100
AcDbDictionary
280
     1
  3
ACAD_MTEXT_RT
360
CB1
  0
DICTIONARY
  5
B20
102
{ACAD_REACTORS
330
C
102
}
330
C
100
AcDbDictionary
  3
ACAD_ASSOCNETWORK
350
B21
  0
XRECORD
  5
216
102
{ACAD_REACTORS
330
C
102
}
330
C
100
AcDbXrecord
300
ACD
300
2021
300

  0
DICTIONARY
  5
6B
102
{ACAD_REACTORS
330
C
102
}
330
C
100
AcDbDictionary
  0
DICTIONARY
  5
21B
102
{ACAD_REACTORS
330
C
102
}
330
C
100
AcDbDictionary
  3
METRIC50
350
21C
  0
DICTIONARY
  5
D
102
{ACAD_REACTORS
330
C
102
}
330
C
100
AcDbDictionary
  0
DICTIONARY
  5
1A
102
{ACAD_REACTORS
330
C
102
}
330
C
100
AcDbDictionary
  0
DICTIONARY
  5
6A
102
{ACAD_REACTORS
330
C
102
}
330
C
100
AcDbDictionary
  3
BYBLOCK
350
ED
  3
BYLAYER
350
EC
  3
GLOBAL
350
EE
  0
DICTIONARY
  5
12D
102
{ACAD_REACTORS
330
C
102
}
330
C
100
AcDbDictionary
  3
ANNOTATIVE
350
13B
  3
STANDARD
350
12E
  0
DICTIONARY
  5
17
102
{ACAD_REACTORS
330
C
102
}
330
C
100
AcDbDictionary
  3
STANDARD
350
18
  0
DICTIONARY
  5
19
102
{ACAD_REACTORS
330
C
102
}
330
C
100
AcDbDictionary
  3
PL
350
561
  0
ACAD_PROXY_OBJECT
  5
588
102
{ACAD_REACTORS
330
C
102
}
330
C
100
AcDbProxyObject
 90
      499
 91
      525
 93
      375
310
40902D6D0B911D3A6D3C3203520B8F6E4D6C8BEBCB6B1F090390540501408000000000000084000000000000002102
  0
DICTIONARY
  5
581
102
{ACAD_REACTORS
330
C
102
}
330
C
100
AcDbDictionary
  3
茶歇质量
350
585
  3
低
350
582
  3
高
350
584
  3
午餐质量
350
586
  3
夜间质量
350
587
  3
中
350
583
  0
DICTIONARY
  5
10C
102
{ACAD_REACTORS
330
C
102
}
330
C
100
AcDbDictionary
  3
A0
350
10D
  3
A1
350
1BE
  3
A2
350
1BF
  3
A3
350
1C0
  3
A4
350
1C1
  3
A5
350
1C2
  3
A6
350
1C3
  3
A7
350
1C4
  3
A8
350
1C5
  3
A9
350
1C6
  3
B0
350
1C7
  3
B1
350
1C8
  3
B2
350
1C9
  3
B3
350
1CA
  3
B4
350
1CB
  3
B5
350
1CC
  3
B6
350
1CD
  0
DICTIONARY
  5
219
102
{ACAD_REACTORS
330
C
102
}
330
C
100
AcDbDictionary
  3
METRIC50
350
21A
  0
DICTIONARY
  5
EF
102
{ACAD_REACTORS
330
C
102
}
330
C
100
AcDbDictionary
  3
2DWIREFRAME
350
F5
  3
BASIC
350
F4
  3
BRIGHTEN
350
FB
  3
COLORCHANGE
350
FF
  3
CONCEPTUAL
350
F8
  3
DIM
350
FA
  3
EDGECOLOROFF
350
1E6
  3
FACEPATTERN
350
FE
  3
FLAT
350
F0
  3
FLATWITHEDGES
350
F1
  3
GOURAUD
350
F2
  3
GOURAUDWITHEDGES
350
F3
  3
HIDDEN
350
F7
  3
JITTEROFF
350
1E4
  3
LINEPATTERN
350
FD
  3
OVERHANGOFF
350
1E5
  3
REALISTIC
350
F9
  3
SHADED
350
1F3
  3
SHADED_WITH_EDGES
350
1F2
  3
SHADES_OF_GRAY
350
1EF
  3
SKETCHY
350
1F0
  3
THICKEN
350
FC
  3
WIREFRAME
350
F6
  3
X-RAY
350
1F1
  0
XRECORD
  5
CB8
102
{ACAD_REACTORS
330
C
102
}
330
C
100
AcDbXrecord
 90
        1
330
B69
  0
DICTIONARY
  5
C7D
102
{ACAD_REACTORS
330
C
102
}
330
C
100
AcDbDictionary
  3
CEPSNID
350
C87
  3
CEPSNTYPE
350
C86
  3
COLORDICT
350
CA0
  3
DIMSTYLEDATA
350
C9D
  3
FINGERPRINTGUID
350
C88
  3
HYPERLINKBASE
350
C80
  3
INSUNITS
350
C85
  3
LAYOUTDICT
350
C82
  3
LWETCUNION
350
C84
  3
MATERIALDICT
350
CA1
  3
PLOTSETDICT
350
C83
  3
PSVPSCALE
350
C8A
  3
PUCSBASE
350
C8D
  3
PUCSORGBACK
350
C93
  3
PUCSORGBOTTOM
350
C8F
  3
PUCSORGFRONT
350
C92
  3
PUCSORGLEFT
350
C90
  3
PUCSORGRIGHT
350
C91
  3
PUCSORGTOP
350
C8E
  3
PUCSORTHOREF
350
C8B
  3
PUCSORTHOVIEW
350
C8C
  3
STYLESHEET
350
C81
  3
TSTACKALIGN
350
C7E
  3
TSTACKSIZE
350
C7F
  3
UCSBASE
350
C96
  3
UCSORGBACK
350
C9C
  3
UCSORGBOTTOM
350
C98
  3
UCSORGFRONT
350
C9B
  3
UCSORGLEFT
350
C99
  3
UCSORGRIGHT
350
C9A
  3
UCSORGTOP
350
C97
  3
UCSORTHOREF
350
C94
  3
UCSORTHOVIEW
350
C95
  3
VERSIONGUID
350
C89
  0
DICTIONARY
  5
5E
102
{ACAD_REACTORS
330
C
102
}
330
C
100
AcDbDictionary
  3
CANNOSCALE
350
146
  3
CENTEREXE
350
259
  3
CENTERLTYPEFILE
350
25A
  3
CMLEADERSTYLE
350
145
  3
CTABLESTYLE
350
84
  3
CVIEWDETAILSTYLE
350
227
  3
CVIEWSECTIONSTYLE
350
228
  3
DIMASSOC
350
5F
  3
HIDETEXT
350
63
  3
LAYEREVAL
350
1AE
  3
LAYERNOTIFY
350
1AF
  3
MSLTSCALE
350
CB4
  3
PSOLHEIGHT
350
C9F
  3
PSOLWIDTH
350
C9E
  0
XRECORD
  5
CA2
102
{ACAD_REACTORS
330
C
102
}
330
C
100
AcDbXrecord
  1
DWGPROPS COOKIE
  2

  3

  4

  6

  7

  8
MSI
  9

300
=
301
=
302
=
303
=
304
=
305
=
306
=
307
=
308
=
309
=
 40
0.0
 41
2460229.317152778
 42
2460669.129091574
  1

 90
        0
  0
XRECORD
  5
CB3
102
{ACAD_REACTORS
330
CB2
102
}
330
CB2
100
AcDbXrecord
102
VTR_0.000_0.000_1.000_1.000_VISUALSTYLE
340
F5
102
VTR_0.000_0.000_1.000_1.000_GRIDDISPLAY
 70
     3
102
VTR_0.000_0.000_1.000_1.000_GRIDMAJOR
 70
     5
102
VTR_0.000_0.000_1.000_1.000_DEFAULTLIGHTING
280
     1
102
VTR_0.000_0.000_1.000_1.000_DEFAULTLIGHTINGTYPE
 70
     1
102
VTR_0.000_0.000_1.000_1.000_BRIGHTNESS
141
0.0
102
VTR_0.000_0.000_1.000_1.000_CONTRAST
142
0.0
  0
DICTIONARY
  5
200
102
{ACAD_REACTORS
330
1FF
102
}
330
1FF
100
AcDbDictionary
  0
DICTIONARY
  5
C10
102
{ACAD_REACTORS
330
1CE
102
}
330
1CE
100
AcDbDictionary
  3
ACAD_ASSOCNETWORK
350
C11
  0
XRECORD
  5
CA4
102
{ACAD_REACTORS
330
CA3
102
}
330
CA3
100
AcDbXrecord
102
ISDYNAMIC
 70
     1
  0
XRECORD
  5
CA6
102
{ACAD_REACTORS
330
CA5
102
}
330
CA5
100
AcDbXrecord
102
ISDYNAMIC
 70
     1
  0
XRECORD
  5
CA8
102
{ACAD_REACTORS
330
CA7
102
}
330
CA7
100
AcDbXrecord
102
ISDYNAMIC
 70
     1
  0
XRECORD
  5
CAA
102
{ACAD_REACTORS
330
CA9
102
}
330
CA9
100
AcDbXrecord
102
ISDYNAMIC
 70
     1
  0
XRECORD
  5
CAC
102
{ACAD_REACTORS
330
CAB
102
}
330
CAB
100
AcDbXrecord
102
ISDYNAMIC
 70
     1
  0
XRECORD
  5
CAE
102
{ACAD_REACTORS
330
CAD
102
}
330
CAD
100
AcDbXrecord
102
ISDYNAMIC
 70
     1
  0
XRECORD
  5
CB0
102
{ACAD_REACTORS
330
CAF
102
}
330
CAF
100
AcDbXrecord
102
ISDYNAMIC
 70
     1
  0
XRECORD
  5
CB1
102
{ACAD_REACTORS
330
B6A
102
}
330
B6A
100
AcDbXrecord
 40
116758.0
  1
\pxqj;{\fSimSun|b1|i0|c134|p49;\C1;注：\P1：本图仅供参考,禁止使用本图加工生产.\P2：图纸细节如有更改不再另行通知.}
  0
ACAD_PROXY_OBJECT
  5
B21
102
{ACAD_REACTORS
330
B20
102
}
330
B20
100
AcDbProxyObject
 90
      499
 91
      529
 93
       52
310
40AAAAA4090140
330
0
360
0
330
C11
 94
        0
1001
ACAD
1000
AcadProxyRoundTripData
1071
      523
1071
 11403297
1070
     0
  0
ACAD_PROXY_OBJECT
  5
21C
102
{ACAD_REACTORS
330
21B
102
}
330
21B
100
AcDbProxyObject
 90
      499
 91
      516
 93
      877
310
9084D65747269633530481E0000000000000A20500E0000000000000A20233E0000000000000A20400000000000017202029B929E2E20B1AB30B9102B34B2BBA232BA30B4B624B21F129014129E2E20B1AB30B9102B34B2BBA9B1B0B632902E33101112B9B7111F1294A33A33800
340
11
340
0
340
16
340
11
340
16
340
16
 94
        0
  0
MATERIAL
  5
ED
102
{ACAD_REACTORS
330
6A
102
}
102
{ACAD_XDICTIONARY
360
1F9
102
}
330
6A
100
AcDbMaterial
  1
BYBLOCK
 73
     2
 78
     2
172
     2
176
     2
270
     2
274
     2
  0
MATERIAL
  5
EC
102
{ACAD_REACTORS
330
6A
102
}
102
{ACAD_XDICTIONARY
360
1F7
102
}
330
6A
100
AcDbMaterial
  1
BYLAYER
 73
     2
 78
     2
172
     2
176
     2
270
     2
274
     2
  0
MATERIAL
  5
EE
102
{ACAD_REACTORS
330
6A
102
}
102
{ACAD_XDICTIONARY
360
173
102
}
330
6A
100
AcDbMaterial
  1
GLOBAL
 73
     2
 43
0.0007999999797903
 43
0.0
 43
0.0
 43
0.0
 43
0.0
 43
0.0007999999797903
 43
0.0
 43
0.0
 43
0.0
 43
0.0
 43
1.0
 43
0.0
 43
0.0
 43
0.0
 43
0.0
 43
1.0
 78
     2
172
     2
 49
0.0007999999797903
 49
0.0
 49
0.0
 49
0.0
 49
0.0
 49
0.0007999999797903
 49
0.0
 49
0.0
 49
0.0
 49
0.0
 49
1.0
 49
0.0
 49
0.0
 49
0.0
 49
0.0
 49
1.0
176
     2
142
0.0007999999797903
142
0.0
142
0.0
142
0.0
142
0.0
142
0.0007999999797903
142
0.0
142
0.0
142
0.0
142
0.0
142
1.0
142
0.0
142
0.0
142
0.0
142
0.0
142
1.0
270
     2
144
0.0007999999797903
144
0.0
144
0.0
144
0.0
144
0.0
144
0.0007999999797903
144
0.0
144
0.0
144
0.0
144
0.0
144
1.0
144
0.0
144
0.0
144
0.0
144
0.0
144
1.0
274
     2
1001
ACAD
1070
    -1
1070
     3
1070
     0
1000

1071
        0
1070
     0
  0
ACAD_PROXY_OBJECT
  5
13B
102
{ACAD_REACTORS
330
12D
102
}
330
12D
100
AcDbProxyObject
 90
      499
 91
      508
 93
      610
310
40901902A4063FBFFFFFE0000000000000020400000000000020404214DD185B99185C990000000000000104090140501A00000000000004100000000000000041025766000000000000039000
340
14
340
0
340
11
340
0
 94
        0
1001
ACAD_MLEADERVER
1070
     2
  0
ACAD_PROXY_OBJECT
  5
12E
102
{ACAD_REACTORS
330
12D
102
}
330
12D
100
AcDbProxyObject
 90
      499
 91
      508
 93
      610
310
40901902A4063FBFFFFFE0000000000000020400000000000020404214DD185B99185C990000000000000104090140501A00000000000004100000000000000041025764000000000000039000
340
14
340
0
340
11
340
0
 94
        0
1001
ACAD_MLEADERVER
1070
     2
  0
MLINESTYLE
  5
18
102
{ACAD_REACTORS
330
17
102
}
330
17
100
AcDbMlineStyle
  2
STANDARD
 70
     0
  3

 62
   256
 51
90.0
 52
90.0
 71
     2
 49
0.5
 62
   256
  6
BYLAYER
 49
-0.5
 62
   256
  6
BYLAYER
  0
PLOTSETTINGS
  5
561
102
{ACAD_REACTORS
330
19
102
}
330
19
100
AcDbPlotSettings
  1
pl
  2
欧普特图纸.pc3
  4
A4
  6

 40
0.0
 41
0.0
 42
0.0
 43
0.0
 44
210.0156707763672
 45
297.0106506347656
 46
0.0412210865271589
 47
0.0
 48
0.0
 49
0.0
140
0.0
141
0.0
142
1.0
143
0.8110454222886687
 70
 11956
 72
     1
 73
     1
 74
     1
  7
monochrome.ctb
 75
     0
147
1.232976566439553
148
-3405.159833246818
149
-1444.619257885125
1001
ACAD_PSEXT
1000
欧普特图纸.pc3
1000
Microsoft Print To PDF
1000
PORTPROMPT:
1000

1070
     0
  0
ACAD_PROXY_OBJECT
  5
585
102
{ACAD_REACTORS
330
581
102
}
330
581
100
AcDbProxyObject
 90
      499
 91
      525
 93
      399
310
40908B2E8D0AAD6CAC1BFB90CE4D6C8BE20313020B7D6D6D340D034050142901408000000000000084000000000000002102
  0
ACAD_PROXY_OBJECT
  5
582
102
{ACAD_REACTORS
330
581
102
}
330
581
100
AcDbProxyObject
 90
      499
 91
      525
 93
      367
310
40902B5CDB911D3A6D3C3203120B8F6E4D6C8BEBCB6B1F0903901406408000000000000084000000000000002102
  0
ACAD_PROXY_OBJECT
  5
584
102
{ACAD_REACTORS
330
581
102
}
330
581
100
AcDbProxyObject
 90
      499
 91
      525
 93
      391
310
40902B8DFB912D3A6D3C320313020B8F6E4D6C8BEBCB6B1F04090390A40502408000000000000084000000000000002102
  0
ACAD_PROXY_OBJECT
  5
586
102
{ACAD_REACTORS
330
581
102
}
330
581
100
AcDbProxyObject
 90
      499
 91
      525
 93
      399
310
40908CEE7B2CDD6CAC1BFB90CE4D6C8BE20363020B7D6D6D341103405014F102408000000000000084000000000000002102
  0
ACAD_PROXY_OBJECT
  5
587
102
{ACAD_REACTORS
330
581
102
}
330
581
100
AcDbProxyObject
 90
      499
 91
      525
 93
      423
310
40908D2B9BCE4D6CAC1BFB90CE4D6C8BE20313220D0A1CAB1415034050134008000102408000000000000084000000000000002102
  0
ACAD_PROXY_OBJECT
  5
583
102
{ACAD_REACTORS
330
581
102
}
330
581
100
AcDbProxyObject
 90
      499
 91
      525
 93
      383
310
40902D6D0B911D3A6D3C3203520B8F6E4D6C8BEBCB6B1F04050390540501408000000000000084000000000000002102
  0
ACAD_PROXY_OBJECT
  5
10D
102
{ACAD_REACTORS
330
10C
102
}
330
10C
100
AcDbProxyObject
 90
      499
 91
      507
 93
       41
310
903313A31580
  0
ACAD_PROXY_OBJECT
  5
1BE
102
{ACAD_REACTORS
330
10C
102
}
330
10C
100
AcDbProxyObject
 90
      499
 91
      507
 93
      105
310
903313A324000000000000004000
  0
ACAD_PROXY_OBJECT
  5
1BF
102
{ACAD_REACTORS
330
10C
102
}
330
10C
100
AcDbProxyObject
 90
      499
 91
      507
 93
      105
310
903313A344000000000000104000
  0
ACAD_PROXY_OBJECT
  5
1C0
102
{ACAD_REACTORS
330
10C
102
}
330
10C
100
AcDbProxyObject
 90
      499
 91
      507
 93
      105
310
903313A354000000000000144000
  0
ACAD_PROXY_OBJECT
  5
1C1
102
{ACAD_REACTORS
330
10C
102
}
330
10C
100
AcDbProxyObject
 90
      499
 91
      507
 93
      105
310
903313A384000000000000204000
  0
ACAD_PROXY_OBJECT
  5
1C2
102
{ACAD_REACTORS
330
10C
102
}
330
10C
100
AcDbProxyObject
 90
      499
 91
      507
 93
      113
310
904313A31304000000000000244000
  0
ACAD_PROXY_OBJECT
  5
1C3
102
{ACAD_REACTORS
330
10C
102
}
330
10C
100
AcDbProxyObject
 90
      499
 91
      507
 93
      113
310
904313A31364000000000000304000
  0
ACAD_PROXY_OBJECT
  5
1C4
102
{ACAD_REACTORS
330
10C
102
}
330
10C
100
AcDbProxyObject
 90
      499
 91
      507
 93
      113
310
904313A32304000000000000344000
  0
ACAD_PROXY_OBJECT
  5
1C5
102
{ACAD_REACTORS
330
10C
102
}
330
10C
100
AcDbProxyObject
 90
      499
 91
      507
 93
      113
310
904313A333040000000000003E4000
  0
ACAD_PROXY_OBJECT
  5
1C6
102
{ACAD_REACTORS
330
10C
102
}
330
10C
100
AcDbProxyObject
 90
      499
 91
      507
 93
      113
310
904313A34304000000000000444000
  0
ACAD_PROXY_OBJECT
  5
1C7
102
{ACAD_REACTORS
330
10C
102
}
330
10C
100
AcDbProxyObject
 90
      499
 91
      507
 93
      113
310
904313A35304000000000000494000
  0
ACAD_PROXY_OBJECT
  5
1C8
102
{ACAD_REACTORS
330
10C
102
}
330
10C
100
AcDbProxyObject
 90
      499
 91
      507
 93
      121
310
905313A3130304000000000000594000
  0
ACAD_PROXY_OBJECT
  5
1C9
102
{ACAD_REACTORS
330
10C
102
}
330
10C
100
AcDbProxyObject
 90
      499
 91
      507
 93
      105
310
903323A310000000000000010100
  0
ACAD_PROXY_OBJECT
  5
1CA
102
{ACAD_REACTORS
330
10C
102
}
330
10C
100
AcDbProxyObject
 90
      499
 91
      507
 93
      105
310
903343A310000000000000410100
  0
ACAD_PROXY_OBJECT
  5
1CB
102
{ACAD_REACTORS
330
10C
102
}
330
10C
100
AcDbProxyObject
 90
      499
 91
      507
 93
      105
310
903383A310000000000000810100
  0
ACAD_PROXY_OBJECT
  5
1CC
102
{ACAD_REACTORS
330
10C
102
}
330
10C
100
AcDbProxyObject
 90
      499
 91
      507
 93
      113
310
90431303A310000000000000910100
  0
ACAD_PROXY_OBJECT
  5
1CD
102
{ACAD_REACTORS
330
10C
102
}
330
10C
100
AcDbProxyObject
 90
      499
 91
      507
 93
      121
310
9053130303A310000000000001650100
  0
ACAD_PROXY_OBJECT
  5
21A
102
{ACAD_REACTORS
330
219
102
}
330
219
100
AcDbProxyObject
 90
      499
 91
      515
 93
     2015
310
9084D657472696335304B360000000000000A2060000000000000A202209258409E5840A25840A65840B05840B40000000000001220233A65800000000000028800000000000000A2060000000000000A2040000000000001720202AC929E2E20B1AB30B9102B34B2BBA9B2B1BA34B7B729BA30B93A24B21F1296929E2E20B
310
1AB30B9102B34B2BBA9B2B1BA34B7B722B73224B21F129014129E2E20B1AB30B9102B34B2BBA9B1B0B632902E33101112B9B7111F1294E0080A0C829CA6926662C400000000000002204000000000000022020D0305A88A9F643F27E32B9969C2960E81F87FA0718D4DE3E87E32B9969C2960E85F9E5129FC49EA5FA7E
340
11
340
0
340
0
340
16
340
16
340
11
 94
        0
  0
ACAD_PROXY_OBJECT
  5
F5
102
{ACAD_REACTORS
330
EF
102
}
330
EF
100
AcDbProxyObject
 90
      499
 91
      506
 93
      444
310
42CC9915DA5C99599C985B59504902404333333333333E33F0000000000000F90107901411070040501600405405064090741402480A0340
1001
ACAD
1000
AcDbSavedByObjectVersion
1070
     0
  0
ACAD_PROXY_OBJECT
  5
F4
102
{ACAD_REACTORS
330
EF
102
}
330
EF
100
AcDbProxyObject
 90
      499
 91
      506
 93
      388
310
4150985CDA58D07406404333333333333E33F0000000000000F90107A41107004050150841D405064090741402480A0350
1001
ACAD
1000
AcDbSavedByObjectVersion
1070
     0
  0
ACAD_PROXY_OBJECT
  5
FB
102
{ACAD_REACTORS
330
EF
102
}
330
EF
100
AcDbProxyObject
 90
      499
 91
      506
 93
      436
310
42109C9A59DA1D195B90C40902404333333333333E33F0000000000000F9010790141107004050150841D405064090741402480A029950
1001
ACAD
1000
AcDbSavedByObjectVersion
1070
     0
  0
ACAD_PROXY_OBJECT
  5
FF
102
{ACAD_REACTORS
330
EF
102
}
330
EF
100
AcDbProxyObject
 90
      499
 91
      506
 93
      452
310
42D0DBDB1BDC90DA185B99D95104090240C333333333333E33F0000000000000F90108901411070040501508421405064090741402480A0350
1001
ACAD
1000
AcDbSavedByObjectVersion
1070
     0
  0
ACAD_PROXY_OBJECT
  5
F8
102
{ACAD_REACTORS
330
EF
102
}
330
EF
100
AcDbProxyObject
 90
      499
 91
      506
 93
      508
310
4290DBDB98D95C1D1D585B10940D02404333333333333E33F0000000000000F90107902409070040501000000000000111010841D405064090740C02480A0340
1001
ACAD
1000
AcDbSavedByObjectVersion
1070
     0
  0
ACAD_PROXY_OBJECT
  5
FA
102
{ACAD_REACTORS
330
EF
102
}
330
EF
100
AcDbProxyObject
 90
      499
 91
      506
 93
      420
310
40D11A5B50B40902404333333333333E33F0000000000000F9010790141107004050150841D405064090741402480A02677FFFFFD0
1001
ACAD
1000
AcDbSavedByObjectVersion
1070
     0
  0
ACAD_PROXY_OBJECT
  5
1E6
102
{ACAD_REACTORS
330
EF
102
}
330
EF
100
AcDbProxyObject
 90
      499
 91
      506
 93
      452
310
43115919D950DBDB1BDC93D999916409028333333333333E33F0000000000000F9010790141107004050150841D405064090741402480A0350
1001
ACAD
1000
AcDbSavedByObjectVersion
1070
     0
  0
ACAD_PROXY_OBJECT
  5
FE
102
{ACAD_REACTORS
330
EF
102
}
330
EF
100
AcDbProxyObject
 90
      499
 91
      506
 93
      452
310
42D19858D95C185D1D195C9B90F40902404333333333333E33F0000000000000F9010790141107004050150841D405064090741402480A0350
1001
ACAD
1000
AcDbSavedByObjectVersion
1070
     0
  0
ACAD_PROXY_OBJECT
  5
F0
102
{ACAD_REACTORS
330
EF
102
}
330
EF
100
AcDbProxyObject
 90
      499
 91
      506
 93
      380
310
41119B185D240901404333333333333E33F0000000000000F9010740A907004050150841D405064090741402480A1B50
1001
ACAD
1000
AcDbSavedByObjectVersion
1070
     0
  0
ACAD_PROXY_OBJECT
  5
F1
102
{ACAD_REACTORS
330
EF
102
}
330
EF
100
AcDbProxyObject
 90
      499
 91
      506
 93
      468
310
43519B185D15DA5D1A115919D95CD0140901404333333333333E33F0000000000000F90107409019070040501600405405064090741402480A1B50
1001
ACAD
1000
AcDbSavedByObjectVersion
1070
     0
  0
ACAD_PROXY_OBJECT
  5
F2
102
{ACAD_REACTORS
330
EF
102
}
330
EF
100
AcDbProxyObject
 90
      499
 91
      506
 93
      404
310
41D1DBDD5C985D5910240902404333333333333E33F0000000000000F9010740A9070040501641D405064090741402480A1B50
1001
ACAD
1000
AcDbSavedByObjectVersion
1070
     0
  0
ACAD_PROXY_OBJECT
  5
F3
102
{ACAD_REACTORS
330
EF
102
}
330
EF
100
AcDbProxyObject
 90
      499
 91
      506
 93
      492
310
4411DBDD5C985D5915DA5D1A115919D95CD0340902404333333333333E33F0000000000000F90107409019070040501600405405064090741402480A1B50
1001
ACAD
1000
AcDbSavedByObjectVersion
1070
     0
  0
ACAD_PROXY_OBJECT
  5
F7
102
{ACAD_REACTORS
330
EF
102
}
330
EF
100
AcDbProxyObject
 90
      499
 91
      506
 93
      476
310
41921A5919195B90640502408333333333333E33F0000000000000F901079024090700405020000000000001110200405405064090740C02480A0340
1001
ACAD
1000
AcDbSavedByObjectVersion
1070
     0
  0
ACAD_PROXY_OBJECT
  5
1E4
102
{ACAD_REACTORS
330
EF
102
}
330
EF
100
AcDbProxyObject
 90
      499
 91
      506
 93
      428
310
42529A5D1D195C93D999914409028333333333333E33F0000000000000F9010790141107004050150A41D405064090741402480A0350
1001
ACAD
1000
AcDbSavedByObjectVersion
1070
     0
  0
ACAD_PROXY_OBJECT
  5
FD
102
{ACAD_REACTORS
330
EF
102
}
330
EF
100
AcDbProxyObject
 90
      499
 91
      506
 93
      452
310
42D31A5B995C185D1D195C9B90E40902404333333333333E33F0000000000000F9010790141107004050750841D405064090741402483A0350
1001
ACAD
1000
AcDbSavedByObjectVersion
1070
     0
  0
ACAD_PROXY_OBJECT
  5
1E5
102
{ACAD_REACTORS
330
EF
102
}
330
EF
100
AcDbProxyObject
 90
      499
 91
      506
 93
      444
310
42D3DD995C9A185B99D3D999915409028333333333333E33F0000000000000F9010790141107004050150941D405064090741402480A0350
1001
ACAD
1000
AcDbSavedByObjectVersion
1070
     0
  0
ACAD_PROXY_OBJECT
  5
F9
102
{ACAD_REACTORS
330
EF
102
}
330
EF
100
AcDbProxyObject
 90
      499
 91
      506
 93
      428
310
425499585B1A5CDD1A58D08409038333333333333E33F0000000000000F9010740A907004050150800405405064090740C02480A1B40
1001
ACAD
1000
AcDbSavedByObjectVersion
1070
     0
  0
ACAD_PROXY_OBJECT
  5
1F3
102
{ACAD_REACTORS
330
EF
102
}
330
EF
100
AcDbProxyObject
 90
      499
 91
      506
 93
      420
310
4194DA1859195911B40902404333333333333E33F0000000000000F9010740A41107004050150800405405064090840C02480A0B40
1001
ACAD
1000
AcDbSavedByObjectVersion
1070
     0
  0
ACAD_PROXY_OBJECT
  5
1F2
102
{ACAD_REACTORS
330
EF
102
}
330
EF
100
AcDbProxyObject
 90
      499
 91
      506
 93
      516
310
4454DA18591959081DDA5D1A08195919D95CD1A40902404333333333333E33F0000000000000F901074090140907004050250800405405064090740C02480A0B40
1001
ACAD
1000
AcDbSavedByObjectVersion
1070
     0
  0
ACAD_PROXY_OBJECT
  5
1EF
102
{ACAD_REACTORS
330
EF
102
}
330
EF
100
AcDbProxyObject
 90
      499
 91
      506
 93
      532
310
4394DA1859195CC81BD98811DC985E5174090240C333333333333E33F0000000000000F901079024090741D01000000000000111010841D405064090740C02480A0340
1001
ACAD
1000
AcDbSavedByObjectVersion
1070
     0
  0
ACAD_PROXY_OBJECT
  5
1F0
102
{ACAD_REACTORS
330
EF
102
}
330
EF
100
AcDbProxyObject
 90
      499
 91
      506
 93
      476
310
41D4DAD95D18DA1E51840502408333333333333E33F0000000000000F901079024090741D01000000000000111010B41D405064090741802480A0340
1001
ACAD
1000
AcDbSavedByObjectVersion
1070
     0
  0
ACAD_PROXY_OBJECT
  5
FC
102
{ACAD_REACTORS
330
EF
102
}
330
EF
100
AcDbProxyObject
 90
      499
 91
      506
 93
      420
310
41D51A1A58DAD95B90D40902404333333333333E33F0000000000000F9010790141107004050150C41D405064090741402480A0350
1001
ACAD
1000
AcDbSavedByObjectVersion
1070
     0
  0
ACAD_PROXY_OBJECT
  5
F6
102
{ACAD_REACTORS
330
EF
102
}
330
EF
100
AcDbProxyObject
 90
      499
 91
      506
 93
      420
310
4255DA5C99599C985B595059028333333333333E33F0000000000000F90107901411070040501600405405064090740C02480A0340
1001
ACAD
1000
AcDbSavedByObjectVersion
1070
     0
  0
ACAD_PROXY_OBJECT
  5
1F1
102
{ACAD_REACTORS
330
EF
102
}
330
EF
100
AcDbProxyObject
 90
      499
 91
      506
 93
      404
310
41560B54985E51940902404000000000000E03F0000000000000F9010740501907004050150841D405064090740C02480A1B40
1001
ACAD
1000
AcDbSavedByObjectVersion
1070
     0
  0
XRECORD
  5
C87
102
{ACAD_REACTORS
330
C7D
102
}
330
C7D
100
AcDbXrecord
340
0
  0
XRECORD
  5
C86
102
{ACAD_REACTORS
330
C7D
102
}
330
C7D
100
AcDbXrecord
 90
        0
  0
XRECORD
  5
CA0
102
{ACAD_REACTORS
330
C7D
102
}
330
C7D
100
AcDbXrecord
340
6B
  0
XRECORD
  5
C9D
102
{ACAD_REACTORS
330
C7D
102
}
330
C7D
100
AcDbXrecord
1000
DSTYLE
1002
{
1070
   340
340
11
1002
}
  0
XRECORD
  5
C88
102
{ACAD_REACTORS
330
C7D
102
}
330
C7D
100
AcDbXrecord
  1
{5F365222-B146-224F-AC27-29DA3E651A93}
  0
XRECORD
  5
C80
102
{ACAD_REACTORS
330
C7D
102
}
330
C7D
100
AcDbXrecord
  1

  0
XRECORD
  5
C85
102
{ACAD_REACTORS
330
C7D
102
}
330
C7D
100
AcDbXrecord
 90
        4
  0
XRECORD
  5
C82
102
{ACAD_REACTORS
330
C7D
102
}
330
C7D
100
AcDbXrecord
340
1A
  0
XRECORD
  5
C84
102
{ACAD_REACTORS
330
C7D
102
}
330
C7D
100
AcDbXrecord
 90
    10781
  0
XRECORD
  5
CA1
102
{ACAD_REACTORS
330
C7D
102
}
330
C7D
100
AcDbXrecord
340
6A
  0
XRECORD
  5
C83
102
{ACAD_REACTORS
330
C7D
102
}
330
C7D
100
AcDbXrecord
340
19
  0
XRECORD
  5
C8A
102
{ACAD_REACTORS
330
C7D
102
}
330
C7D
100
AcDbXrecord
 40
0.0
  0
XRECORD
  5
C8D
102
{ACAD_REACTORS
330
C7D
102
}
330
C7D
100
AcDbXrecord
340
0
  0
XRECORD
  5
C93
102
{ACAD_REACTORS
330
C7D
102
}
330
C7D
100
AcDbXrecord
 10
0.0
 20
0.0
 30
0.0
  0
XRECORD
  5
C8F
102
{ACAD_REACTORS
330
C7D
102
}
330
C7D
100
AcDbXrecord
 10
0.0
 20
0.0
 30
0.0
  0
XRECORD
  5
C92
102
{ACAD_REACTORS
330
C7D
102
}
330
C7D
100
AcDbXrecord
 10
0.0
 20
0.0
 30
0.0
  0
XRECORD
  5
C90
102
{ACAD_REACTORS
330
C7D
102
}
330
C7D
100
AcDbXrecord
 10
0.0
 20
0.0
 30
0.0
  0
XRECORD
  5
C91
102
{ACAD_REACTORS
330
C7D
102
}
330
C7D
100
AcDbXrecord
 10
0.0
 20
0.0
 30
0.0
  0
XRECORD
  5
C8E
102
{ACAD_REACTORS
330
C7D
102
}
330
C7D
100
AcDbXrecord
 10
0.0
 20
0.0
 30
0.0
  0
XRECORD
  5
C8B
102
{ACAD_REACTORS
330
C7D
102
}
330
C7D
100
AcDbXrecord
340
0
  0
XRECORD
  5
C8C
102
{ACAD_REACTORS
330
C7D
102
}
330
C7D
100
AcDbXrecord
 70
     0
  0
XRECORD
  5
C81
102
{ACAD_REACTORS
330
C7D
102
}
330
C7D
100
AcDbXrecord
  1
monochrome.ctb
  0
XRECORD
  5
C7E
102
{ACAD_REACTORS
330
C7D
102
}
330
C7D
100
AcDbXrecord
 90
        1
  0
XRECORD
  5
C7F
102
{ACAD_REACTORS
330
C7D
102
}
330
C7D
100
AcDbXrecord
 90
       70
  0
XRECORD
  5
C96
102
{ACAD_REACTORS
330
C7D
102
}
330
C7D
100
AcDbXrecord
340
0
  0
XRECORD
  5
C9C
102
{ACAD_REACTORS
330
C7D
102
}
330
C7D
100
AcDbXrecord
 10
0.0
 20
0.0
 30
0.0
  0
XRECORD
  5
C98
102
{ACAD_REACTORS
330
C7D
102
}
330
C7D
100
AcDbXrecord
 10
0.0
 20
0.0
 30
0.0
  0
XRECORD
  5
C9B
102
{ACAD_REACTORS
330
C7D
102
}
330
C7D
100
AcDbXrecord
 10
0.0
 20
0.0
 30
0.0
  0
XRECORD
  5
C99
102
{ACAD_REACTORS
330
C7D
102
}
330
C7D
100
AcDbXrecord
 10
0.0
 20
0.0
 30
0.0
  0
XRECORD
  5
C9A
102
{ACAD_REACTORS
330
C7D
102
}
330
C7D
100
AcDbXrecord
 10
0.0
 20
0.0
 30
0.0
  0
XRECORD
  5
C97
102
{ACAD_REACTORS
330
C7D
102
}
330
C7D
100
AcDbXrecord
 10
0.0
 20
0.0
 30
0.0
  0
XRECORD
  5
C94
102
{ACAD_REACTORS
330
C7D
102
}
330
C7D
100
AcDbXrecord
340
0
  0
XRECORD
  5
C95
102
{ACAD_REACTORS
330
C7D
102
}
330
C7D
100
AcDbXrecord
 70
     0
  0
XRECORD
  5
C89
102
{ACAD_REACTORS
330
C7D
102
}
330
C7D
100
AcDbXrecord
  1
{3C4C6356-D655-FE43-B3AA-82F045D237AA}
  0
DICTIONARYVAR
  5
146
102
{ACAD_REACTORS
330
5E
102
}
330
5E
100
DictionaryVariables
280
     0
  1
1:1
  0
DICTIONARYVAR
  5
259
102
{ACAD_REACTORS
330
5E
102
}
330
5E
100
DictionaryVariables
280
     0
  1
3.500000
  0
DICTIONARYVAR
  5
25A
102
{ACAD_REACTORS
330
5E
102
}
330
5E
100
DictionaryVariables
280
     0
  1
acadiso.lin
  0
DICTIONARYVAR
  5
145
102
{ACAD_REACTORS
330
5E
102
}
330
5E
100
DictionaryVariables
280
     0
  1
Standard
  0
DICTIONARYVAR
  5
84
102
{ACAD_REACTORS
330
5E
102
}
330
5E
100
DictionaryVariables
280
     0
  1
Standard
  0
DICTIONARYVAR
  5
227
102
{ACAD_REACTORS
330
5E
102
}
330
5E
100
DictionaryVariables
280
     0
  1
Metric50
  0
DICTIONARYVAR
  5
228
102
{ACAD_REACTORS
330
5E
102
}
330
5E
100
DictionaryVariables
280
     0
  1
Metric50
  0
DICTIONARYVAR
  5
5F
102
{ACAD_REACTORS
330
5E
102
}
330
5E
100
DictionaryVariables
280
     0
  1
2
  0
DICTIONARYVAR
  5
63
102
{ACAD_REACTORS
330
5E
102
}
330
5E
100
DictionaryVariables
280
     0
  1
1
  0
DICTIONARYVAR
  5
1AE
102
{ACAD_REACTORS
330
5E
102
}
330
5E
100
DictionaryVariables
280
     0
  1
0
  0
DICTIONARYVAR
  5
1AF
102
{ACAD_REACTORS
330
5E
102
}
330
5E
100
DictionaryVariables
280
     0
  1
0
  0
DICTIONARYVAR
  5
CB4
102
{ACAD_REACTORS
330
5E
102
}
330
5E
100
DictionaryVariables
280
     0
  1
1
  0
DICTIONARYVAR
  5
C9F
102
{ACAD_REACTORS
330
5E
102
}
330
5E
100
DictionaryVariables
280
     0
  1
80.000000
  0
DICTIONARYVAR
  5
C9E
102
{ACAD_REACTORS
330
5E
102
}
330
5E
100
DictionaryVariables
280
     0
  1
5.000000
  0
ACAD_PROXY_OBJECT
  5
C11
102
{ACAD_REACTORS
330
C10
102
}
330
C10
100
AcDbProxyObject
 90
      499
 91
      529
 93
       67
310
40A40AAAA4C508FF80
330
B21
360
0
360
B6F
360
B93
360
B94
360
B95
360
B96
360
B97
360
B98
360
B99
 94
        0
1001
ACAD
1000
AcadProxyRoundTripData
1071
      523
1071
 11403297
1070
     0
  0
DICTIONARY
  5
1F9
330
ED
100
AcDbDictionary
280
     1
  3
ACAD_XREC_ROUNDTRIP
360
CB5
  3
FBXASSET
360
1FA
  0
DICTIONARY
  5
1F7
330
EC
100
AcDbDictionary
280
     1
  3
ACAD_XREC_ROUNDTRIP
360
CB6
  3
FBXASSET
360
1F8
  0
DICTIONARY
  5
173
330
EE
100
AcDbDictionary
280
     1
  3
ACAD_XREC_ROUNDTRIP
360
CB7
  3
FBXASSET
360
1FB
  0
ACAD_PROXY_OBJECT
  5
B6F
330
C11
100
AcDbProxyObject
 90
      499
 91
      529
 93
    29169
310
40A40995AA9021F03C709C0316E880001326B5D98B03604D4C8E11204000144357F202891014F8812EC40D77208BC1035E4822F44057B20ABE10264881B2641194206CA90465881B2E4119820CCC903668823364199C20ECE9056788435A40DAE208D79036C08236240DB2212D990A6D08138E40DC8208E490372882396415
310
CC204E69037388239E40DD0208E890B748813A640DD4208EA903758823AE42DD8204EC903768823B640DDC208EE905778813BE40DE0208F0903788823C6415E420EF41087A481BD4411EB206F61047B481BDC425EF214F81017E8813F640DFC208FE9037F8823FE414000100002180080800010C0080400008600602000040
310
8DE0100002066F808000104380040000819C2020000410E20100002027180800010B390040000811CA02000040CE6010000208738080001033A0040000821D2020000404EA010000216758080001013B0040000811DA02000040CEE010000208778080001033C0040000821E2020000414F201000021A798080001083D0040
310
000819EA020000410F60100002067B8080001043E0040000819F2020000424FA0100002147D80800010C3F0040000861FA020000430FE0100002187F8080001030000800008200204000041802020000206018100001040100800008300A04000041C06020000206038100001040200800008301204000040C0A0200002080
310
58100001060300800008381A0400008940154D27D00554CBB20ABC2F4BE336CE00C382DB82128DCB2E00410B7887D238B4814000000000000785FC1C16DC10946E597002085BC43E91C5A408705B704251B965C020051FCE44B255D025DD015E006003FFFFFFFD765E1025DD7600B5E5025E80201000001804FFFFFFFF5D97
310
A409795D802D7B8020000360FB6B5DD0FC80C2F044A6033840A65F1015D80257B649056519666199678061C16DC10944E58F00C0FC7528C34D5940A0000000000003C2FE0E0B6E084A272C780607E3A9461A6ACA04382DB821289CB1E0040AC66B88DB8AE8132680B2803001FFFFFFFEC932881326C9005B2A8132C0080800
310
000C027FFFFFFFB24CB204CAB24016CBA06CC332CE80C047FFFFFFFB24CC204CBB24016CCA04CBB24016CD206CDB38CE80C047FFFFFFFAECCDA04CD2EC016CE204CD2EC016CEA04CBB3401202D33C80B240129F35A8235ED8B66DA00C03A3CAEC26CCB160043B37B32BA89198152D00000000000811E810305A88A9F642328
310
1142B2E084A272C780102B19AE236E2BA04382DB82128DCB2E010028FE722592AE8135C8135E0080800000C007FFFFFFFB5AD7A04D735A016D8204D880602000003009FFFFFFFED6B6281360D6805B6480B6603019FFFFFFFED6B6681364D6805B6880B5A01200E3A06E4B96E600C481B6A6BA6C2B26010025773D14D0C881
310
4000000000000785FC240DB535D361593008012BB9E8A68644089036D4D74D8564C01C0D1437EA2BD55027210172406003FFFFFFFDC772502721C700B7290172C06013FFFFFFFDC772D02729C700B7310171C0253E7350373DD1748061C1D4080CCB15970050B638E384EB60409A0E0EA0406658ACB80285B1C71C275B0204
310
383A81019922B1E00A16C71C709D6C08139C80B9E03001FFFFFFFEE6B9E8139CE6805BA080BA203009FFFFFFFEE6BA2813A0E6805BA480B9A012893A681BAAEBBB0030E0EA0406658ACB80285B1C71C205B2204D07075020332C565C0142D8E38E102D91021C1D4080CC9158F0050B638E3840B64409D4405D501800FFFFFF
310
FF74DD5409D474C02DD6405D701804FFFFFFFF74DD7409D674C02DD8405D3009449D940DDB775DE0187075020332C565C0142D8E38E13AD810298383A81019962B2E00A16C71C709D6C0810E0EA0406658ACB80285B1C71C205B2204ED202ED80C007FFFFFFFBB2EDA04ED3B2016EE204EEBD003009FFFFFFFEECBBA813B8E
310
C805BBC80BB20129F3BE81BC2F1BC8030E0EA0406648AC780285B1C71C205B22050000000000001E17F070750203324563C0142D8E38E102D91021C1D4080CC9158F0050B638E384EB60409E0409E17A006003FFFFFFFDDF78502781DF00B7890178C06013FFFFFFFDDF78D02789DF00B7910177C0253E7A102771E0009010
310
000000000003C2FE9E9411EB7B5EF7C00606D3DC10946658B004577349F5D448CC0A9680000000000408F408182D4454FB21194089485E084A2F25EC020051FCE44B255D021C16DC10946E5970080147F3912C957409EA405EB01800FFFFFFFF7A5EB409EA7A402DEC40DED0080400000301000001804FFFFFFFF7A5ED409E
310
C7A402DEE405EF0180CFFFFFFFF7A5EF409EE7A402DF0405E9009007EA008405BF48B3C4E44402030BEB8C01249F0299FB40DFD7FC000100000182038B7A1E39962C02C04F3E33A5056D028000000000000F0BF8101C5BD0F1CCB160160279F19D282B681040716F43C732C580103E3B39AE212AA04FE202FE80C007FFFFFF
310
FBF6FEA04FE3F6016FF202FF80C027FFFFFFFBF6FFA04FF3F601600008000202FD804BF400808000204D732A01201008000204F62F201201808000204D83D80126F00800020C700080001C4020000720080001E60200000201000000A040000030C1F656A77016B9806C579C71C275B0204D060FB2B53B80B5CC0362BCE38E
310
13AD8102103F243098B0D6700D8AF38E384EB60408DF010000408E00100003F804000006003FFFFFFFCDE0100003800400010237C040000DE01000000B38404000102388040000FD01000001804FFFFFFFF378040000E2010000408E101000037804000002CE3010000802003FD94E33A3DB50020A4B7B9954257409A39004
310
000101378040000024E30100003940400010639C040000E90100003AC040000F30100000040800000202000001860FB2B53B80B5CC0362BCE38E102D910268307D95A9DC05AE601B15E71C70816C881041F92184C586B3806C579C71C205B220473008000204738080001FE02000003001FFFFFFFE728080001CE020000811
310
CC020000728080000059D0020000811D20200007E00800000C027FFFFFFF9CA02000074808000204740080001CA02000001675008000401001FECA719D1EDA807838305D4AC12EA04D1D6020000809CA020000012750080001D8020001004007FB29C6747B6A0041496F732A84AE814C7680800020A778080001E202000079
310
0080000160400000601000000C307D95A9DC05AE601B15E71C70816C8814000000000000785FC183ECAD4EE02D7300D8AF38E3840B6440860FB2B53B80B5CC0362BCE38E13AD81023B8040001023BC040000FF01000001800FFFFFFFF3B4040000EF010000408EE0100003B404000002CF0010000408F10100003F80400000
310
6013FFFFFFFCED0100003C4040001023C0040000ED01000000B3C8040001013B4040000024EC0100003CC04000102394040000DE0100000093D0040001063D8040000F80100003E8040000FB01000002008000009020000018280135EB110D7F40362BCE38E11ED8902A5A00000000003020902060B51153EC846502103F24
310
3098B0D6700D8AF38E3840B6440840FC90C262C359C0362BCE38E13AD81023D4040001023D8040000FC01000001800FFFFFFFF3D0040000F6010000408F50100003D004000002CF7010000408F80100003F404000006013FFFFFFFCF40100003E0040001023DC040000F401000000B3E4040001013E804000006033FFFFFFF
310
CF40100003E8040001023E4040000F401000000B3EC040001013D004000002400FC010000408E80100003D4040000024FD010000408F7010000384040000024FE010000408F001000037C040000024FF010000408EE0100003980400000240002000040C010200000080800000602000001808FFFFFFFF3940400000102000
310
04080002000039404000002C020200004080002000039404000002C0302000040C040200000140800000602000001808FFFFFFFF378040000040200004080302000037804000002C050200004080302000037804000002C060200004080002000000C08000002406601C080001030200800000902000003408000006023FFF
310
FFFFCF40100000200800010201C080000F401000000B0240800010201C080000F401000000B0280800010302C0800000C02000003408000006023FFFFFFFCED01000002C08000102028080000ED01000000B03008000102028080000ED01000000B0340800010202808000007020000009010000000000003C2FE916410063
310
0043006F006E00730074007200610069006E006500640044006100740075006D004C0069006E00650046104018C010C01BC01B801CC01D001C8018401A401B801940190010801BC01D401B8019001940190013001A401B80194011A4100630043006F006E00730074007200610069006E006500640049006D0070006C00690
310
063006900740050006F0069006E00740045904018C014001BC01A401B801D0010C01D401C801D80194010C01BC01B801CC01D001C8018401A401B801D001144100630056006500720074006900630061006C0043006F006E00730074007200610069006E00740045104018C013401A40190014001BC01A401B801D0010C01B
310
C01B801CC01D001C8018401A401B801D0011441006300440069007300740061006E006300650043006F006E00730074007200610069006E00740044104018C010C01BC01B801CC01D001C8018401A401B801940190010401C8018C011741006300430065006E0074006500720050006F0069006E00740043006F006E007300
310
74007200610069006E00740046904018C01480184019001A401D401CC011001A4018401B4019401D0019401C8010C01BC01B801CC01D001C8018401A401B801D001164100630048006F00720069007A006F006E00740061006C0043006F006E00730074007200610069006E00740047104018C014001BC01A401B801D0010C
310
01BC01A401B8018C01A40190019401B8018C0194010C01BC01B801CC01D001C8018401A401B801D001174100630045007100750061006C004C0065006E0067007400680043006F006E00730074007200610069006E007400C212A3
330
C11
360
0
360
0
360
B85
360
B79
360
B7D
360
B87
360
B83
360
B7F
360
B7B
360
B82
360
B7E
360
B7A
360
B71
360
B75
360
B76
360
B73
360
B77
360
B84
360
B80
360
B78
360
B70
360
B90
360
B88
360
B8F
360
B8B
360
B92
360
B8A
360
B91
360
B8D
360
B89
330
0
330
0
330
B91
330
0
330
0
330
0
330
B88
330
0
330
0
330
0
330
0
340
B8A
340
B80
330
B78
330
0
330
0
330
0
340
B75
340
B85
330
B82
330
0
330
0
330
B87
330
0
330
0
330
B7F
330
0
330
0
330
B90
330
0
330
0
330
B7D
330
0
330
0
340
B84
340
B73
330
B92
330
0
330
0
330
0
340
B83
340
B71
330
0
330
B70
330
0
330
0
330
B7E
330
0
330
0
330
0
330
B77
330
0
330
0
330
0
330
0
330
B89
330
0
330
0
330
B8F
330
0
330
0
330
0
340
B79
340
B8B
330
0
330
0
340
B76
340
B8D
330
0
330
0
340
B7A
340
B7B
 94
        0
1001
ACAD
1000
AcadProxyRoundTripData
1071
      517
1071
 11403297
1070
     0
  0
ACAD_PROXY_OBJECT
  5
B93
102
{ACAD_REACTORS
330
B8A
102
}
330
C11
100
AcDbProxyObject
 90
      499
 91
      529
 93
      373
310
40A442AA9025691424099000C801023200300043104018C01100188010C018401B0018C00E800C400B800C0022001D
330
C11
360
0
 94
        0
1001
ACAD
1000
AcadProxyRoundTripData
1071
      522
1071
 11403297
1070
     0
  0
ACAD_PROXY_OBJECT
  5
B94
102
{ACAD_REACTORS
330
B75
102
}
330
C11
100
AcDbProxyObject
 90
      499
 91
      529
 93
      445
310
40A44EAA902568E8030000240D294E117CC40104310030003000300043104018C01100188010C018401B0018C00E800C400B800C00250018
330
C11
360
0
 94
        0
1001
ACAD
1000
AcadProxyRoundTripData
1071
      522
1071
 11403297
1070
     0
  0
ACAD_PROXY_OBJECT
  5
B95
102
{ACAD_REACTORS
330
B84
102
}
330
C11
100
AcDbProxyObject
 90
      499
 91
      529
 93
      373
310
40A45EAA9025691424099000C401023200300043104018C01100188010C018401B0018C00E800C400B800C0022001C
330
C11
360
0
 94
        0
1001
ACAD
1000
AcadProxyRoundTripData
1071
      522
1071
 11403297
1070
     0
  0
ACAD_PROXY_OBJECT
  5
B96
102
{ACAD_REACTORS
330
B83
102
}
330
C11
100
AcDbProxyObject
 90
      499
 91
      529
 93
      445
310
40A462AA902568E8030000240D294E117CCC0104310030003000300043104018C01100188010C018401B0018C00E800C400B800C00250018
330
C11
360
0
 94
        0
1001
ACAD
1000
AcadProxyRoundTripData
1071
      522
1071
 11403297
1070
     0
  0
ACAD_PROXY_OBJECT
  5
B97
102
{ACAD_REACTORS
330
B79
102
}
330
C11
100
AcDbProxyObject
 90
      499
 91
      529
 93
      429
310
40A4BEAA90256858020000240D294E117CC8010336003000300043104018C01100188010C018401B0018C00E800C400B800C00240018
330
C11
360
0
 94
        0
1001
ACAD
1000
AcadProxyRoundTripData
1071
      522
1071
 11403297
1070
     0
  0
ACAD_PROXY_OBJECT
  5
B98
102
{ACAD_REACTORS
330
B76
102
}
330
C11
100
AcDbProxyObject
 90
      499
 91
      529
 93
      373
310
40A4C2AA9025691924099000CC01023200350043104018C01100188010C018401B0018C00E800C400B800C0022001C
330
C11
360
0
 94
        0
1001
ACAD
1000
AcadProxyRoundTripData
1071
      522
1071
 11403297
1070
     0
  0
ACAD_PROXY_OBJECT
  5
B99
102
{ACAD_REACTORS
330
B7A
102
}
330
C11
100
AcDbProxyObject
 90
      499
 91
      529
 93
      357
310
40A4C6AA9025690924099000D80101390043104018C01100188010C018401B0018C00E800C400B800C0021001A
330
C11
360
0
 94
        0
1001
ACAD
1000
AcadProxyRoundTripData
1071
      522
1071
 11403297
1070
     0
  0
XRECORD
  5
CB5
102
{ACAD_REACTORS
330
1F9
102
}
330
1F9
100
AcDbXrecord
102
MATERIAL
148
0.0
149
0.0
149
0.0
 93
        0
 94
       63
282
     0
 72
     1
 77
     1
171
     1
175
     1
179
     1
273
     0
  0
XRECORD
  5
1FA
102
{ACAD_REACTORS
330
1F9
102
}
330
1F9
100
AcDbXrecord
 70
     1
 90
429727718
  1
D62C5603-E3A1-4AEA-B7FB-FE5D8D0755AF
310
504B03040A0000080000CC70623B3DEE336E79000000790000001B0000006175746F6465736B2D64657369676E2D7061636B6167652E786D6C3C3F786D6C2076657273696F6E3D22312E302220656E636F64696E673D227574662D3822203F3E3C666F726D6174733E3C666F726D61743E687474703A2F2F736368656D612E
310
6175746F6465736B2E636F6D2F64657369676E2D7061636B6167652F323030393C2F666F726D61743E3C2F666F726D6174733E504B0304140006080800CC70623BD486FD9CA0000000F4000000130000005B436F6E74656E745F54797065735D2E786D6C7D8EC10E82300C865F65E91D8A1E8C310C0EEA1BF002731658846E
310
D98AC1B77784ABF1D8FE5FBFBF75BBCE937A534CCEB38643598122B6FEE978D0B0485F9C41B54DDD7D022595594E1A469170414C76A4D9A4D207E29CF43ECE46F218070CC6BECC4078ACAA135ACF422C856C0E68EA1BF5669944DDD7BCDE7B1F8E415D77AECB980613C2E4AC91FC167A2B244592486606FC29C8FD7F045B9A
310
EF7053A7E60B504B0304140006080800CC70623B853B8169EB0000007C01000008000000636F72652E786D6C8D90416EC3201045AF62CDB6C206821CC7C244919D9CA01740401C94182C03558F5F9C3852BBEB6A467FFE9B197D7EFC9E1EC5975982F5AE035262288C535E5B377690E21535501C055FBC8FBF6C503839990E
310
5619041F179FE64D52DE45E362569DD7661365082642A11EB9E920A89B99642953CC8E702F67A9EE7234257977194EC9EAE275C4EABCCF5EAD5940D4AC6F0E35A568B8F43562CD7046CD199FD07E60174276A7BE677B5EADB0E0D14EEFFB6A31321A0D82627C4084204C3F096B71DD52F6819B16635EADF63F509AF53FA164
310
5DDCD1EDDD17164090FCC8732078B56691CB33A85CD7DCC40F504B0304140006080800CC70623B55019EA25F0000007C00000007000000636E782E786D6C4DCB3B0E80201045D1AD90E915ED2CF8AC45050C11660C8261F98AB1B07AC9C97D42D718D865D3E909258CFD00CCE24AC6E326A164D74DC0B4128928FF32603847
310
2BA13128B1252AC747C6BAB984FC68F0B87FE8960A5C09FE86CFB69FBA01504B0304140006080800CC70623BDBABAAF470010000D40300000C0000006662782F636F72652E786D6CC553D16E823014FD95A6AF4B694182CC941A83FA05FB810A9511A125A5257EFE2E82712ECEB8A7F100CD39F7F69E734AF9FADC366850B6
310
AF8DCE7018308C942E4C59EB2AC3DE1D498AD15A706B8CFB56869196ADCAF00863C12B6B7C374385D14E6907A836A59A41D9F7CA615434B0C8705F7CAA5606D23BA8E84F41278B93AC54100640439DE0BDB320004D43C63716C7C399D30917DCFBBA9CD9BA8469F5B156168B24CED3F7248AC8769F27244EB73B92EED8862C
310
B7F13E0C179B3C8F979C8ECD82BBBABDAA2BAC924E9558448CBD9330242CFA08E3154B5651FCC6D215639C8EE5774DBE2B5F6CF2B5768B68963BB5F5588420E442FC700B1139D4CB01F450C1E918227C2E09DF070D8140C84E1E9AAB8F1340832A9CB13130A5F1376A908D57309505ECF2A0DF179C4E9D30F5B239B87E3823
310
7A79C6F31DE1A8A5AEC08474B03C7837EAE4938639B44E5932B833D2C6B6B279CDC613877FA26EE21F4A2A4C63EC7F29A2F301D1F9F7A0E37D145F504B0304140006080800CC70623B9C113CC27E0000009D0000000B0000006662782F636E782E786D6C4DCCDF0A83201C86E15B91DFB94BFB330DD428C8FB886521330DA7
310
6397BF1A1DECE883878F57749FCDA1B7892F1BBC047A23808C7F84D9FA55424E0BE6803A256208E9EF06C84F9B91703228B1C690F78B66B34CD9A5439DF5CF0BFBF65E35BCA1B8D6A5C6F540381E886698B5741C695F9503EBA150A2F8958E3DC3EA0B504B0304140006080800CC70623B7DF2F77C2A010000120200003100
310
00006662782F41393633353835312D344632462D344230382D423046372D3739314545314133324237412F636F72652E786D6C8D51DB8EC22014FC15C2939B0D2DB4B45643319AE817EC0F6041255A68B86CFCFC856D4D76DF7CE190393373060EDB3DC707F856CE6B6B7A480A0C81328395DA5C7B18C3057510EC3873D686
310
3F34088C18550F330C39BB3A1BA7051AAC09CA84841A2BD5020AEF55806078A44B0FFD7053A328440C89E1EFC52486BBB8AA8214A99D789CF9E05200300FC927E4FB4D5B375D43103D5527440FB843077C5AA3F5861C8F645F5787F59E95B390B318B55CE45AA638FAA2957BD7248B390B7A7CC51F9C124149C82B8C378810
310
84AB2F42B7B8DD56F413775B8C5999E9FF4471926F8AA236A1AE96B8B3CC434E5839373893369E1FAF30EA395917409EB7F26AF8801C171837A4A6AC9C89E9F9C9B1A58BA30FD6A5EF5DDDCF894B9AD9B6A59C957943A9FCAE2FD5BC4DFE03504B0304140006080800CC70623BAD7543B64E01000033030000300000006662
310
782F41393633353835312D344632462D344230382D423046372D3739314545314133324237412F636E782E786D6CD593CD6EC32010845F0571AD6CE3D48AD20813A9873E410FBD12D82434182C7EAAE6EDBB2424CD25871E7B41D6EC30B3FA84F9E67BB2E40B4234DE8DB46F1925E094D7C6ED479AD3AE5951B2113C789FEE
310
6C943839C1488B4C05DF079FE72A69D8C96C13AAD6B8631503449F83828872B949AC57D26200B826A308D316B4064D6E46FCDA41C05550DC9E483A00797BFD207EFB092A45DE9514C1BBD22178396BD39D891265658C238DEA00936C654E5E433CB65A26D9F6EDB5EBC14EBF49A45CB856E66048291F6939A9A81BB5C89177
310
38143CA680F4AA299D66A042CEB3354A2684DC9D8D178FE0D9B8B41CAAD720F880EE7EF93C0C18769E099ECC04D5A102C8049A8A05632F4DDF376CF1DE0F6BB65C2F8627B65A33C6BB62177CEBBDAD973006829F89F22E814B54F4BC2BE347F8AA8F681390B50FA73F804400B5F542E796F19FF974E7F78DB802FE05E20750
310
4B0304140006080800CC70623BE75B7789680500003C100000340000006662782F41393633353835312D344632462D344230382D423046372D3739314545314133324237412F6F626A656374732E786D6CAD575B8F9B3818FD2B887D06C22499CB8AA1CA655245D5B455A356FB305264C061D8018C6C3393D95FBFC7600890
310
A4CD5EF210B0B1BFEBF98E3F7B1FF6596ABC522E1296DF9BAE3D320D9A872C4AF2F8DE2CE5CEBA358D0FBEC719939D65A691938CDE9B6ADAF4BD98B3B2D05311DD91329583D9D5FC0F438434A7A611A644887B5384CF34233629258BA878B12322891DEFF6B66BD70BFB62634E8AE781D082709A4B588AF91C528CDA28B73F
310
1C998EEF39EABBEFA97FBD6A7C7E9553F9D3D79FE442923C3C523610337627CB87ABE99D359D4CC6D6E4FACAB5E6ABF9D2726FC6A3C5F56271377BB88362213924694B38DD99FE47C48627A1E7D49F5A8BB5E1A74C0A599ED3B0F21F1E56366B89112D681E218F0915D0D6F17AD41FBA2A369DCF6335D62ABBD39779D5DDD1
310
11D4D8DE3CBB96B2E04FB8202E41051754A1AA8E8F76B4C6DFE810B580B1547F4B84911149794252234D024EF8BBE963A95AE27B3D310A9D5C215C7960FAEE415ED75694C6AFB17BCACA5D99A60A9AA65F217B0BFC53292ACB92BF283FAD0D3621576592CB5BED907C2FA8E9DF794E35E97BEA31BED21FEB401ABB94C44839
310
DCACBF0E1C5DA8DA5B2F4DFFD32AD86F543D9E565E7056502E157C00AD2671CD534549AB752FCA9CDA00677A313F04E51B22FF19E57B300579E3C97EB29F682D92935CEC18CF901B7B54FD8C51F362B56FC72FE0B3C1EAE335EDCCBF5AEC39ADB17DC238973F804BA5E6F6BFE7AF1FB32E523BE9F3BD571418E3631DCA4D48
310
5250CF639223210A9446CA30052EDF057BD35F8329C1ECD84552BF0DC8D18BE7BCE23BFE6BD960AB4A7DE79923A103BEBD80F911CBAA2C60DB19B01CF164A5583B772EE6D3FFA56666CBCDA74DC97724A48F9A58967497E489C4D979006FD7A05E227A1EBDD0F737C623387A9C844D3709995625106D157315F8B8392CD4E0
310
A0B9A720C4BE9829CEF37EA1E13111214D53925356365ADA634861B52519DD27A00AEB808EAF0628E6F435519D446F45CF2C9CF5214F0A15B2F6D06B79DA3EE3CBF7F56780D2F4E7EF73A0F5E5B02A38D07DC852C6B7C1FBB6664213E0C39E3EBA7FF4E1AD23EA2829407C85E586727488B751B2DB9502BC7B228A3FD68B6E
310
A65A22397E690AA8D158D7E404EC8CDA235CC3B7D1898680131CEC2CDF2638C65196279577750F15884AEE19F94199155B92B13297978469D4F8D358DF0AEF7631E28DC8F0D9F437D5D39A83B2231A1D52D543813A824EF8D44BCFF2FA6A31BD1E8DAD87F1CCB526B3879935BF59CDADD5C37479BB1CDD4CA7B3556B516589
310
EF352754B706114D9C885EC9131DE6EFEB43D99AFE2391C2F958179413D7CFEF6B1B6DB1E7600F00DE6E5C67454A339A4BA2E0FBA85ED26F045D454F463DBFCE484C2F90F2E5E3666003662ED8F755951A7D1BECD5B30B550B2785C8E7320B7292A4838DDA71BBC863ED7613CAF659337A3354231D4FF4A182A54904C2898C
310
98B28C4AD0CE056CCF332A80986E571EE9DBC305BB5FEB7E509220A58D25CF042D712A806AC0AD0C657FDEF80D2D9CEAA2EE4D1C76F60BFE74219A06527D6F82DF6412526107381E55E353090704D085B52408A8913C4ED159D79BDA71BB4BC506F4831350EB6F975CD22D69BF7AC49B91A2C0A9DDA3D5CA36AD20FC478E37
310
E61844E2352865EBCB61A275A65283CAAA9DD27703B4102F5AF51EF5F573B75CBB5AD38BC845F7A49F82A0966A49C2E3EA5EA0ECD326CD965F1DB402C6FA8B51A4658C5C5E2EC9E214602E55810345408596591009A82E7E7FFACA19EEA299B14A0081A705CB3296EBC14CDF658DCD336EA6D1136881AAEB87B81AB9EE53D5
310
F5EB8BC8362082DA24122F98680A4E7930C01A0079749CEA14382A0783E5EBA5A10F8C098456A03D6A4AEB6BB881E2513747552A5DB22C7EDAF83BD5528081A365F7FF06504B0304140006080000CC70623B000000000000000000000000350000006662782F41393633353835312D344632462D344230382D423046372D37
310
39314545314133324237412F76657274696365732E62696E504B0304140006080800CC70623BF270F1330600000004000000360000006662782F41393633353835312D344632462D344230382D423046372D3739314545314133324237412F747269616E676C65732E62696E636660600000504B0304140006080000CC7062
310
3B000000000000000000000000370000006662782F41393633353835312D344632462D344230382D423046372D3739314545314133324237412F617474726962757465732E62696E504B0304140006080800CC70623B08DA0BD19000000041010000360000006662782F41393633353835312D344632462D344230382D4230
310
46372D3739314545314133324237412F6469726563746F72792E786D6C858F410AC3201045AF22B36F53E9A60B35CBEEBAE80D244E44489C6234F4F835464A48035D0DF398FF9F8AF63D0E6CC63039F212F8F9020C7D47C6792B21C5FE7403D62A1188E2E60C98D7234A5830286103A55745067B9D86B8A3CF9C7F90C11DE6
310
07FB144396D7B6A82D282E9A152AD114D5EF2CB866EEE831B8EEA07A7BB5A8D7D61A2BAAEB7FD5F70921FF497D00504B0304140006080800CC70623BEDD1DC58FD000000A00100003B0000006662782F41393633353835312D344632462D344230382D423046372D3739314545314133324237412F7265736F75726365732F
310
636F72652E786D6C8D504B6E833010BD0A9A6D65B00922041947112427E8052C33A156828DFCA97AFC9A40A576D7CDCCE87D344F8F9FBFE667F689CE6B6B3A6039850C8DB2A336530731DC4903D95970676DF82583CCC8193B5861107C72362E3BA4AC096842428D1D7107A5F7182053CF7474E0D507CE32973124857FE48B
310
540F3961CEF244279DE03EB81420DB9EAC1384436FA353E879B1B182C7A8C75DA3C7F453DF353A1075D537A7BA6464B8F535A99AE14A9A2BBD90E350DD183B5CFABE3AF262350B1EF4FC9351399401471025A527C218A1E53BAB5A5AB765F5469B96525EACF23FA6B88CFF34456DC2A1DCE36E360F82A5202F42F062ED2BAD
310
579969AFDD8A6F504B010214000A0000080000CC70623B3DEE336E79000000790000001B00000000000000000000000000000000006175746F6465736B2D64657369676E2D7061636B6167652E786D6C504B01021400140006080800CC70623BD486FD9CA0000000F40000001300000000000000000000000000B20000005B
310
436F6E74656E745F54797065735D2E786D6C504B01021400140006080800CC70623B853B8169EB0000007C010000080000000000000000000000000083010000636F72652E786D6C504B01021400140006080800CC70623B55019EA25F0000007C000000070000000000000000000000000094020000636E782E786D6C504B
310
01021400140006080800CC70623BDBABAAF470010000D40300000C00000000000000000000000000180300006662782F636F72652E786D6C504B01021400140006080800CC70623B9C113CC27E0000009D0000000B00000000000000000000000000B20400006662782F636E782E786D6C504B01021400140006080800CC70
310
623B7DF2F77C2A010000120200003100000000000000000000000000590500006662782F41393633353835312D344632462D344230382D423046372D3739314545314133324237412F636F72652E786D6C504B01021400140006080800CC70623BAD7543B64E010000330300003000000000000000000000000000D2060000
310
6662782F41393633353835312D344632462D344230382D423046372D3739314545314133324237412F636E782E786D6C504B01021400140006080800CC70623BE75B7789680500003C10000034000000000000000000000000006E0800006662782F41393633353835312D344632462D344230382D423046372D3739314545
310
314133324237412F6F626A656374732E786D6C504B01021400140006080000CC70623B0000000000000000000000003500000000000000000000000000280E00006662782F41393633353835312D344632462D344230382D423046372D3739314545314133324237412F76657274696365732E62696E504B01021400140006
310
080800CC70623BF270F133060000000400000036000000000000000000000000007B0E00006662782F41393633353835312D344632462D344230382D423046372D3739314545314133324237412F747269616E676C65732E62696E504B01021400140006080000CC70623B0000000000000000000000003700000000000000
310
000000000000D50E00006662782F41393633353835312D344632462D344230382D423046372D3739314545314133324237412F617474726962757465732E62696E504B01021400140006080800CC70623B08DA0BD1900000004101000036000000000000000000000000002A0F00006662782F41393633353835312D344632
310
462D344230382D423046372D3739314545314133324237412F6469726563746F72792E786D6C504B01021400140006080800CC70623BEDD1DC58FD000000A00100003B000000000000000000000000000E1000006662782F41393633353835312D344632462D344230382D423046372D3739314545314133324237412F7265
310
736F75726365732F636F72652E786D6C504B0506000000000E000E0080040000641100000000
  0
XRECORD
  5
CB6
102
{ACAD_REACTORS
330
1F7
102
}
330
1F7
100
AcDbXrecord
102
MATERIAL
148
0.0
149
0.0
149
0.0
 93
        0
 94
       63
282
     0
 72
     1
 77
     1
171
     1
175
     1
179
     1
273
     0
  0
XRECORD
  5
1F8
102
{ACAD_REACTORS
330
1F7
102
}
330
1F7
100
AcDbXrecord
 70
     1
 90
429727718
  1
30362254-06B7-45E0-A893-8CFA70E3D6BC
310
504B03040A0000080000CC70623B3DEE336E79000000790000001B0000006175746F6465736B2D64657369676E2D7061636B6167652E786D6C3C3F786D6C2076657273696F6E3D22312E302220656E636F64696E673D227574662D3822203F3E3C666F726D6174733E3C666F726D61743E687474703A2F2F736368656D612E
310
6175746F6465736B2E636F6D2F64657369676E2D7061636B6167652F323030393C2F666F726D61743E3C2F666F726D6174733E504B0304140006080800CC70623BD486FD9CA0000000F4000000130000005B436F6E74656E745F54797065735D2E786D6C7D8EC10E82300C865F65E91D8A1E8C310C0EEA1BF002731658846E
310
D98AC1B77784ABF1D8FE5FBFBF75BBCE937A534CCEB38643598122B6FEE978D0B0485F9C41B54DDD7D022595594E1A469170414C76A4D9A4D207E29CF43ECE46F218070CC6BECC4078ACAA135ACF422C856C0E68EA1BF5669944DDD7BCDE7B1F8E415D77AECB980613C2E4AC91FC167A2B244592486606FC29C8FD7F045B9A
310
EF7053A7E60B504B0304140006080800CC70623B1EC5D7A3EB0000007C01000008000000636F72652E786D6C8D90416EC3201045AF82665B6103C6756C6122AB4D4ED00B204C5C94182C03558F5F9C3852BBEB6A467FFE9B197D71FC9E6FE8CBACC17AD7032D0820E3B41FAD9B7A48F1820F808E52ACDEC75F36404ECDA687
310
4D0629A6D5A76597B477D1B89855E747B38B2A041301E95B6E7A08FAD3CCAA50296647B8168BD2573599823EBB0CA76447F43862C7BCCF5EAC59410E4DDD9C7973C2755553CCCFA4C603E3040F1565ED3B1FDE4E432BCA0D9622DAF9795FAF464533826484B498524CD807E51D79ED187F21878E10516EF63F505AC67F42C9
310
BA58B1FDDD071640D2FCC87D2045B96591CB3DA85CB7DCE40F504B0304140006080800CC70623B55019EA25F0000007C00000007000000636E782E786D6C4DCB3B0E80201045D1AD90E915ED2CF8AC45050C11660C8261F98AB1B07AC9C97D42D718D865D3E909258CFD00CCE24AC6E326A164D74DC0B4128928FF32603847
310
2BA13128B1252AC747C6BAB984FC68F0B87FE8960A5C09FE86CFB69FBA01504B0304140006080800CC70623B8C9102E971010000D40300000C0000006662782F636F72652E786D6CC5535B6E833010BC8AE5DF0A6C08340F1947A84D4ED00B38C6A128602363A31CBFCB234A53A551FA553EC09AD9F5CE8C31DB9E9B1AF5CA
310
7695D1198E428A91D2D214952E33ECDD315861B4E5CC1AE3BE9561A445A3323CC098B3D21ADFCE9034DA29ED00D5A6503328BA4E398C640D8B0C77F253352214DE4145770A5B214FA2546114020D759C75CE8200340D19DE981F0F6746269C33EFAB6266AB02A655C74A59CCF365BADC27CB5D902ED22848F6340DF238A141
310
BE88E2F57B92BFEDF23523433367AE6A2EEAA455C2A902F398D2751045018D3FA264435F3771F242571B4A1919CA6F9A7C5B3CD9E42BED16F12C776AEB308F40C848FC700B1139D4891EF410CEC810227CC6846F8386402064270EF5C5C709A05E49676C024C61FC95EA45ED154CA5211D1FF4FB8291A913A68E9B83EBBB33
310
E2A7673CDE118E5AE8124C0807CB8377834E366998436B950D7A7746DAD846D4CFD978E0F04FD455FC5D49D2D4C6FE9722321F10997F0F32DC47FE05504B0304140006080800CC70623BFFEA85907E0000009D0000000B0000006662782F636E782E786D6C4DCCD10A83201886E15B91FFDC95D95A811AB6F23E625948A6C3
310
E9D8E5AF46073BFAE0E1E365ED67B3E8ADC3CB78C7815C7240DA3DFC64DCC221C519D7805AC182F7F1EF06C88D9BE6703008B6049F9E274D7A1E938DBB5AE3D6131B2589BA0D3D965551E0B2EA732C9B9A624AAEB41E3A557677029960D9AFB4EF11165F504B0304140006080800CC70623B4FEEA4082C0100001202000031
310
0000006662782F39464131463745442D413632322D343644302D413938332D3331353338454246344243312F636F72652E786D6C8D515B6EC32010BC0AE2AB55850DD871ED0813254D72825EC00192A2C460F1A872FC42ED48ED5F7E00CDCECCCEB26C731F6FE05B39AFADE921293004CA082BB5B9F43086336A21D870E6AC
310
0D7F68109861543DCC30E4ECE26C9C164858139409093556AA051CBC570102714B8F1E7AF1A5C6A11862480C7F2DA6415C878B2A4891CA89C7990F2E050073937C42DE1DB7E4F87ED8A36D4329AA9B3D46DBAEAD504556557BD81DEBDD0761E52CE42C462D17B996298E3E6BE59E35C962CE821E1FF18553435012728A7187
310
0841987E927A8D9B35ADDF70BBC6989599FE4F1427F9A4286A132ABAC49D651EF234CD5CE04CDA78BA3DC2A8FB645D00B9DF8B57E215725C60BCA2A463E54C4CE327C7A65E1C7DB02E7DEFCBF594B864C5CA6CDBD49C957943E9FA5D5FBAF336F90F504B0304140006080800CC70623BAD7543B64E01000033030000300000
310
006662782F39464131463745442D413632322D343644302D413938332D3331353338454246344243312F636E782E786D6CD593CD6EC32010845F0571AD6CE3D48AD20813A9873E410FBD12D82434182C7EAAE6EDBB2424CD25871E7B41D6EC30B3FA84F9E67BB2E40B4234DE8DB46F1925E094D7C6ED479AD3AE5951B2113C
310
789FEE6C943839C1488B4C05DF079FE72A69D8C96C13AAD6B8631503449F83828872B949AC57D26200B826A308D316B4064D6E46FCDA41C05550DC9E483A00797BFD207EFB092A45DE9514C1BBD22178396BD39D891265658C238DEA00936C654E5E433CB65A26D9F6EDB5EBC14EBF49A45CB856E66048291F6939A9A81BB5
310
C8917738143CA680F4AA299D66A042CEB3354A2684DC9D8D178FE0D9B8B41CAAD720F880EE7EF93C0C18769E099ECC04D5A102C8049A8A05632F4DDF376CF1DE0F6BB65C2F8627B65A33C6BB62177CEBBDAD973006829F89F22E814B54F4BC2BE347F8AA8F681390B50FA73F804400B5F542E796F19FF974E7F78DB802FE05
310
E207504B0304140006080800CC70623B16AB87BA640500003C100000340000006662782F39464131463745442D413632322D343644302D413938332D3331353338454246344243312F6F626A656374732E786D6CAD575B6FA33818FD2B887DE6924B3BED8A326A92B68A663B534DD4D13E548A0C38942D60649B369D5FBFC7
310
600890A493BDE42160637FD7F31D7FF63E6FB3D478A55C242CBF3247B66B1A340F5994E4F19559CA8D75611A9F7D8F33263BCB4C232719BD32D5B4E97B316765A1A722BA21652A07B3B7B33F0D11D29C9A46981221AE4C113ED38CD8A4942CA2E2C58E882476BCD9DA23BB5ED8171B73523C0F841684D35CC252CCE79062D4
310
468DFA43D7747CCF51DF7D4FFDEB5593E3AB9CCA9FBEFE241792E4E19EB28198C968BAB8199F5D5A67D3E9C49A9E8F47D6EC76B6B0469F26EEFC7C3EBFBCBEB98462213924694B38DD98FE1D62C393D073EA4FADC5DAF04326852CCF6958F90F0F2B9BB5C48816348F90C7840A68EB78EDF68723159BCEE7891A6B95DDE9D3
310
BCEAEEE8086A6C6F9E5D4B59F0175C10A7A0820BAA5055C7473B5AE3CFDD452D602CD5DF12616444529E90D448938013FE6EFA58AA96F85E4F8C42275708571E98FE6827AF6B2B4AE3D7D83D64E5A64C53054DD3AF90BD06FEA9149565C94FCA0F6B834DC85599E4F2423B24DF0B6AFA979E534DFA9E7A4CC6FA631D486393
310
921829879BF5D781A373557BCB85E97FB90DB62B558F8795179C15944B051F40AB495CF35451D26A4727654E6D8033BD98EF82F21D91FF8AF2DD9982BCF1643BDD4EB516C9492E368C67C88DED563FC36D5EACF66DFF057C3658BDBFA69DF9578B3DA735B64F18C7F20770A9D45CFCF7FCF563D6456A277DBEF78A02637CA2
310
43B90A490AEAB94F72244481D24819A6C0E59B606BFA4B3025981DBB48EAB701D97BF19C577CC77F2D1B6C55A9EF3C732474C0B727303F625995056C3B02963D9EAC146BE78EC5FCEC7FA999EBC5EACBAAE41B12D27B4D2C0BBA49F244E2ECDC81B76B502F113D8F5EE8FB1BE3111CDD4FC2AA9B844CAB1288B68AB90A7CDC
310
1C166AB0D3DC5310625FCC14E779BFD0709F8890A629C9292B1B2DED31A4B0DA928CEE135085754027E3018A397D4D5427D15BD1330B677DC8934285AC3DF45A9EB68FF8F2B8FC0A509AFEECFD0FF2DE25CC6047F7214B195F07EFEB9A094D800F7BFAE8FED187B78EA8A3A400F115961BCAD1215E47C966530AF0EE8128FE
310
58CEBB996A8964FFA529A046635D9353B0336A8F700DDF46271A024E70B0B37C9DE01847591E54DED53D54202AB947E4076556AC49C6CA5C9E1226B7F1A7B1BE15DEED62C41B91E1B3E9AFAAA735036547343A925075041DF0A9979E893B391F8FCFA6967B3EFB644DCF6E5CEBFAE272625DCC6FAF3FB93793C5F90CE1EF57
310
407342756B10D1C489E8953CD1617E5CEECAD6F4EF8914CE5D5D504E5C3F1F9736DA62CFC11E00BCDDB8CC8A9466349744C1F75EBDA4DF09BA8A9E8C7A7E9991989E20E5DBDD6A6003664ED8F7A04A8DBE0DF6EAD9B9AA858342E47399053949D2C146EDB85DE4B176BB0965FBAC19BD19AA918E27FA50C1D22402E144464C
310
59462568E704B6E71915404CB72B8FF4EDE184DDAF753F284990D2C6926782963815403548A70C657FDEF80D2D9CEAA2AE4C1C76F60BFE74219A06527D6582DF6412526107381E55E353090704D085B52408D0933C4ED159D79BDA71BB4BC506F4831350EB6F979CD22D69BF7AC49B91A2C0A9DDA3D5CA36AD20FC478E37E6
310
1844E2352865EBCB6EA275A652E3836BE04EFB400BF1A2556F515F1FBB35B2AB35BD889C744FFA1004B5544B121E57F70215746DD2F5E2C1412B602CBF19455AC6C8E5E9922C4E01E65215385004546899059180EAFCF7A707CE7017CD8CDB0410789AB32C63B91E5CEBBBACB17AC6CD347A022D5075FD106377347AAABA7E
310
7D11590744509B44E205134DC1290F06580320F78E537D3D73540E06CB970B431F185308AD40BBD794D6D77003C5A36E8EAA54BA64597CD8F83BD552A080A365F7FF06504B0304140006080000CC70623B000000000000000000000000350000006662782F39464131463745442D413632322D343644302D413938332D3331
310
353338454246344243312F76657274696365732E62696E504B0304140006080800CC70623BF270F1330600000004000000360000006662782F39464131463745442D413632322D343644302D413938332D3331353338454246344243312F747269616E676C65732E62696E636660600000504B0304140006080000CC70623B
310
000000000000000000000000370000006662782F39464131463745442D413632322D343644302D413938332D3331353338454246344243312F617474726962757465732E62696E504B0304140006080800CC70623B08DA0BD19000000041010000360000006662782F39464131463745442D413632322D343644302D413938
310
332D3331353338454246344243312F6469726563746F72792E786D6C858F410AC3201045AF22B36F53E9A60B35CBEEBAE80D244E44489C6234F4F835464A48035D0DF398FF9F8AF63D0E6CC63039F212F8F9020C7D47C6792B21C5FE7403D62A1188E2E60C98D7234A5830286103A55745067B9D86B8A3CF9C7F90C11DE607
310
FB144396D7B6A82D282E9A152AD114D5EF2CB866EEE831B8EEA07A7BB5A8D7D61A2BAAEB7FD5F70921FF497D00504B0304140006080800CC70623B0D6EF93BFE000000A00100003B0000006662782F39464131463745442D413632322D343644302D413938332D3331353338454246344243312F7265736F75726365732F63
310
6F72652E786D6C8D50596E833010BD0A9ADFCA60B334011947A8694ED00B586642AC041B79A97AFC9A40A5F6AF3F33A3B7689E1E3F7DCD8FEC139DD7D6F4C0720A191A65476DA61E62B892236427C19DB5E1970C322367EC618541F0C9D9B8EC90B226A009093576C41D94DE63804C3DD2D18357379C652E63480A7FCF17A9
310
EE72C29CE5894E3AC17D702940B63D59270887DE46A7D0F36263058F518FBB468FE9A7BE6A7420864373B8D4873369AA8691FA421B3294352543C5CAF65C0F6FEF43CB8BD52C78D0F34F46E550061C419494B6843142CB0F5677F4B52BEB177AEC28E5C52AFF638ACBF84F53D42654E51E77B379102C05791282176B5F693D
310
CB4C7BED567C03504B010214000A0000080000CC70623B3DEE336E79000000790000001B00000000000000000000000000000000006175746F6465736B2D64657369676E2D7061636B6167652E786D6C504B01021400140006080800CC70623BD486FD9CA0000000F40000001300000000000000000000000000B20000005B
310
436F6E74656E745F54797065735D2E786D6C504B01021400140006080800CC70623B1EC5D7A3EB0000007C010000080000000000000000000000000083010000636F72652E786D6C504B01021400140006080800CC70623B55019EA25F0000007C000000070000000000000000000000000094020000636E782E786D6C504B
310
01021400140006080800CC70623B8C9102E971010000D40300000C00000000000000000000000000180300006662782F636F72652E786D6C504B01021400140006080800CC70623BFFEA85907E0000009D0000000B00000000000000000000000000B30400006662782F636E782E786D6C504B01021400140006080800CC70
310
623B4FEEA4082C0100001202000031000000000000000000000000005A0500006662782F39464131463745442D413632322D343644302D413938332D3331353338454246344243312F636F72652E786D6C504B01021400140006080800CC70623BAD7543B64E010000330300003000000000000000000000000000D5060000
310
6662782F39464131463745442D413632322D343644302D413938332D3331353338454246344243312F636E782E786D6C504B01021400140006080800CC70623B16AB87BA640500003C1000003400000000000000000000000000710800006662782F39464131463745442D413632322D343644302D413938332D3331353338
310
454246344243312F6F626A656374732E786D6C504B01021400140006080000CC70623B0000000000000000000000003500000000000000000000000000270E00006662782F39464131463745442D413632322D343644302D413938332D3331353338454246344243312F76657274696365732E62696E504B01021400140006
310
080800CC70623BF270F133060000000400000036000000000000000000000000007A0E00006662782F39464131463745442D413632322D343644302D413938332D3331353338454246344243312F747269616E676C65732E62696E504B01021400140006080000CC70623B0000000000000000000000003700000000000000
310
000000000000D40E00006662782F39464131463745442D413632322D343644302D413938332D3331353338454246344243312F617474726962757465732E62696E504B01021400140006080800CC70623B08DA0BD190000000410100003600000000000000000000000000290F00006662782F39464131463745442D413632
310
322D343644302D413938332D3331353338454246344243312F6469726563746F72792E786D6C504B01021400140006080800CC70623B0D6EF93BFE000000A00100003B000000000000000000000000000D1000006662782F39464131463745442D413632322D343644302D413938332D3331353338454246344243312F7265
310
736F75726365732F636F72652E786D6C504B0506000000000E000E0080040000641100000000
  0
XRECORD
  5
CB7
102
{ACAD_REACTORS
330
173
102
}
330
173
100
AcDbXrecord
102
MATERIAL
148
0.0
149
0.0
149
0.0
 93
        0
 94
       63
282
     0
 72
     1
 77
     1
171
     1
175
     1
179
     1
273
     0
  0
XRECORD
  5
1FB
102
{ACAD_REACTORS
330
173
102
}
330
173
100
AcDbXrecord
 70
     0
 90
1673772943
  1
ECE7A1D2-D628-4531-984C-D00F80459256
310
504B03040A0000080000CC70623B3DEE336E79000000790000001B0000006175746F6465736B2D64657369676E2D7061636B6167652E786D6C3C3F786D6C2076657273696F6E3D22312E302220656E636F64696E673D227574662D3822203F3E3C666F726D6174733E3C666F726D61743E687474703A2F2F736368656D612E
310
6175746F6465736B2E636F6D2F64657369676E2D7061636B6167652F323030393C2F666F726D61743E3C2F666F726D6174733E504B0304140006080800CC70623BD486FD9CA0000000F4000000130000005B436F6E74656E745F54797065735D2E786D6C7D8EC10E82300C865F65E91D8A1E8C310C0EEA1BF002731658846E
310
D98AC1B77784ABF1D8FE5FBFBF75BBCE937A534CCEB38643598122B6FEE978D0B0485F9C41B54DDD7D022595594E1A469170414C76A4D9A4D207E29CF43ECE46F218070CC6BECC4078ACAA135ACF422C856C0E68EA1BF5669944DDD7BCDE7B1F8E415D77AECB980613C2E4AC91FC167A2B244592486606FC29C8FD7F045B9A
310
EF7053A7E60B504B0304140006080800CC70623BD9DDAED0EC0000007C01000008000000636F72652E786D6C8D90416EC3201045AF82665B61836D9CD8C2444DD39CA01740405C94182C03558F5F9C3852BBEB6A467FFE9B197D7EF89E6EE8CB2CC17A37002D0820E394D7D68D03A478C17B4007C117EFE32F1B20272733C0
310
2A83E0E3E2D3BC49CABB685CCCAAF3DA6CA20CC14440EA969B0182FA34932C648AD911AEC52CD5558EA6A0CF2EC329598D1E47ACCEFBECC59A050463A7EA5833865FEBDD0E37353BE3EE8DBDE3F6786A48D375FBF6CC78B9C282473B3DEFABC5C86834888A900E538A49F5419B9EB47DD5BC907D4F082F57FB1F28CDFA9F50
310
B22ED6D5F6EE030B20687EE43E10BC5CB3C8E51E54AE6B6EE207504B0304140006080800CC70623B55019EA25F0000007C00000007000000636E782E786D6C4DCB3B0E80201045D1AD90E915ED2CF8AC45050C11660C8261F98AB1B07AC9C97D42D718D865D3E909258CFD00CCE24AC6E326A164D74DC0B4128928FF326038
310
472BA13128B1252AC747C6BAB984FC68F0B87FE8960A5C09FE86CFB69FBA01504B0304140006080800CC70623BA24EB22D72010000D40300000C0000006662782F636F72652E786D6CC5535B6E833010BC8AE5DF0A6C5E49888CA3A6694ED00B38E05014B091B1518EDFE511A5A9D228FD2A1F60CDEC7A67C6986DCE4D8D7A
310
69BA4AAB0C073EC548AA5C17952A33ECECD15B61B4E1CC686DBF9561A44423333CC098B3D268D7CE50AE9595CA02AA74216750749DB418E5352C32DCE59FB211BE70162ABA93DF8AFC244AE9073ED050C759670D0840D390E18DF9F1706664C23973AE2A66B62A605A75ACA4C13C4976E1364A12EF355A2EBD384AF65EFA96
310
BC7B8BED2EA6719AAE16FB8491A199335B351775B991C2CA02F390D2D40B028F861F41BCA68B7518BFD0D59A524686F29B26D7164F36B94AD9289CE54E6D1DE6010819891F6E21228B3AD1831EC219194284CF98F06DD01008846CC5A1BEF83801D4CBDC6A1303536877A57A513B0953A94FC707FDBE6064EA84A9E3E6E0FA
310
EE8CF0E9198F7784A316AA0413C2C2F2E0ECA0934D1AE6D05A69BCDE9E91D2A611F573361E38FC1375157F5752AE6B6DFE4B11990F88CCBF0719EE23FF02504B0304140006080800CC70623B408A7D3B7C0000009D0000000B0000006662782F636E782E786D6C4DCCD10A83201886E15B91FFDC552A92A0064DBC8F581632
310
D3703A76F9ABD1C18E3E78F878E5F0D9027ABBFCF2292AE86E2D20171F69F6715550CB827B40839639A5F2770314A7CD293819B45C73AAFB45B35BA61ACAA1C1C7E7855C58C15BC331339661262CC762340413D68D77DA5B42298546CBE6573AF60CEB2F504B0304140006080800CC70623B449FB9BD290100001202000031
310
0000006662782F36394639363044362D344446342D343946362D394244322D3234314243333846323333332F636F72652E786D6C8D515B6EC32010BC0AE22B55850D98B871848994463E412FE002495162B07854397EA176A4F62F3F2C9A9D991D587EB84F37F0AD7D30CEF6905418026DA553C65E7A98E219ED203808EE9D
310
8B7F6810D871D23D2C3014FCE25D9A57483A1BB58D19B54EE9151C43D0110279CB971E06F9A5A7B11A53CC8C70ADE6515EC78BAE4895DB992778883E0700CB907242D17643D7E2538BD869608875438BBAE38922CAC8F1BDD90DB4691A5E2F42C153326A951B95E398B3D1FE599322163C9AE9115F7A3D46ADA0A018778810
310
84E907617BDCEE297BC5BB3DC6BC2EF47FA234AB2745C9D8D8D035EE220B50105E2F0DC1954B9FB747187D9F9D8FA0CCDB042D5FA0C015C65B42DF78BD10F3F3B363CB56C7109DCFDFBBB97E662ED92EB62D13BC2E1BCAE5777DB9966D8A1F504B0304140006080800CC70623BAD7543B64E01000033030000300000006662
310
782F36394639363044362D344446342D343946362D394244322D3234314243333846323333332F636E782E786D6CD593CD6EC32010845F0571AD6CE3D48AD20813A9873E410FBD12D82434182C7EAAE6EDBB2424CD25871E7B41D6EC30B3FA84F9E67BB2E40B4234DE8DB46F1925E094D7C6ED479AD3AE5951B2113C789FEE
310
6C943839C1488B4C05DF079FE72A69D8C96C13AAD6B8631503449F83828872B949AC57D26200B826A308D316B4064D6E46FCDA41C05550DC9E483A00797BFD207EFB092A45DE9514C1BBD22178396BD39D891265658C238DEA00936C654E5E433CB65A26D9F6EDB5EBC14EBF49A45CB856E66048291F6939A9A81BB5C89177
310
38143CA680F4AA299D66A042CEB3354A2684DC9D8D178FE0D9B8B41CAAD720F880EE7EF93C0C18769E099ECC04D5A102C8049A8A05632F4DDF376CF1DE0F6BB65C2F8627B65A33C6BB62177CEBBDAD973006829F89F22E814B54F4BC2BE347F8AA8F681390B50FA73F804400B5F542E796F19FF974E7F78DB802FE05E20750
310
4B0304140006080800CC70623B8D05915C650500003B100000340000006662782F36394639363044362D344446342D343946362D394244322D3234314243333846323333332F6F626A656374732E786D6CAD575B6FA33814FE2B887D06429276DA1565D4266D158D3A339A6846FB502932E050B66023DB74D2FDF5FB190C01
310
9276B2973C046C8ECFF53B17071F77456EBD502133CEAE6CDF9DD81665314F32965ED995DA3A17B6F5310C04E7AA47665B8C14F4CAD6DB7618A48257A5D94AE89654B91AEDDEDDFC61C998326A5B714EA4BCB265FC440BE2924AF184CA6737218AB8E976E7FA6E4338649B0A523E8D98964450A6A029F619B8588D52FE7039
310
B1BD30F0F4F730D0FF866AF6369557DB33949F31A9088B0F848DD8CCFCF9F2767A76E99CCDE733677E3EF59D9BBB9BA5E37F984D16E78BC5E5F5ED25044B25C0C96822E8D60EEFE11B91C581D77CEA34368A1F5329E68CD1B8B61F16D63A1B8E092D294B10C78C4A48EB593D192E7DED9BDEE7995E1B91FDEDD3ACEA9FE831
310
6A756F9F7D4D79F4274C90A7A04248AA51D5F8C718DAE06FB2F75AC4796EBE65D22A88A22223B995679120E2D50E41AA49C260C046A35368846B0BECD0DFF3EBEB8AD4F835768F69B9ADF25C43D30E6B646F807FAA64AD59F61715C7A54127C4AACA98BA3006A9D792DAE165E0D59B61A01FB3A9F9D838D2DAE62445C86166
310
F37564E842E7DE6A69879FEEA2DD5AE7E371E1A5E025154AC307D06A03D73EB5978C58FFA4C8E9033066E0F3BD53BEC1F39F91BE7B55103791EDE6BBB991A2046172CB4581D8B893FA674DDA17A77B3B7C413D1B511FD2743BFF8A38F03A658705E3ADF8015C3A3417FF3D7E439FF591DA0B5F18BC20C1B8981957AE6392A3
310
F43C640C01D1A0B4728E2DD4F26DB4B3C3152A252A3B4E913CEC1C72F012782FF88EFF8637AA552DBEF76408E8A8DE9E50F9E1CB3A2DA0DB1B6039A893B56063DC5B3E3FFB5F72E67AB9FEB4AEC496C4F4C1149625DD662C53E89D7BF0F6151A046260D1337DFDC94502430F83B0EE07A130A224BCAD7DAE1D9FB6CD422FF6
310
920702629C4BB9AE79C12F243C6432A6794E18E5552BA56B431AAB5D91317302B2B071E86C3A42B1A02F999E24061403B5D0EB639195DA655DD3EBEAB4FB862DDF579F014AD0E73C22F99E28DA57FB98E75C6CA2D74D53086D600F4786E0FE3144B771A8A7B900F03594DB8A633CBC49B2EDB69228BB479CF863B5E807AAAB
310
23872F6DFEB4129B949CA33823F58830E86D65621E10047D9DB34D862E8EAC3C2ABC2F7B2C40D67CDFE01F5545B92105AF983AC54D93D69E56FB8E797F88913F898A9FEC705D3F9D1B54EC8426FB500D40A03BD0119B06E1B95DDC7EB8F6975367793EBD70E66733DFB9BC982F9CE564727731999F5D4ECFCE3B8D6A4DC2A0
310
6D50FD148437D110834A64C6CDDF57FBACB5C307A2A477DFE4939736CFEF2B175371E0E10CF0DD1D5C15654E0BCA14D1E87DD02FF93782A162C0A3D95F1524A52770F972BF1EE9809D13CE7DD599467F8ECE9ADD85CE85A34CD45355448C64F9E8A031DC2D596ACC6E5DD93D9B82DE2EF5CAF81363A8E47996A0DE24564A79
310
4115AACE09C55E14540231FDA13C319787134EBF34E3A022514E5B4D9E0826E25C02D5805B15ABE1BEF51B26383D445DD9E875EE33FE4C22DA16427D65A3BCA92CA6D28DD01DF5DC53330704308475351050232CCD31583787BA75774AFB06E5070DD0C8EF484E19968C5D83BA5B90B244D31E54D55A372320FE4786B7EA58
310
44E135AA5467CB7EA333A61683CC6A8C3257034C10CF46F40EF9F5BE59BE5BD30C3C72D235E95D10345C1D45445A5F0BB47E46A5EBE5570F9380B5FA629579952296A773720405982B9DE04011506178964401AA8BDF1FBF0A8EAB6861DD6580C0E38217056766716DAEB2D6FA0917D3E4116581EADB879C4E7CFFB11EFACD
310
3D641311495D92C8676CB409A72D18610D803CE8A626049E8EC1887CB5B44CC39883690DDA8399B4B9855B481E7D71D4A9D22F96E5BB73BF5793020C02137BF837504B0304140006080000CC70623B000000000000000000000000350000006662782F36394639363044362D344446342D343946362D394244322D32343142
310
43333846323333332F76657274696365732E62696E504B0304140006080800CC70623BF270F1330600000004000000360000006662782F36394639363044362D344446342D343946362D394244322D3234314243333846323333332F747269616E676C65732E62696E636660600000504B0304140006080000CC70623B0000
310
00000000000000000000370000006662782F36394639363044362D344446342D343946362D394244322D3234314243333846323333332F617474726962757465732E62696E504B0304140006080800CC70623B08DA0BD19000000041010000360000006662782F36394639363044362D344446342D343946362D394244322D
310
3234314243333846323333332F6469726563746F72792E786D6C858F410AC3201045AF22B36F53E9A60B35CBEEBAE80D244E44489C6234F4F835464A48035D0DF398FF9F8AF63D0E6CC63039F212F8F9020C7D47C6792B21C5FE7403D62A1188E2E60C98D7234A5830286103A55745067B9D86B8A3CF9C7F90C11DE607FB14
310
4396D7B6A82D282E9A152AD114D5EF2CB866EEE831B8EEA07A7BB5A8D7D61A2BAAEB7FD5F70921FF497D00504B0304140006080800CC70623BCA768048FE000000A00100003B0000006662782F36394639363044362D344446342D343946362D394244322D3234314243333846323333332F7265736F75726365732F636F72
310
652E786D6C8D50596E833010BD0A9ADFCA60D600328E9AA639412F609909B1126CE4A5EAF16B0295DABFFECC8CDEA2797AECF8353F924FB44E193D409E5248504B332A3D0D10FC95B4901C39B3C6F85F3248B49871801506CE266BC2B243D2688FDA47549B11775038871E12F988C7004EDE7016A9083E2ADC3D5D84BC8B09
310
D33C8D74D471E6BC8D0192EDC93A815B742658898E651BCB59086ADC356A8C3FD555A1055ED7E7E254D615792D0F075295F585746FF53B694EE78A565DD736979A65AB9933AFE69F8CD2A2F038022F28ED489E135A7CE4554F9BBEA85E68DB53CAB255FEC71496F19FA6A0B42F8B3DEE6673C0F318E4497096AD7DC5F52C33
310
EEB55BFE0D504B010214000A0000080000CC70623B3DEE336E79000000790000001B00000000000000000000000000000000006175746F6465736B2D64657369676E2D7061636B6167652E786D6C504B01021400140006080800CC70623BD486FD9CA0000000F40000001300000000000000000000000000B20000005B436F
310
6E74656E745F54797065735D2E786D6C504B01021400140006080800CC70623BD9DDAED0EC0000007C010000080000000000000000000000000083010000636F72652E786D6C504B01021400140006080800CC70623B55019EA25F0000007C000000070000000000000000000000000095020000636E782E786D6C504B0102
310
1400140006080800CC70623BA24EB22D72010000D40300000C00000000000000000000000000190300006662782F636F72652E786D6C504B01021400140006080800CC70623B408A7D3B7C0000009D0000000B00000000000000000000000000B50400006662782F636E782E786D6C504B01021400140006080800CC70623B
310
449FB9BD290100001202000031000000000000000000000000005A0500006662782F36394639363044362D344446342D343946362D394244322D3234314243333846323333332F636F72652E786D6C504B01021400140006080800CC70623BAD7543B64E010000330300003000000000000000000000000000D20600006662
310
782F36394639363044362D344446342D343946362D394244322D3234314243333846323333332F636E782E786D6C504B01021400140006080800CC70623B8D05915C650500003B10000034000000000000000000000000006E0800006662782F36394639363044362D344446342D343946362D394244322D32343142433338
310
46323333332F6F626A656374732E786D6C504B01021400140006080000CC70623B0000000000000000000000003500000000000000000000000000250E00006662782F36394639363044362D344446342D343946362D394244322D3234314243333846323333332F76657274696365732E62696E504B010214001400060808
310
00CC70623BF270F13306000000040000003600000000000000000000000000780E00006662782F36394639363044362D344446342D343946362D394244322D3234314243333846323333332F747269616E676C65732E62696E504B01021400140006080000CC70623B00000000000000000000000037000000000000000000
310
00000000D20E00006662782F36394639363044362D344446342D343946362D394244322D3234314243333846323333332F617474726962757465732E62696E504B01021400140006080800CC70623B08DA0BD190000000410100003600000000000000000000000000270F00006662782F36394639363044362D344446342D
310
343946362D394244322D3234314243333846323333332F6469726563746F72792E786D6C504B01021400140006080800CC70623BCA768048FE000000A00100003B000000000000000000000000000B1000006662782F36394639363044362D344446342D343946362D394244322D3234314243333846323333332F7265736F
310
75726365732F636F72652E786D6C504B0506000000000E000E0080040000621100000000
  0
ACAD_PROXY_OBJECT
  5
B85
330
B6F
100
AcDbProxyObject
 90
      499
 91
      529
 93
       30
310
40A78950
330
B32
330
0
330
0
360
B86
 94
        0
1001
ACAD
1000
AcadProxyRoundTripData
1071
      520
1071
 11403297
1070
     0
  0
ACAD_PROXY_OBJECT
  5
B79
330
B6F
100
AcDbProxyObject
 90
      499
 91
      529
 93
       94
310
40AB8BC4AD0B004000101004
330
B97
330
0
330
0
360
0
 94
        0
1001
ACAD
1000
AcadProxyRoundTripData
1071
      519
1071
 11403297
1070
     0
  0
ACAD_PROXY_OBJECT
  5
B7D
330
B6F
100
AcDbProxyObject
 90
      499
 91
      529
 93
       77
310
40AF3C363FFFC9AD2020
330
B29
330
0
330
0
360
0
 94
        0
1001
ACAD
1000
AcadProxyRoundTripData
1071
      518
1071
 11403297
1070
     0
  0
ACAD_PROXY_OBJECT
  5
B87
330
B6F
100
AcDbProxyObject
 90
      499
 91
      529
 93
       77
310
40AF3C363FFFC9952020
330
B2C
330
0
330
0
360
0
 94
        0
1001
ACAD
1000
AcadProxyRoundTripData
1071
      518
1071
 11403297
1070
     0
  0
ACAD_PROXY_OBJECT
  5
B83
330
B6F
100
AcDbProxyObject
 90
      499
 91
      529
 93
       94
310
40AB89CCAD1D006000101004
330
B96
330
0
330
0
360
0
 94
        0
1001
ACAD
1000
AcadProxyRoundTripData
1071
      519
1071
 11403297
1070
     0
  0
ACAD_PROXY_OBJECT
  5
B7F
330
B6F
100
AcDbProxyObject
 90
      499
 91
      529
 93
       77
310
40AF3C363FFFC99D2020
330
B28
330
0
330
0
360
0
 94
        0
1001
ACAD
1000
AcadProxyRoundTripData
1071
      518
1071
 11403297
1070
     0
  0
ACAD_PROXY_OBJECT
  5
B7B
330
B6F
100
AcDbProxyObject
 90
      499
 91
      529
 93
       30
310
40A78B90
330
B47
330
0
330
0
360
B7C
 94
        0
1001
ACAD
1000
AcadProxyRoundTripData
1071
      520
1071
 11403297
1070
     0
  0
ACAD_PROXY_OBJECT
  5
B82
330
B6F
100
AcDbProxyObject
 90
      499
 91
      529
 93
       77
310
40AF3C363FFFC98D2020
330
B26
330
0
330
0
360
0
 94
        0
1001
ACAD
1000
AcadProxyRoundTripData
1071
      518
1071
 11403297
1070
     0
  0
ACAD_PROXY_OBJECT
  5
B7E
330
B6F
100
AcDbProxyObject
 90
      499
 91
      529
 93
       77
310
40AF3C363FFFCBBD2020
330
B43
330
0
330
0
360
0
 94
        0
1001
ACAD
1000
AcadProxyRoundTripData
1071
      518
1071
 11403297
1070
     0
  0
ACAD_PROXY_OBJECT
  5
B7A
330
B6F
100
AcDbProxyObject
 90
      499
 91
      529
 93
       70
310
40AB8B8CAD21301004
330
B99
330
0
330
0
360
0
 94
        0
1001
ACAD
1000
AcadProxyRoundTripData
1071
      519
1071
 11403297
1070
     0
  0
ACAD_PROXY_OBJECT
  5
B71
330
B6F
100
AcDbProxyObject
 90
      499
 91
      529
 93
       30
310
40A789D0
330
B36
330
0
330
0
360
B72
 94
        0
1001
ACAD
1000
AcadProxyRoundTripData
1071
      520
1071
 11403297
1070
     0
  0
ACAD_PROXY_OBJECT
  5
B75
330
B6F
100
AcDbProxyObject
 90
      499
 91
      529
 93
       94
310
40AB894CAD1D006000101004
330
B94
330
0
330
0
360
0
 94
        0
1001
ACAD
1000
AcadProxyRoundTripData
1071
      519
1071
 11403297
1070
     0
  0
ACAD_PROXY_OBJECT
  5
B76
330
B6F
100
AcDbProxyObject
 90
      499
 91
      529
 93
       70
310
40AB8B9CAD23301004
330
B98
330
0
330
0
360
0
 94
        0
1001
ACAD
1000
AcadProxyRoundTripData
1071
      519
1071
 11403297
1070
     0
  0
ACAD_PROXY_OBJECT
  5
B73
330
B6F
100
AcDbProxyObject
 90
      499
 91
      529
 93
       30
310
40A789B8
330
B33
330
0
330
0
360
B74
 94
        0
1001
ACAD
1000
AcadProxyRoundTripData
1071
      520
1071
 11403297
1070
     0
  0
ACAD_PROXY_OBJECT
  5
B77
330
B6F
100
AcDbProxyObject
 90
      499
 91
      529
 93
       77
310
40AF3C363FFFCBA52020
330
B44
330
0
330
0
360
0
 94
        0
1001
ACAD
1000
AcadProxyRoundTripData
1071
      518
1071
 11403297
1070
     0
  0
ACAD_PROXY_OBJECT
  5
B84
330
B6F
100
AcDbProxyObject
 90
      499
 91
      529
 93
       70
310
40AB89B4AD22901005
330
B95
330
0
330
0
360
0
 94
        0
1001
ACAD
1000
AcadProxyRoundTripData
1071
      519
1071
 11403297
1070
     0
  0
ACAD_PROXY_OBJECT
  5
B80
330
B6F
100
AcDbProxyObject
 90
      499
 91
      529
 93
       30
310
40A78920
330
B30
330
0
330
0
360
B81
 94
        0
1001
ACAD
1000
AcadProxyRoundTripData
1071
      520
1071
 11403297
1070
     0
  0
ACAD_PROXY_OBJECT
  5
B78
330
B6F
100
AcDbProxyObject
 90
      499
 91
      529
 93
       77
310
40AF3C363FFFC9452020
330
B31
330
0
330
0
360
0
 94
        0
1001
ACAD
1000
AcadProxyRoundTripData
1071
      518
1071
 11403297
1070
     0
  0
ACAD_PROXY_OBJECT
  5
B70
330
B6F
100
AcDbProxyObject
 90
      499
 91
      529
 93
       77
310
40AF3C363FFFC9F52020
330
B37
330
0
330
0
360
0
 94
        0
1001
ACAD
1000
AcadProxyRoundTripData
1071
      518
1071
 11403297
1070
     0
  0
ACAD_PROXY_OBJECT
  5
B90
330
B6F
100
AcDbProxyObject
 90
      499
 91
      529
 93
       77
310
40AF3C363FFFC9A52020
330
B27
330
0
330
0
360
0
 94
        0
1001
ACAD
1000
AcadProxyRoundTripData
1071
      518
1071
 11403297
1070
     0
  0
ACAD_PROXY_OBJECT
  5
B88
330
B6F
100
AcDbProxyObject
 90
      499
 91
      529
 93
       77
310
40AF3C363FFFC9152020
330
B2F
330
0
330
0
360
0
 94
        0
1001
ACAD
1000
AcadProxyRoundTripData
1071
      518
1071
 11403297
1070
     0
  0
ACAD_PROXY_OBJECT
  5
B8F
330
B6F
100
AcDbProxyObject
 90
      499
 91
      529
 93
       77
310
40AF3C363FFFCB7D2020
330
B40
330
0
330
0
360
0
 94
        0
1001
ACAD
1000
AcadProxyRoundTripData
1071
      518
1071
 11403297
1070
     0
  0
ACAD_PROXY_OBJECT
  5
B8B
330
B6F
100
AcDbProxyObject
 90
      499
 91
      529
 93
       30
310
40A78BA8
330
B45
330
0
330
0
360
B8C
 94
        0
1001
ACAD
1000
AcadProxyRoundTripData
1071
      520
1071
 11403297
1070
     0
  0
ACAD_PROXY_OBJECT
  5
B92
330
B6F
100
AcDbProxyObject
 90
      499
 91
      529
 93
       77
310
40AF3C363FFFC9C52020
330
B35
330
0
330
0
360
0
 94
        0
1001
ACAD
1000
AcadProxyRoundTripData
1071
      518
1071
 11403297
1070
     0
  0
ACAD_PROXY_OBJECT
  5
B8A
330
B6F
100
AcDbProxyObject
 90
      499
 91
      529
 93
       70
310
40AB891CAD22901005
330
B93
330
0
330
0
360
0
 94
        0
1001
ACAD
1000
AcadProxyRoundTripData
1071
      519
1071
 11403297
1070
     0
  0
ACAD_PROXY_OBJECT
  5
B91
330
B6F
100
AcDbProxyObject
 90
      499
 91
      529
 93
       77
310
40AF3C363FFFC8DD2020
330
B2E
330
0
330
0
360
0
 94
        0
1001
ACAD
1000
AcadProxyRoundTripData
1071
      518
1071
 11403297
1070
     0
  0
ACAD_PROXY_OBJECT
  5
B8D
330
B6F
100
AcDbProxyObject
 90
      499
 91
      529
 93
       30
310
40A78BB0
330
B46
330
0
330
0
360
B8E
 94
        0
1001
ACAD
1000
AcadProxyRoundTripData
1071
      520
1071
 11403297
1070
     0
  0
ACAD_PROXY_OBJECT
  5
B89
330
B6F
100
AcDbProxyObject
 90
      499
 91
      529
 93
       77
310
40AF3C363FFFCB852020
330
B3F
330
0
330
0
360
0
 94
        0
1001
ACAD
1000
AcadProxyRoundTripData
1071
      518
1071
 11403297
1070
     0
  0
ACAD_PROXY_OBJECT
  5
B86
330
B85
100
AcDbProxyObject
 90
      499
 91
      529
 93
      185
310
40501405084A53845F31003D0031003000300030008A00B9
1001
ACAD
1000
AcadProxyRoundTripData
1071
      521
1071
 11403297
1070
     0
  0
ACAD_PROXY_OBJECT
  5
B7C
330
B7B
100
AcDbProxyObject
 90
      499
 91
      529
 93
      121
310
4050140504640036003D0039004A0080
1001
ACAD
1000
AcadProxyRoundTripData
1071
      521
1071
 11403297
1070
     0
  0
ACAD_PROXY_OBJECT
  5
B72
330
B71
100
AcDbProxyObject
 90
      499
 91
      529
 93
      185
310
40501405084A53845F33003D0031003000300030008A00B9
1001
ACAD
1000
AcadProxyRoundTripData
1071
      521
1071
 11403297
1070
     0
  0
ACAD_PROXY_OBJECT
  5
B74
330
B73
100
AcDbProxyObject
 90
      499
 91
      529
 93
      137
310
4050140505640031003D00320030005A00C3
1001
ACAD
1000
AcadProxyRoundTripData
1071
      521
1071
 11403297
1070
     0
  0
ACAD_PROXY_OBJECT
  5
B81
330
B80
100
AcDbProxyObject
 90
      499
 91
      529
 93
      137
310
4050140505640032003D00320030005A0080
1001
ACAD
1000
AcadProxyRoundTripData
1071
      521
1071
 11403297
1070
     0
  0
ACAD_PROXY_OBJECT
  5
B8C
330
B8B
100
AcDbProxyObject
 90
      499
 91
      529
 93
      169
310
40501405074A53845F32003D003600300030007A0080
1001
ACAD
1000
AcadProxyRoundTripData
1071
      521
1071
 11403297
1070
     0
  0
ACAD_PROXY_OBJECT
  5
B8E
330
B8D
100
AcDbProxyObject
 90
      499
 91
      529
 93
      137
310
4050140505640033003D00320035005A0080
1001
ACAD
1000
AcadProxyRoundTripData
1071
      521
1071
 11403297
1070
     0
  0
ENDSEC
  0
EOF
